Avril Lavigne - Smile [2011, Pop punk, Master, 1080p]

Ответить на тему
Статистика раздачи [Обновить пиров]
Размер:  4.55 GB   |    Зарегистрирован:  13 дней   |    Скачан:  0 раз

Полного источника не было: Никогда

 
   
 
 
 
Автор Сообщение

islamvillage.com

Создавать темы 07-Янв-2019 12:20

[Цитировать]

Avril Lavigne - Smile

Жанр: Pop punk
Продолжительность: 00:04:10
Год выхода: 2011
Качество: Master
Разрешение видео/развертка: 1080p
Формат файла: MOV
Видео кодек: ProRes 422 HQ
Аудио кодек: PCM
Видео: ProRes, 1920x1080 (16:9), 23.976 fps, 154 Mbps
Аудио: PCM, 48.0 KHz, 2 ch, 1536 Kbps

Отчёт MediaInfo

ОбщееПолное имя : K:\VIDEO\Avril Lavigne\MASTER\Avril Lavigne - Smile (LPCM-MASTER-PRORES-1080p).movФормат файла : MPEG-4Профиль формата : QuickTimeИдентификатор кодека : qt 2005.03 (qt )Размер файла : 4,55 ГбайтПродолжительность : 4 м. 10 с.Режим общего битрейта : ПеременныйОбщий поток : 156 Мбит/секДата кодирования : UTC 2011-05-17 16:16:49Дата пометки : UTC 2011-05-17 16:25:08Библиотека кодирования : Apple QuickTimeMedia/UUID : 7C99130D-B030-4463-A1A1-B305DCB6F239
ВидеоИдентификатор : 1Формат файла : ProResВерсия формата : Version 0Профиль формата : 422 HQИдентификатор кодека : apchПродолжительность : 4 м. 10 с.Вид битрейта : ПеременныйБитрейт : 154 Мбит/секШирина : 1920 пикселейВысота : 1080 пикселейСоотношение сторон : 16:9Режим частоты кадров : ПостоянныйЧастота кадров : 23,976 (23976/1000) кадра/секЦветовое пространство : YUVСубдискретизация насыщенности : 4:2:2Тип развёртки : ПрогрессивнаяБит/(Пиксели*Кадры) : 3.106Размер потока : 4,50 Гбайт (99%)Библиотека кодирования : AppleЯзык : EnglishДата кодирования : UTC 2011-05-17 16:16:49Дата пометки : UTC 2011-05-17 16:25:08Основные цвета : BT.709Характеристики трансфера : BT.709Коэффициенты матрицы : BT.709matrix_coefficients_Original : BT.709
АудиоИдентификатор : 2Формат файла : PCMНастройки формата : Big / SignedИдентификатор кодека : twosПродолжительность : 4 м. 10 с.Вид битрейта : ПостоянныйБитрейт : 1536 Кбит/секКаналы : 2 каналаChannel layout : L RЧастота : 48,0 КГцБитовая глубина : 16 битРазмер потока : 45,8 Мбайт (1%)Язык : EnglishДата кодирования : UTC 2011-05-17 16:16:50Дата пометки : UTC 2011-05-17 16:25:08
ПрочееИдентификатор : 3Тип : Time codeФормат файла : QuickTime TCПродолжительность : 4 м. 10 с.Временной код первого кадра : 01:00:00:00Временной код, чередующийся : ДаЯзык : EnglishДата кодирования : UTC 2011-05-17 16:25:08Дата пометки : UTC 2011-05-17 16:25:08


[islamvillage.com]_t_5666092.torrent
Торрент: Зарегистрирован ·  [ 2019-01-07 11:59 ] ·  027e3397ca1432ee642473064a7ebea7f0b67df9

23 KB

Статус: проверено
Скачан: 0 раз
Размер: 4.55 GB
Оценка: 
(Голосов: 0)
Сказали спасибо: 0  Спасибо
Похожие темы
[Профиль]    [ЛС]
Показать сообщения:    
Ответить на тему

Текущее время: Сегодня 15:58

Часовой пояс: GMT + 7



Вы не можете начинать темы
Вы не можете отвечать на сообщения
Вы не можете редактировать свои сообщения
Вы не можете удалять свои сообщения
Вы не можете голосовать в опросах
Вы не можете прикреплять файлы к сообщениям
Вы можете скачивать файлы


Surfplanken | Spitfire - Legendado Torrent Documentário / Histórico
2018
1080p 720p Bluray Full HD
Esse é um filme documentário sobre as...
| HD Fantastic Beasts: The Crimes Of Grindelwald (2018)