(Techno, Acid House, Trance, Acid) [WEB, CD] Hardfloor - Discography [1992 - 2018] [60 Releases] FLAC (tracks, image+cue, tracks+.cue), lossless

Ответить на тему
Статистика раздачи [Обновить пиров]
Размер:  16.96 GB   |    Зарегистрирован:  14 дней   |    Скачан:  0 раз

Полного источника не было: Никогда

 
   
 
 
 
Автор Сообщение

islamvillage.com

Создавать темы 07-Янв-2019 12:33

[Цитировать]

Hardfloor- -Жанр: Techno, Acid House, Trance, Acid|| Годы изданий: 1992 - 2018
Аудио кодек: FLAC || Тип рипа: tracks, image+cue, tracks+.cue || Битрейт аудио: lossless || Источник: свои рипы / Torrentc / Apollo / Red Продолжительность: 01:22:03:07
Оформление и систематизация: baal1983
18 11 2018 добавлен сингл 18го года.

Albums & Compilations[1993] Hardfloor – TB Resuscitation [HH CD1]

Жанр: Acid, Techno, House
Производитель диска: Harthouse
Продолжительность: 00:56:15
Трэклист:
01. Lost In The Silverbox (08:14)
02. Trancescript (08:19)
03. Teebeestroica (04:46)
04. Into The Nature (07:51)
05. Brachalde Rontzdrate (04:55)
06. Acperience 1 (09:02)
07. Drugoverlord [Remix] (05:07)
08. AM-Trip (08:01)-

Лог создания рипа

X Lossless Decoder version 20100926 (123.1)
XLD extraction logfile from 2010-10-05 11:01:00 -0700
Hardfloor / TB Resuscitation
Used drive : MATSHITA DVD-R UJ-85J (revision FCQA)
Use cdparanoia mode : YES (CDParanoia III 10.2 engine)Disable audio cache : OK for the drive with cache less than 2750KBMake use of C2 pointers : NORead offset correction : 102Max retry count : 100Gap status : Analyzed, Appended
TOC of the extracted CD Track | Start | Length | Start sector | End sector --------------------------------------------------------- 1 | 00:00:00 | 08:15:17 | 0 | 37141 2 | 08:15:17 | 08:19:23 | 37142 | 74589 3 | 16:34:40 | 04:47:12 | 74590 | 96126 4 | 21:21:52 | 07:53:30 | 96127 | 131631 5 | 29:15:07 | 04:53:50 | 131632 | 153656 6 | 34:08:57 | 09:03:03 | 153657 | 194384 7 | 43:11:60 | 05:09:37 | 194385 | 217596 8 | 48:21:22 | 08:03:33 | 217597 | 253854 9 | 56:24:55 | 05:12:07 | 253855 | 277261
All Tracks Album gain : -6.80 dB Peak : 1.000000
Track 01 Filename : /Volumes/ARTEMIS/BitTorrent/What.CD/4 - What.CD - Seeding (mine)/Hardfloor - TB Resuscitation (1993) Harthouse America (M50090-2) cd - flac/01 Lost In The Silver Box.m4a /Volumes/ARTEMIS/BitTorrent/What.CD/4 - What.CD - Seeding (mine)/Hardfloor - TB Resuscitation (1993) Harthouse America (M50090-2) cd - flac/01 Lost In The Silver Box.flac Pre-gap length : 00:02:00
Track gain : -8.66 dB Peak : 1.000000 CRC32 hash (test run) : 53411A1D CRC32 hash : 53411A1D CRC32 hash (skip zero) : CF013F38 AccurateRip signature : 1CA07614 ->Accurately ripped! (confidence 5) Statistics Read error : 0 Skipped (treated as error) : 0 Edge jitter error (maybe fixed) : 0 Atom jitter error (maybe fixed) : 0 Drift error (maybe fixed) : 0 Dropped bytes error (maybe fixed) : 0 Duplicated bytes error (maybe fixed) : 0 Inconsistency in error sectors : 0
Track 02 Filename : /Volumes/ARTEMIS/BitTorrent/What.CD/4 - What.CD - Seeding (mine)/Hardfloor - TB Resuscitation (1993) Harthouse America (M50090-2) cd - flac/02 Trancescript.m4a /Volumes/ARTEMIS/BitTorrent/What.CD/4 - What.CD - Seeding (mine)/Hardfloor - TB Resuscitation (1993) Harthouse America (M50090-2) cd - flac/02 Trancescript.flac Pre-gap length : 00:03:25
Track gain : -5.52 dB Peak : 0.988556 CRC32 hash (test run) : 675C7844 CRC32 hash : 675C7844 CRC32 hash (skip zero) : F1C65301 AccurateRip signature : 82F9003F ->Accurately ripped! (confidence 6) Statistics Read error : 0 Skipped (treated as error) : 0 Edge jitter error (maybe fixed) : 0 Atom jitter error (maybe fixed) : 0 Drift error (maybe fixed) : 0 Dropped bytes error (maybe fixed) : 0 Duplicated bytes error (maybe fixed) : 0 Inconsistency in error sectors : 0
Track 03 Filename : /Volumes/ARTEMIS/BitTorrent/What.CD/4 - What.CD - Seeding (mine)/Hardfloor - TB Resuscitation (1993) Harthouse America (M50090-2) cd - flac/03 Teebeestroica.m4a /Volumes/ARTEMIS/BitTorrent/What.CD/4 - What.CD - Seeding (mine)/Hardfloor - TB Resuscitation (1993) Harthouse America (M50090-2) cd - flac/03 Teebeestroica.flac Pre-gap length : 00:02:68
Track gain : -6.34 dB Peak : 0.992950 CRC32 hash (test run) : B5DB1DFE CRC32 hash : B5DB1DFE CRC32 hash (skip zero) : A74CEBCE AccurateRip signature : 015FE28F ->Accurately ripped! (confidence 5) Statistics Read error : 0 Skipped (treated as error) : 0 Edge jitter error (maybe fixed) : 0 Atom jitter error (maybe fixed) : 0 Drift error (maybe fixed) : 0 Dropped bytes error (maybe fixed) : 0 Duplicated bytes error (maybe fixed) : 0 Inconsistency in error sectors : 0
Track 04 Filename : /Volumes/ARTEMIS/BitTorrent/What.CD/4 - What.CD - Seeding (mine)/Hardfloor - TB Resuscitation (1993) Harthouse America (M50090-2) cd - flac/04 Into The Nature.m4a /Volumes/ARTEMIS/BitTorrent/What.CD/4 - What.CD - Seeding (mine)/Hardfloor - TB Resuscitation (1993) Harthouse America (M50090-2) cd - flac/04 Into The Nature.flac Pre-gap length : 00:03:20
Track gain : -6.64 dB Peak : 0.980835 CRC32 hash (test run) : 9726FE69 CRC32 hash : 9726FE69 CRC32 hash (skip zero) : 7E57331A AccurateRip signature : 5568DD69 ->Accurately ripped! (confidence 6) Statistics Read error : 0 Skipped (treated as error) : 0 Edge jitter error (maybe fixed) : 0 Atom jitter error (maybe fixed) : 0 Drift error (maybe fixed) : 0 Dropped bytes error (maybe fixed) : 0 Duplicated bytes error (maybe fixed) : 0 Inconsistency in error sectors : 0
Track 05 Filename : /Volumes/ARTEMIS/BitTorrent/What.CD/4 - What.CD - Seeding (mine)/Hardfloor - TB Resuscitation (1993) Harthouse America (M50090-2) cd - flac/05 Brachalde Rontzdrate.m4a /Volumes/ARTEMIS/BitTorrent/What.CD/4 - What.CD - Seeding (mine)/Hardfloor - TB Resuscitation (1993) Harthouse America (M50090-2) cd - flac/05 Brachalde Rontzdrate.flac Pre-gap length : 00:03:45
Track gain : -8.31 dB Peak : 0.998413 CRC32 hash (test run) : 0195A798 CRC32 hash : 0195A798 CRC32 hash (skip zero) : 7B40EB83 AccurateRip signature : 78ABDD23 ->Accurately ripped! (confidence 6) Statistics Read error : 0 Skipped (treated as error) : 0 Edge jitter error (maybe fixed) : 0 Atom jitter error (maybe fixed) : 0 Drift error (maybe fixed) : 0 Dropped bytes error (maybe fixed) : 0 Duplicated bytes error (maybe fixed) : 0 Inconsistency in error sectors : 0
Track 06 Filename : /Volumes/ARTEMIS/BitTorrent/What.CD/4 - What.CD - Seeding (mine)/Hardfloor - TB Resuscitation (1993) Harthouse America (M50090-2) cd - flac/06 Acperience 1.m4a /Volumes/ARTEMIS/BitTorrent/What.CD/4 - What.CD - Seeding (mine)/Hardfloor - TB Resuscitation (1993) Harthouse America (M50090-2) cd - flac/06 Acperience 1.flac Pre-gap length : 00:02:45
Track gain : -5.44 dB Peak : 0.988800 CRC32 hash (test run) : 0BC979F6 CRC32 hash : 0BC979F6 CRC32 hash (skip zero) : 46C86285 AccurateRip signature : 94EDF5DF ->Accurately ripped! (confidence 6) Statistics Read error : 0 Skipped (treated as error) : 0 Edge jitter error (maybe fixed) : 0 Atom jitter error (maybe fixed) : 0 Drift error (maybe fixed) : 0 Dropped bytes error (maybe fixed) : 0 Duplicated bytes error (maybe fixed) : 0 Inconsistency in error sectors : 0
Track 07 Filename : /Volumes/ARTEMIS/BitTorrent/What.CD/4 - What.CD - Seeding (mine)/Hardfloor - TB Resuscitation (1993) Harthouse America (M50090-2) cd - flac/07 Drugoverlord (Remix).m4a /Volumes/ARTEMIS/BitTorrent/What.CD/4 - What.CD - Seeding (mine)/Hardfloor - TB Resuscitation (1993) Harthouse America (M50090-2) cd - flac/07 Drugoverlord (Remix).flac Pre-gap length : 00:02:38
Track gain : -3.73 dB Peak : 0.976013 CRC32 hash (test run) : 62098CFB CRC32 hash : 62098CFB CRC32 hash (skip zero) : 3E79072F AccurateRip signature : 796800F1 ->Accurately ripped! (confidence 6) Statistics Read error : 0 Skipped (treated as error) : 0 Edge jitter error (maybe fixed) : 0 Atom jitter error (maybe fixed) : 0 Drift error (maybe fixed) : 0 Dropped bytes error (maybe fixed) : 0 Duplicated bytes error (maybe fixed) : 0 Inconsistency in error sectors : 0
Track 08 Filename : /Volumes/ARTEMIS/BitTorrent/What.CD/4 - What.CD - Seeding (mine)/Hardfloor - TB Resuscitation (1993) Harthouse America (M50090-2) cd - flac/08 AM-Trip.m4a /Volumes/ARTEMIS/BitTorrent/What.CD/4 - What.CD - Seeding (mine)/Hardfloor - TB Resuscitation (1993) Harthouse America (M50090-2) cd - flac/08 AM-Trip.flac Pre-gap length : 00:03:55
Track gain : -6.58 dB Peak : 0.995850 CRC32 hash (test run) : 2EF31F04 CRC32 hash : 2EF31F04 CRC32 hash (skip zero) : 8127F009 AccurateRip signature : BF789B2A ->Accurately ripped! (confidence 6) Statistics Read error : 0 Skipped (treated as error) : 0 Edge jitter error (maybe fixed) : 0 Atom jitter error (maybe fixed) : 0 Drift error (maybe fixed) : 0 Dropped bytes error (maybe fixed) : 0 Duplicated bytes error (maybe fixed) : 0 Inconsistency in error sectors : 0
Track 09 Filename : /Volumes/ARTEMIS/BitTorrent/What.CD/4 - What.CD - Seeding (mine)/Hardfloor - TB Resuscitation (1993) Harthouse America (M50090-2) cd - flac/09 Happy 20th (Remix).m4a /Volumes/ARTEMIS/BitTorrent/What.CD/4 - What.CD - Seeding (mine)/Hardfloor - TB Resuscitation (1993) Harthouse America (M50090-2) cd - flac/09 Happy 20th (Remix).flac Pre-gap length : 00:02:45
Track gain : -5.99 dB Peak : 0.977173 CRC32 hash (test run) : C91FB8A6 CRC32 hash : C91FB8A6 CRC32 hash (skip zero) : 9D0335D9 AccurateRip signature : 69FC06DF ->Accurately ripped! (confidence 7) Statistics Read error : 0 Skipped (treated as error) : 0 Edge jitter error (maybe fixed) : 0 Atom jitter error (maybe fixed) : 0 Drift error (maybe fixed) : 0 Dropped bytes error (maybe fixed) : 0 Duplicated bytes error (maybe fixed) : 0 Inconsistency in error sectors : 0
No errors occurred
End of status report

Содержание индексной карты (.CUE)

TITLE "TB Resuscitation"PERFORMER "Hardfloor"REM GENRE "Hard Trance"REM DATE 1993REM DISCNUMBER 1REM TOTALDISCS 1REM DISCID 8C0E7009FILE "01 Lost In The Silver Box.wav" WAVE TRACK 01 AUDIO TITLE "Lost In The Silver Box" SONGWRITER "Oliver Bondio & Ramon Zenker" REM COMMENT "Harthouse America > Moonshine Music [HHCD 001/M50090-2] US 5" CD, album (1993)" INDEX 01 00:00:00 TRACK 02 AUDIO TITLE "Trancescript" SONGWRITER "Oliver Bondio & Ramon Zenker" INDEX 00 08:11:67FILE "02 Trancescript.wav" WAVE INDEX 01 00:00:00 TRACK 03 AUDIO TITLE "Teebeestroica" SONGWRITER "Oliver Bondio & Ramon Zenker" INDEX 00 08:16:30FILE "03 Teebeestroica.wav" WAVE INDEX 01 00:00:00 TRACK 04 AUDIO TITLE "Into The Nature" SONGWRITER "Oliver Bondio & Ramon Zenker" INDEX 00 04:43:67FILE "04 Into The Nature.wav" WAVE INDEX 01 00:00:00 TRACK 05 AUDIO TITLE "Brachalde Rontzdrate" SONGWRITER "Oliver Bondio & Ramon Zenker" INDEX 00 07:49:60FILE "05 Brachalde Rontzdrate.wav" WAVE INDEX 01 00:00:00 TRACK 06 AUDIO TITLE "Acperience 1" SONGWRITER "Oliver Bondio & Ramon Zenker" INDEX 00 04:51:05FILE "06 Acperience 1.wav" WAVE INDEX 01 00:00:00 TRACK 07 AUDIO TITLE "Drugoverlord (Remix)" SONGWRITER "Oliver Bondio & Ramon Zenker" INDEX 00 09:00:40FILE "07 Drugoverlord (Remix).wav" WAVE INDEX 01 00:00:00 TRACK 08 AUDIO TITLE "AM-Trip" SONGWRITER "Oliver Bondio & Ramon Zenker" INDEX 00 05:05:57FILE "08 AM-Trip.wav" WAVE INDEX 01 00:00:00 TRACK 09 AUDIO TITLE "Happy 20th (Remix)" SONGWRITER "Oliver Bondio & Ramon Zenker" INDEX 00 08:00:63FILE "09 Happy 20th (Remix).wav" WAVE INDEX 01 00:00:00

[1993] Hardfloor - TB Resuscitation [HHCD1R] [2001] Remastered

Жанр: Acid, Techno, House
Производитель диска: Harthouse
Продолжительность: 00:56:15
Трэклист:
01. Lost In The Silverbox (08:14)
02. Trancescript (08:19)
03. Teebeestroica (04:46)
04. Into The Nature (07:51)
05. Brachalde Rontzdrate (04:55)
06. Acperience 1 (09:02)
07. Drugoverlord [Remix] (05:07)
08. AM-Trip (08:01)-

Лог создания рипа

Exact Audio Copy V0.99 prebeta 5 from 4. May 2009
EAC extraction logfile from 7. December 2010, 0:20
Hardfloor / TB Resuscitation
Used drive : SAMSUNG CD-R/RW SW-252S Adapter: 0 ID: 1
Read mode : SecureUtilize accurate stream : YesDefeat audio cache : YesMake use of C2 pointers : No
Read offset correction : 6Overread into Lead-In and Lead-Out : NoFill up missing offset samples with silence : YesDelete leading and trailing silent blocks : NoNull samples used in CRC calculations : YesUsed interface : Native Win32 interface for Win NT & 2000Gap handling : Appended to previous track
Used output format : User Defined EncoderSelected bitrate : 320 kBit/sQuality : HighAdd ID3 tag : NoCommand line compressor : C:\Program Files\Exact Audio Copy\flac\flac.exeAdditional command line options : -V -8 -T "artist=%a" -T "title=%t" -T "album=%g" -T "date=%y" -T "tracknumber=%n" -T "genre=%m" %s
TOC of the extracted CD
Track | Start | Length | Start sector | End sector --------------------------------------------------------- 1 | 0:00.00 | 8:14.36 | 0 | 37085 2 | 8:14.36 | 8:19.61 | 37086 | 74571 3 | 16:34.22 | 4:46.36 | 74572 | 96057 4 | 21:20.58 | 7:51.27 | 96058 | 131409 5 | 29:12.10 | 4:55.27 | 131410 | 153561 6 | 34:07.37 | 9:02.69 | 153562 | 194280 7 | 43:10.31 | 5:07.61 | 194281 | 217366 8 | 48:18.17 | 8:01.61 | 217367 | 253502
Track 1
Filename D:\Temp\CD Rips\Hardfloor - 2001 - TB Resuscitation\01 - Lost in the Silverbox.wav
Pre-gap length 0:00:02.00
Peak level 96.6 % Track quality 100.0 % Test CRC 59A33F64 Copy CRC 59A33F64 Track not present in AccurateRip database Copy OK
Track 2
Filename D:\Temp\CD Rips\Hardfloor - 2001 - TB Resuscitation\02 - Trancescript.wav
Pre-gap length 0:00:02.00
Peak level 96.6 % Track quality 100.0 % Test CRC 20512900 Copy CRC 20512900 Track not present in AccurateRip database Copy OK
Track 3
Filename D:\Temp\CD Rips\Hardfloor - 2001 - TB Resuscitation\03 - Teebeestroica.wav
Pre-gap length 0:00:02.00
Peak level 96.6 % Track quality 100.0 % Test CRC 37FE45EE Copy CRC 37FE45EE Track not present in AccurateRip database Copy OK
Track 4
Filename D:\Temp\CD Rips\Hardfloor - 2001 - TB Resuscitation\04 - Into the Nature.wav
Pre-gap length 0:00:02.00
Peak level 96.6 % Track quality 100.0 % Test CRC 73CFB97D Copy CRC 73CFB97D Track not present in AccurateRip database Copy OK
Track 5
Filename D:\Temp\CD Rips\Hardfloor - 2001 - TB Resuscitation\05 - Brachalde Rontzdrate.wav
Pre-gap length 0:00:02.00
Peak level 96.6 % Track quality 100.0 % Test CRC 7E952033 Copy CRC 7E952033 Track not present in AccurateRip database Copy OK
Track 6
Filename D:\Temp\CD Rips\Hardfloor - 2001 - TB Resuscitation\06 - Acperience 1.wav
Pre-gap length 0:00:02.00
Peak level 96.6 % Track quality 99.9 % Test CRC D495ED24 Copy CRC D495ED24 Track not present in AccurateRip database Copy OK
Track 7
Filename D:\Temp\CD Rips\Hardfloor - 2001 - TB Resuscitation\07 - Drugoverlord (Remix).wav
Pre-gap length 0:00:02.00
Peak level 96.6 % Track quality 99.9 % Test CRC 2DD61C1D Copy CRC 2DD61C1D Track not present in AccurateRip database Copy OK
Track 8
Filename D:\Temp\CD Rips\Hardfloor - 2001 - TB Resuscitation\08 - AM-Trip.wav
Pre-gap length 0:00:02.00
Peak level 96.6 % Track quality 99.9 % Test CRC C4AEC2BF Copy CRC C4AEC2BF Track not present in AccurateRip database Copy OK
None of the tracks are present in the AccurateRip database
No errors occurred
End of status report

Содержание индексной карты (.CUE)

REM GENRE ElectronicREM DATE 2001REM DISCID 770D3408REM COMMENT "ExactAudioCopy v0.99pb5"FILE "01 - Lost in the Silverbox.wav" WAVE TRACK 01 AUDIO INDEX 01 00:00:00 TRACK 02 AUDIO INDEX 00 08:12:36FILE "02 - Trancescript.wav" WAVE INDEX 01 00:00:00 TRACK 03 AUDIO INDEX 00 08:17:61FILE "03 - Teebeestroica.wav" WAVE INDEX 01 00:00:00 TRACK 04 AUDIO INDEX 00 04:44:36FILE "04 - Into the Nature.wav" WAVE INDEX 01 00:00:00 TRACK 05 AUDIO INDEX 00 07:49:27FILE "05 - Brachalde Rontzdrate.wav" WAVE INDEX 01 00:00:00 TRACK 06 AUDIO INDEX 00 04:53:27FILE "06 - Acperience 1.wav" WAVE INDEX 01 00:00:00 TRACK 07 AUDIO INDEX 00 09:00:69FILE "07 - Drugoverlord (Remix).wav" WAVE INDEX 01 00:00:00 TRACK 08 AUDIO INDEX 00 05:05:61FILE "08 - AM-Trip.wav" WAVE INDEX 01 00:00:00

[1994] Hardfloor - Funalogue [P 50109-2]

Жанр: Techno
Производитель диска: Planet Earth Recordings
Продолжительность: 00:28:12
Трэклист:
01. Confuse (07:13)
02. Roar (04:46)
03. Funalogue (07:18)
04. Alternative (08:55)-

Лог создания рипа

EAC extraction logfile from 1. October 2006, 23:49 for CDHardfloor / Funalogue
Used drive : TOSHIBA CD/DVDW SD-R6472 Adapter: 0 ID: 0Read mode : Secure with NO C2, accurate stream, disable cacheRead offset correction : 116Overread into Lead-In and Lead-Out : No
Used output format : C:\Program Files\Exact Audio Copy\flac.exe (User Defined Encoder) 320 kBit/s Additional command line options : -V -8 -T "artist=%a" -T "title=%t" -T "album=%g" -T "date=%y" -T "tracknumber=%n" -T "genre=%m" %s
Other options : Fill up missing offset samples with silence : Yes Delete leading and trailing silent blocks : No Native Win32 interface for Win NT & 2000
Track 1 Filename C:\mp3\Hardfloor\Funalogue\01 - Confuse.wav
Pre-gap length 0:00:02.00
Peak level 100.0 % Track quality 100.0 % Test CRC FCAEC44B Copy CRC FCAEC44B Copy OK
Track 2 Filename C:\mp3\Hardfloor\Funalogue\02 - Roar.wav
Pre-gap length 0:00:00.24
Peak level 83.1 % Track quality 100.0 % Test CRC 654B3CE1 Copy CRC 654B3CE1 Copy OK
Track 3 Filename C:\mp3\Hardfloor\Funalogue\03 - Funalogue.wav
Pre-gap length 0:00:02.17
Peak level 95.3 % Track quality 100.0 % Test CRC 6CCC5B8A Copy CRC 6CCC5B8A Copy OK
Track 4 Filename C:\mp3\Hardfloor\Funalogue\04 - Alternative.wav
Pre-gap length 0:00:02.22
Peak level 91.3 % Track quality 99.9 % Test CRC 7FD084A7 Copy CRC 7FD084A7 Copy OK
No errors occured
End of status report

Содержание индексной карты (.CUE)

REM GENRE TechnoREM DATE 1994REM DISCID 2E06A704REM COMMENT "ExactAudioCopy v0.95b4"PERFORMER "Hardfloor"TITLE "Funalogue"FILE "01 - Confuse.wav" WAVE TRACK 01 AUDIO TITLE "Confuse" PERFORMER "Hardfloor" INDEX 01 00:00:00 TRACK 02 AUDIO TITLE "Roar" PERFORMER "Hardfloor" INDEX 00 07:15:31FILE "02 - Roar.wav" WAVE INDEX 01 00:00:00 TRACK 03 AUDIO TITLE "Funalogue" PERFORMER "Hardfloor" INDEX 00 04:46:41FILE "03 - Funalogue.wav" WAVE INDEX 01 00:00:00 TRACK 04 AUDIO TITLE "Alternative" PERFORMER "Hardfloor" INDEX 00 07:18:68FILE "04 - Alternative.wav" WAVE INDEX 01 00:00:00

[1994] Hardfloor – Funalogue [HH-CD-SPECIAL 003]

Жанр: Techno, Acid
Производитель диска: Harthouse
Продолжительность: 00:52:12
Трэклист:
01. Confuss (07:18)
02. Roarrh (04:50)
03. Rosinenbrot (05:27)
04. Funalogue (07:22)
05. Alternative (09:00)
06. Into The Nature [Plastic Man Mix] (10:27)
07. Into The Nature [Hardfloor Remix] (07:48)-

Лог создания рипа

Exact Audio Copy V1.0 beta 3 from 29. August 2011
EAC extraction logfile from 7. August 2012, 20:54
Hardfloor / Funalogue
Used drive : ATAPI iHAS124 Y Adapter: 3 ID: 0
Read mode : SecureUtilize accurate stream : YesDefeat audio cache : YesMake use of C2 pointers : No
Read offset correction : 48Overread into Lead-In and Lead-Out : NoFill up missing offset samples with silence : YesDelete leading and trailing silent blocks : NoNull samples used in CRC calculations : YesUsed interface : Native Win32 interface for Win NT & 2000Gap handling : Appended to previous track
Used output format : User Defined EncoderSelected bitrate : 1024 kBit/sQuality : HighAdd ID3 tag : NoCommand line compressor : C:\Program Files\Exact Audio Copy\Flac\flac.exeAdditional command line options : -8 -V -T "ARTIST=%artist%" -T "TITLE=%title%" -T "ALBUM=%albumtitle%" -T "DATE=%year%" -T "TRACKNUMBER=%tracknr%" -T "GENRE=%genre%" -T "PERFORMER=%albuminterpret%" -T "COMPOSER=%composer%" %haslyrics%--tag-from-file=LYRICS="%lyricsfile%"%haslyrics% -T "ALBUMARTIST=%albumartist%" -T "DISCNUMBER=%cdnumber%" -T "TOTALDISCS=%totalcds%" -T "TOTALTRACKS=%numtracks%" -T "COMMENT=%comment%" %source% -o %dest%
TOC of the extracted CD
Track | Start | Length | Start sector | End sector --------------------------------------------------------- 1 | 0:00.00 | 7:16.40 | 0 | 32739 2 | 7:16.40 | 4:48.40 | 32740 | 54379 3 | 12:05.05 | 5:25.67 | 54380 | 78821 4 | 17:30.72 | 7:20.53 | 78822 | 111874 5 | 24:51.50 | 8:57.72 | 111875 | 152221 6 | 33:49.47 | 10:25.45 | 152222 | 199141 7 | 44:15.17 | 7:48.30 | 199142 | 234271
Track 1
Filename L:\MUSIC\Hardfloor - Funalogue (1994) [FLAC]\1-01. Hardfloor - Confuss.wav
Pre-gap length 0:00:02.00
Peak level 98.8 % Extraction speed 2.5 X Track quality 100.0 % Test CRC 2FDE2B79 Copy CRC 2FDE2B79 Accurately ripped (confidence 6) [6B4A2507] (AR v1) Copy OK
Track 2
Filename L:\MUSIC\Hardfloor - Funalogue (1994) [FLAC]\1-02. Hardfloor - Roarrh.wav
Pre-gap length 0:00:01.86
Peak level 86.6 % Extraction speed 2.8 X Track quality 100.0 % Test CRC 4A01CD86 Copy CRC 4A01CD86 Accurately ripped (confidence 5) [42837079] (AR v1) Copy OK
Track 3
Filename L:\MUSIC\Hardfloor - Funalogue (1994) [FLAC]\1-03. Hardfloor - Rosinenbrot.wav
Pre-gap length 0:00:01.90
Peak level 95.7 % Extraction speed 3.1 X Track quality 100.0 % Test CRC 9C61EB0B Copy CRC 9C61EB0B Accurately ripped (confidence 5) [C7A42D01] (AR v1) Copy OK
Track 4
Filename L:\MUSIC\Hardfloor - Funalogue (1994) [FLAC]\1-04. Hardfloor - Funalogue.wav
Pre-gap length 0:00:01.82
Peak level 97.3 % Extraction speed 3.5 X Track quality 100.0 % Test CRC 74CED436 Copy CRC 74CED436 Accurately ripped (confidence 6) [1CB1F70F] (AR v1) Copy OK
Track 5
Filename L:\MUSIC\Hardfloor - Funalogue (1994) [FLAC]\1-05. Hardfloor - Alternative.wav
Pre-gap length 0:00:01.84
Peak level 91.1 % Extraction speed 4.0 X Track quality 100.0 % Test CRC 6AA0F0DD Copy CRC 6AA0F0DD Accurately ripped (confidence 5) [C3C9E022] (AR v1) Copy OK
Track 6
Filename L:\MUSIC\Hardfloor - Funalogue (1994) [FLAC]\1-06. Hardfloor - Into The Nature (Plastic Man Mix By Richie Hawtin).wav
Pre-gap length 0:00:01.89
Peak level 59.1 % Extraction speed 4.4 X Track quality 100.0 % Test CRC 6F1009E4 Copy CRC 6F1009E4 Accurately ripped (confidence 5) [E45A461E] (AR v1) Copy OK
Track 7
Filename L:\MUSIC\Hardfloor - Funalogue (1994) [FLAC]\1-07. Hardfloor - Into The Nature (Hardfloor Remix).wav
Pre-gap length 0:00:01.80
Peak level 100.0 % Extraction speed 4.6 X Track quality 100.0 % Test CRC D6011FD1 Copy CRC D6011FD1 Accurately ripped (confidence 6) [E921E2EB] (AR v1) Copy OK
All tracks accurately ripped
No errors occurred
End of status report
---- CUETools DB Plugin V2.1.3
[CTDB TOCID: Q3TGbrfc96O4Lt_txLnccODblTw-] found, Submit result: Q3TGbrfc96O4Lt_txLnccODblTw- has been confirmed[df4a8033] (4/4) Accurately ripped
==== Log checksum 34635814CEE120A87D2DA17F830F2D109243C275121AEF63164E9A3AC3967FB5 ====

Содержание индексной карты (.CUE)

REM GENRE "Techno, Acid"REM DATE 1994REM DISCID 540C3307REM COMMENT "ExactAudioCopy v1.0b3"CATALOG 0119200000007PERFORMER "Hardfloor"TITLE "Funalogue"FILE "1-01. Hardfloor - Confuss.wav" WAVE TRACK 01 AUDIO TITLE "Confuss" PERFORMER "Hardfloor" INDEX 01 00:00:00 TRACK 02 AUDIO TITLE "Roarrh" PERFORMER "Hardfloor" INDEX 00 07:14:50FILE "1-02. Hardfloor - Roarrh.wav" WAVE INDEX 01 00:00:00 TRACK 03 AUDIO TITLE "Rosinenbrot" PERFORMER "Hardfloor" INDEX 00 04:46:47FILE "1-03. Hardfloor - Rosinenbrot.wav" WAVE INDEX 01 00:00:00 TRACK 04 AUDIO TITLE "Funalogue" PERFORMER "Hardfloor" INDEX 00 05:24:05FILE "1-04. Hardfloor - Funalogue.wav" WAVE INDEX 01 00:00:00 TRACK 05 AUDIO TITLE "Alternative" PERFORMER "Hardfloor" INDEX 00 07:18:65FILE "1-05. Hardfloor - Alternative.wav" WAVE INDEX 01 00:00:00 TRACK 06 AUDIO TITLE "Into The Nature (Plastic Man Mix By Richie Hawtin)" PERFORMER "Hardfloor" INDEX 00 08:56:05FILE "1-06. Hardfloor - Into The Nature (Plastic Man Mix By Richie Hawtin).wav" WAVE INDEX 01 00:00:00 TRACK 07 AUDIO TITLE "Into The Nature (Hardfloor Remix)" PERFORMER "Hardfloor" INDEX 00 10:23:60FILE "1-07. Hardfloor - Into The Nature (Hardfloor Remix).wav" WAVE INDEX 01 00:00:00

[1994] Hardfloor - Respect [HH-CD-010]

Жанр: Techno, Acid
Производитель диска: Harthouse
Продолжительность: 00:49:12
Трэклист:
01. Intro Maze (02:22)
02. Fried Laces (04:50)
03. Asbestos In Obsterics (08:31)
04. Reverberate Opinion (08:07)
05. Kangaroos & Bubbles (05:01)
06. Strawberry Maze (05:05)
07. Mahagony Roots (06:57)
08. Mustard Cornflakes (08:21)
09. The Last Marshmellow Machine (07:15)-

Лог создания рипа

Exact Audio Copy V0.99 prebeta 4 from 23. January 2008
EAC extraction logfile from 23. June 2009, 7:35
Hardfloor / Respect
Used drive : SONY CD-RW CRX195E1 Adapter: 1 ID: 0
Read mode : SecureUtilize accurate stream : YesDefeat audio cache : YesMake use of C2 pointers : No
Read offset correction : 12Overread into Lead-In and Lead-Out : NoFill up missing offset samples with silence : YesDelete leading and trailing silent blocks : NoNull samples used in CRC calculations : YesUsed interface : Native Win32 interface for Win NT & 2000Gap handling : Appended to previous track
Used output format : User Defined EncoderSelected bitrate : 128 kBit/sQuality : HighAdd ID3 tag : NoCommand line compressor : C:\Program Files\Exact Audio Copy\Flac\flac.exeAdditional command line options : -V -8 -T "artist=%a" -T "title=%t" -T "album=%g" -T "date=%y" -T "tracknumber=%n" -T "genre=%m" %s
TOC of the extracted CD
Track | Start | Length | Start sector | End sector --------------------------------------------------------- 1 | 0:00.00 | 2:20.72 | 0 | 10571 2 | 2:20.72 | 4:50.23 | 10572 | 32344 3 | 7:11.20 | 8:17.55 | 32345 | 69674 4 | 15:29.00 | 8:20.35 | 69675 | 107209 5 | 23:49.35 | 5:00.67 | 107210 | 129776 6 | 28:50.27 | 5:05.23 | 129777 | 152674 7 | 33:55.50 | 6:59.12 | 152675 | 184111 8 | 40:54.62 | 8:18.00 | 184112 | 221461 9 | 49:12.62 | 7:13.00 | 221462 | 253936
Track 1
Filename C:\EACrips\Hardfloor - 1995 - Respect [FLAC]\01 - Intro Maze.wav
Pre-gap length 0:00:02.00
Peak level 71.7 % Track quality 100.0 % Test CRC 2B35D9A7 Copy CRC 2B35D9A7 Accurately ripped (confidence 2) [1D3C8479] Copy OK
Track 2
Filename C:\EACrips\Hardfloor - 1995 - Respect [FLAC]\02 - Fried Laces.wav
Peak level 80.1 % Track quality 100.0 % Test CRC BFDF8E43 Copy CRC BFDF8E43 Accurately ripped (confidence 2) [13E3A3C0] Copy OK
Track 3
Filename C:\EACrips\Hardfloor - 1995 - Respect [FLAC]\03 - Asbestos In Obstetrics.wav
Peak level 80.1 % Track quality 99.9 % Test CRC ED8D97BE Copy CRC ED8D97BE Accurately ripped (confidence 2) [0502EB9A] Copy OK
Track 4
Filename C:\EACrips\Hardfloor - 1995 - Respect [FLAC]\04 - Reverberate Opinion.wav
Peak level 79.1 % Track quality 100.0 % Test CRC DB68C075 Copy CRC DB68C075 Accurately ripped (confidence 2) [CB070532] Copy OK
Track 5
Filename C:\EACrips\Hardfloor - 1995 - Respect [FLAC]\05 - Kangaroos & Bubbles.wav
Peak level 79.2 % Track quality 100.0 % Test CRC 5A1B4F67 Copy CRC 5A1B4F67 Accurately ripped (confidence 2) [1B3A607B] Copy OK
Track 6
Filename C:\EACrips\Hardfloor - 1995 - Respect [FLAC]\06 - Strawberry Maze.wav
Pre-gap length 0:00:00.96
Peak level 79.0 % Track quality 100.0 % Test CRC 7CEF48D2 Copy CRC 7CEF48D2 Accurately ripped (confidence 2) [11BC7FB1] Copy OK
Track 7
Filename C:\EACrips\Hardfloor - 1995 - Respect [FLAC]\07 - Mahogany Roots.wav
Peak level 82.1 % Track quality 100.0 % Test CRC 1C3F814D Copy CRC 1C3F814D Accurately ripped (confidence 2) [B9B07FAC] Copy OK
Track 8
Filename C:\EACrips\Hardfloor - 1995 - Respect [FLAC]\08 - Mustard Cornflakes.wav
Peak level 81.2 % Track quality 100.0 % Test CRC 23CD9B20 Copy CRC 23CD9B20 Cannot be verified as accurate (confidence 9) [7717E443], AccurateRip returned [18C219C6] Copy OK
Track 9
Filename C:\EACrips\Hardfloor - 1995 - Respect [FLAC]\09 - The Last Marshmellow Machine.wav
Peak level 86.7 % Track quality 99.9 % Test CRC 4234C6D8 Copy CRC 4234C6D8 Accurately ripped (confidence 2) [D4377C64] Copy OK
8 track(s) accurately ripped 1 track(s) could not be verified as accurate
Some tracks could not be verified as accurate
No errors occurred
End of status report

Содержание индексной карты (.CUE)

REM GENRE AcidREM DATE 1995REM DISCID 670D3909REM COMMENT "ExactAudioCopy v0.99pb4"CATALOG 0137200000001PERFORMER "Hardfloor"TITLE "Respect"FILE "01 - Intro Maze.wav" WAVE TRACK 01 AUDIO TITLE "Intro Maze" PERFORMER "Hardfloor" INDEX 01 00:00:00FILE "02 - Fried Laces.wav" WAVE TRACK 02 AUDIO TITLE "Fried Laces" PERFORMER "Hardfloor" INDEX 01 00:00:00FILE "03 - Asbestos In Obstetrics.wav" WAVE TRACK 03 AUDIO TITLE "Asbestos In Obstetrics" PERFORMER "Hardfloor" INDEX 01 00:00:00FILE "04 - Reverberate Opinion.wav" WAVE TRACK 04 AUDIO TITLE "Reverberate Opinion" PERFORMER "Hardfloor" INDEX 01 00:00:00FILE "05 - Kangaroos & Bubbles.wav" WAVE TRACK 05 AUDIO TITLE "Kangaroos & Bubbles" PERFORMER "Hardfloor" INDEX 01 00:00:00 TRACK 06 AUDIO TITLE "Strawberry Maze" PERFORMER "Hardfloor" INDEX 00 04:59:70FILE "06 - Strawberry Maze.wav" WAVE INDEX 01 00:00:00FILE "07 - Mahogany Roots.wav" WAVE TRACK 07 AUDIO TITLE "Mahogany Roots" PERFORMER "Hardfloor" INDEX 01 00:00:00FILE "08 - Mustard Cornflakes.wav" WAVE TRACK 08 AUDIO TITLE "Mustard Cornflakes" PERFORMER "Hardfloor" INDEX 01 00:00:00FILE "09 - The Last Marshmellow Machine.wav" WAVE TRACK 09 AUDIO TITLE "The Last Marshmellow Machine" PERFORMER "Hardfloor" INDEX 01 00:00:00

[1994] Hardfloor – Respect [HHCD02R] [2002] Remastered

Жанр: Techno, Acid
Производитель диска: Harthouse
Продолжительность: 01:07:47
Трэклист:
01. Intro Maze (02:22)
02. Fried Laces (04:50)
03. Asbestos In Obsterics (08:31)
04. Reverberate Opinion (08:07)
05. Kangaroos & Bubbles (05:01)
06. Strawberry Maze (05:05)
07. Mahagony Roots (06:57)
08. Mustard Cornflakes (08:21)
09. The Last Marshmellow Machine (07:15)
10. Mahogany Roots (Work Remix) (06:33)
11. Kangaroos & Bubbles (Armando's Darkside Remix) (04:45)-

Лог создания рипа

Exact Audio Copy V1.0 beta 4 from 7. December 2014
EAC extraction logfile from 3. January 2017, 20:27
Hardfloor / Respect (HHCD02R)
Used drive : MATSHITABD-MLT UJ240ES Adapter: 1 ID: 0
Read mode : SecureUtilize accurate stream : YesDefeat audio cache : YesMake use of C2 pointers : No
Read offset correction : 103Overread into Lead-In and Lead-Out : NoFill up missing offset samples with silence : YesDelete leading and trailing silent blocks : NoNull samples used in CRC calculations : YesUsed interface : Native Win32 interface for Win NT & 2000Gap handling : Appended to previous track
Used output format : User Defined EncoderSelected bitrate : 1024 kBit/sQuality : HighAdd ID3 tag : NoCommand line compressor : C:\Program Files (x86)\Exact Audio Copy\Flac\flac.exeAdditional command line options : -8 -V -T "ARTIST=%artist%" -T "TITLE=%title%" -T "ALBUM=%albumtitle%" -T "DATE=%year%" -T "TRACKNUMBER=%tracknr%" -T "GENRE=%genre%" -T "PERFORMER=%albuminterpret%" -T "COMPOSER=%composer%" %haslyrics%--tag-from-file=LYRICS="%lyricsfile%"%haslyrics% -T "ALBUMARTIST=%albumartist%" -T "DISCNUMBER=%cdnumber%" -T "TOTALDISCS=%totalcds%" -T "TOTALTRACKS=%numtracks%" -T "COMMENT=%comment%" %source% -o %dest%
TOC of the extracted CD
Track | Start | Length | Start sector | End sector --------------------------------------------------------- 1 | 0:00.00 | 2:21.12 | 0 | 10586 2 | 2:21.12 | 4:50.18 | 10587 | 32354 3 | 7:11.30 | 8:31.05 | 32355 | 70684 4 | 15:42.35 | 8:07.20 | 70685 | 107229 5 | 23:49.55 | 5:00.65 | 107230 | 129794 6 | 28:50.45 | 5:05.26 | 129795 | 152695 7 | 33:55.71 | 6:56.19 | 152696 | 183914 8 | 40:52.15 | 8:21.09 | 183915 | 221498 9 | 49:13.24 | 7:15.14 | 221499 | 254137 10 | 56:28.38 | 6:32.68 | 254138 | 283605 11 | 63:01.31 | 4:45.28 | 283606 | 305008
Track 1
Filename M:\torrents\Hardfloor - Respect (1995) [FLAC] HHCD02R\01 Intro Maze.wav
Pre-gap length 0:00:02.00
Peak level 98.8 % Extraction speed 2.2 X Track quality 100.0 % Test CRC 8E97A390 Copy CRC 8E97A390 Accurately ripped (confidence 1) [8285E8CB] (AR v2) Copy OK
Track 2
Filename M:\torrents\Hardfloor - Respect (1995) [FLAC] HHCD02R\02 Fried Laces.wav
Peak level 98.8 % Extraction speed 2.4 X Track quality 100.0 % Test CRC B6A0A218 Copy CRC B6A0A218 Accurately ripped (confidence 1) [072D9190] (AR v2) Copy OK
Track 3
Filename M:\torrents\Hardfloor - Respect (1995) [FLAC] HHCD02R\03 Asbestos In Obsterics.wav
Peak level 98.8 % Extraction speed 3.1 X Track quality 100.0 % Test CRC 38FB3413 Copy CRC 38FB3413 Accurately ripped (confidence 1) [A1660D9E] (AR v2) Copy OK
Track 4
Filename M:\torrents\Hardfloor - Respect (1995) [FLAC] HHCD02R\04 Reverberate Opinion.wav
Peak level 98.8 % Extraction speed 3.5 X Track quality 100.0 % Test CRC 19B173BF Copy CRC 19B173BF Accurately ripped (confidence 1) [27FE7E7A] (AR v2) Copy OK
Track 5
Filename M:\torrents\Hardfloor - Respect (1995) [FLAC] HHCD02R\05 Kangaroos & Bubbles.wav
Peak level 98.8 % Extraction speed 3.6 X Track quality 100.0 % Test CRC 15816875 Copy CRC 15816875 Accurately ripped (confidence 1) [49A62580] (AR v2) Copy OK
Track 6
Filename M:\torrents\Hardfloor - Respect (1995) [FLAC] HHCD02R\06 Strawberry Maze.wav
Peak level 98.8 % Extraction speed 3.8 X Track quality 100.0 % Test CRC 9DBB05FD Copy CRC 9DBB05FD Accurately ripped (confidence 1) [5664B7FD] (AR v2) Copy OK
Track 7
Filename M:\torrents\Hardfloor - Respect (1995) [FLAC] HHCD02R\07 Mahagony Roots.wav
Peak level 98.8 % Extraction speed 4.1 X Track quality 100.0 % Test CRC 4C3A9F8F Copy CRC 4C3A9F8F Accurately ripped (confidence 1) [102A540E] (AR v2) Copy OK
Track 8
Filename M:\torrents\Hardfloor - Respect (1995) [FLAC] HHCD02R\08 Mustard Cornflakes.wav
Peak level 98.8 % Extraction speed 4.4 X Track quality 100.0 % Test CRC 84BC6DF9 Copy CRC 84BC6DF9 Accurately ripped (confidence 1) [283992D0] (AR v2) Copy OK
Track 9
Filename M:\torrents\Hardfloor - Respect (1995) [FLAC] HHCD02R\09 The Last Marshmellow Machine.wav
Peak level 98.8 % Extraction speed 4.6 X Track quality 100.0 % Test CRC CA2FF445 Copy CRC CA2FF445 Accurately ripped (confidence 1) [95CF6039] (AR v2) Copy OK
Track 10
Filename M:\torrents\Hardfloor - Respect (1995) [FLAC] HHCD02R\10 Mahagony Roots (Work Remix).wav
Peak level 98.8 % Extraction speed 4.7 X Track quality 100.0 % Test CRC F2730AEC Copy CRC F2730AEC Accurately ripped (confidence 1) [4D91D73F] (AR v2) Copy OK
Track 11
Filename M:\torrents\Hardfloor - Respect (1995) [FLAC] HHCD02R\11 Kangaroos & Bubbles (Armandos Darkside Mix).wav
Peak level 98.8 % Extraction speed 4.7 X Track quality 100.0 % Test CRC A6459E97 Copy CRC A6459E97 Accurately ripped (confidence 1) [1F24C4D4] (AR v2) Copy OK
All tracks accurately ripped
No errors occurred
End of status report
---- CUETools DB Plugin V2.1.4
[CTDB TOCID: _4K3uW0f4Lo9MwSrUoeexe_XE1w-] foundSubmit result: _4K3uW0f4Lo9MwSrUoeexe_XE1w- has been confirmedTrack | CTDB Status 1 | (3/3) Accurately ripped 2 | (3/3) Accurately ripped 3 | (3/3) Accurately ripped 4 | (3/3) Accurately ripped 5 | (3/3) Accurately ripped 6 | (3/3) Accurately ripped 7 | (3/3) Accurately ripped 8 | (3/3) Accurately ripped 9 | (3/3) Accurately ripped 10 | (3/3) Accurately ripped 11 | (3/3) Accurately ripped
==== Log checksum 608D478C38CB5251753EEDDEBE1F0E01C3BE219CC13445287030193262281EC2 ====

Содержание индексной карты (.CUE)

REM GENRE AcidREM DATE 1995REM DISCID 8F0FE20BREM COMMENT "ExactAudioCopy v1.0b4"PERFORMER "Hardfloor"TITLE "Respect (HHCD02R)"FILE "01 Intro Maze.wav" WAVE TRACK 01 AUDIO TITLE "Intro Maze" PERFORMER "Hardfloor" INDEX 01 00:00:00FILE "02 Fried Laces.wav" WAVE TRACK 02 AUDIO TITLE "Fried Laces" PERFORMER "Hardfloor" INDEX 01 00:00:00FILE "03 Asbestos In Obsterics.wav" WAVE TRACK 03 AUDIO TITLE "Asbestos In Obsterics" PERFORMER "Hardfloor" INDEX 01 00:00:00FILE "04 Reverberate Opinion.wav" WAVE TRACK 04 AUDIO TITLE "Reverberate Opinion" PERFORMER "Hardfloor" INDEX 01 00:00:00FILE "05 Kangaroos & Bubbles.wav" WAVE TRACK 05 AUDIO TITLE "Kangaroos & Bubbles" PERFORMER "Hardfloor" INDEX 01 00:00:00FILE "06 Strawberry Maze.wav" WAVE TRACK 06 AUDIO TITLE "Strawberry Maze" PERFORMER "Hardfloor" INDEX 01 00:00:00FILE "07 Mahagony Roots.wav" WAVE TRACK 07 AUDIO TITLE "Mahagony Roots" PERFORMER "Hardfloor" INDEX 01 00:00:00FILE "08 Mustard Cornflakes.wav" WAVE TRACK 08 AUDIO TITLE "Mustard Cornflakes" PERFORMER "Hardfloor" INDEX 01 00:00:00FILE "09 The Last Marshmellow Machine.wav" WAVE TRACK 09 AUDIO TITLE "The Last Marshmellow Machine" PERFORMER "Hardfloor" INDEX 01 00:00:00FILE "10 Mahagony Roots (Work Remix).wav" WAVE TRACK 10 AUDIO TITLE "Mahagony Roots (Work Remix)" PERFORMER "Hardfloor" INDEX 01 00:00:00FILE "11 Kangaroos & Bubbles (Armandos Darkside Mix).wav" WAVE TRACK 11 AUDIO TITLE "Kangaroos & Bubbles (Armandos Darkside Mix)" PERFORMER "Hardfloor" INDEX 01 00:00:00

[1996] Hardfloor – Home Run [HH CD 019]

Жанр: Acid House, Hard House, Techno
Производитель диска: Harthouse
Продолжительность: 00:48:16
Трэклист:
01. Pinch-Hitter (06:37)
02. Beavis At Bat (06:23)
03. Home Run (05:39)
04. Strikeout (05:30)
05. Double-Steal (05:47)
06. Knuckle Skills (06:18)
07. Splittfinger Fastball (05:13)
08. Line-Drive (06:49)-

Лог создания рипа

Exact Audio Copy V1.0 beta 1 from 15. November 2010
EAC extraction logfile from 27. March 2011, 13:16
Hardfloor / Home Run
Used drive : HL-DT-STDVDRAM GSA-T40N Adapter: 0 ID: 0
Read mode : SecureUtilize accurate stream : YesDefeat audio cache : YesMake use of C2 pointers : No
Read offset correction : 667Overread into Lead-In and Lead-Out : NoFill up missing offset samples with silence : YesDelete leading and trailing silent blocks : NoNull samples used in CRC calculations : YesUsed interface : Native Win32 interface for Win NT & 2000Gap handling : Appended to previous track
Used output format : User Defined EncoderSelected bitrate : 768 kBit/sQuality : HighAdd ID3 tag : NoCommand line compressor : C:\Program Files\Exact Audio Copy\FLAC\FLAC.EXEAdditional command line options : -8 -V -T "ARTIST=%a" -T "TITLE=%t" -T "ALBUM=%g" -T "DATE=%y" -T "TRACKNUMBER=%n" -T "GENRE=%m" -T "COMMENT=EAC FLAC -8" %s
TOC of the extracted CD
Track | Start | Length | Start sector | End sector --------------------------------------------------------- 1 | 0:00.00 | 5:28.45 | 0 | 24644 2 | 5:28.45 | 5:37.67 | 24645 | 49986 3 | 11:06.37 | 5:45.23 | 49987 | 75884 4 | 16:51.60 | 5:11.57 | 75885 | 99266 5 | 22:03.42 | 6:21.23 | 99267 | 127864 6 | 28:24.65 | 6:16.20 | 127865 | 156084 7 | 34:41.10 | 6:35.65 | 156085 | 185774 8 | 41:17.00 | 6:49.50 | 185775 | 216499
Track 1
Filename C:\Temp\Hardfloor 'Home Run' [Harthouse HHCD019 1996]\01 Strikeout.wav
Pre-gap length 0:00:02.00
Peak level 97.7 % Extraction speed 2.6 X Track quality 100.0 % Test CRC 1D779BBB Copy CRC 1D779BBB Accurately ripped (confidence 14) [CE313C42] Copy OK
Track 2
Filename C:\Temp\Hardfloor 'Home Run' [Harthouse HHCD019 1996]\02 Home Run.wav
Peak level 91.7 % Extraction speed 2.9 X Track quality 100.0 % Test CRC F51C4D1B Copy CRC F51C4D1B Accurately ripped (confidence 14) [4C0963B9] Copy OK
Track 3
Filename C:\Temp\Hardfloor 'Home Run' [Harthouse HHCD019 1996]\03 Double-Steal.wav
Peak level 97.7 % Extraction speed 3.3 X Track quality 100.0 % Test CRC 09E5250C Copy CRC 09E5250C Accurately ripped (confidence 14) [3C17EADE] Copy OK
Track 4
Filename C:\Temp\Hardfloor 'Home Run' [Harthouse HHCD019 1996]\04 Splitfinger Fastball.wav
Peak level 89.8 % Extraction speed 3.5 X Track quality 100.0 % Test CRC 26C7F8FA Copy CRC 26C7F8FA Accurately ripped (confidence 14) [00DC85A6] Copy OK
Track 5
Filename C:\Temp\Hardfloor 'Home Run' [Harthouse HHCD019 1996]\05 Beavis At Bat.wav
Peak level 97.7 % Extraction speed 4.0 X Track quality 100.0 % Test CRC B83BB6D9 Copy CRC B83BB6D9 Accurately ripped (confidence 14) [6DBB8EBA] Copy OK
Track 6
Filename C:\Temp\Hardfloor 'Home Run' [Harthouse HHCD019 1996]\06 Knuckle Skills.wav
Peak level 97.7 % Extraction speed 4.1 X Track quality 100.0 % Test CRC 16C07E42 Copy CRC 16C07E42 Cannot be verified as accurate (confidence 8) [3CA103B6], AccurateRip returned [7E28C0B7] Copy OK
Track 7
Filename C:\Temp\Hardfloor 'Home Run' [Harthouse HHCD019 1996]\07 Pinch-Hitter.wav
Peak level 95.5 % Extraction speed 4.5 X Track quality 100.0 % Test CRC BD559926 Copy CRC BD559926 Accurately ripped (confidence 10) [B6B3C690] Copy OK
Track 8
Filename C:\Temp\Hardfloor 'Home Run' [Harthouse HHCD019 1996]\08 Line-Drive.wav
Peak level 95.5 % Extraction speed 4.8 X Track quality 100.0 % Test CRC B85B0110 Copy CRC B85B0110 Accurately ripped (confidence 10) [FF39C58C] Copy OK
7 track(s) accurately ripped 1 track(s) could not be verified as accurate
Some tracks could not be verified as accurate
No errors occurred
End of status report
==== Log checksum AB58E006A5E8E5FB7149DE82B27294BC7B23917DFD1EF44EE9737671D5166988 ====

Содержание индексной карты (.CUE)

REM GENRE TechnoREM DATE 1996REM DISCID 5D0B4608REM COMMENT "ExactAudioCopy v1.0b1"PERFORMER "Hardfloor"TITLE "Home Run"FILE "01 Strikeout.wav" WAVE TRACK 01 AUDIO TITLE "Strikeout" PERFORMER "Hardfloor" INDEX 01 00:00:00FILE "02 Home Run.wav" WAVE TRACK 02 AUDIO TITLE "Home Run" PERFORMER "Hardfloor" INDEX 01 00:00:00FILE "03 Double-Steal.wav" WAVE TRACK 03 AUDIO TITLE "Double-Steal" PERFORMER "Hardfloor" INDEX 01 00:00:00FILE "04 Splitfinger Fastball.wav" WAVE TRACK 04 AUDIO TITLE "Splitfinger Fastball" PERFORMER "Hardfloor" INDEX 01 00:00:00FILE "05 Beavis At Bat.wav" WAVE TRACK 05 AUDIO TITLE "Beavis At Bat" PERFORMER "Hardfloor" INDEX 01 00:00:00FILE "06 Knuckle Skills.wav" WAVE TRACK 06 AUDIO TITLE "Knuckle Skills" PERFORMER "Hardfloor" INDEX 01 00:00:00FILE "07 Pinch-Hitter.wav" WAVE TRACK 07 AUDIO TITLE "Pinch-Hitter" PERFORMER "Hardfloor" INDEX 01 00:00:00FILE "08 Line-Drive.wav" WAVE TRACK 08 AUDIO TITLE "Line-Drive" PERFORMER "Hardfloor" INDEX 01 00:00:00
[1997] Hardfloor – The Best Of Hardfloor [RTD 176.2806.2]
Продолжительность: 02:15:19
CD 1
01. Hardfloor - Once Again Back [5:10]
02. Hardfloor - Into The Nature [7:52]
03. Hardfloor - Mahogany Roots [7:28]
04. Hardfloor - Dubdope [7:09]
05. Hardfloor - Fish 'N Chips [7:41]
06. Hardfloor - Ain't Nuttin' But A Format Thang [7:56]
07. Hardfloor - Lost In The Silver Box [7:13]
08. Hardfloor - Yimtrop [7:07]
09. Hardfloor - Confuss [7:18]
10. Hardfloor - Acperience [9:00]
CD 2
01. Hardfloor - Rising High Collective / Fever Called Love (Hardfloor Remix) [7:21]
02. Hardfloor - Robert Armani / Circus Bells (Hardfloor Remix) [9:01]
03. Hardfloor - Anne Clark / Our Darkness (Hardfloor '97 Version) [6:15]
04. Hardfloor - Hardfloor / Beavis At Bat (Dave Angel Remix) [6:02]
05. Hardfloor - Hardfloor / StrikeOut (Surgeon Mix) [5:26]
06. Hardfloor - New Order / Blue Monday (Hardfloor Remix) [8:38]
07. Hardfloor - Depeche Mode / It's No Good (Hardfloor Remix) [6:45]
08. Hardfloor - Hardfloor / Kangeroos & Bubbles (Armando's Darkside Mix) [5:24]
09. Hardfloor - Mory Kante / Yeke Yeke (Hardfloor Remix) [6:32]

log's and cue'sLog CD 1

Exact Audio Copy V0.99 prebeta 3 from 28. July 2007
EAC extraction logfile from 21. February 2008, 3:51
Hardfloor / The Best Of Hardfloor (CD1)
Used drive : PLEXTOR DVDR PX-712A Adapter: 6 ID: 0
Read mode : SecureUtilize accurate stream : YesDefeat audio cache : YesMake use of C2 pointers : No
Read offset correction : 30Overread into Lead-In and Lead-Out : YesFill up missing offset samples with silence : YesDelete leading and trailing silent blocks : NoNull samples used in CRC calculations : YesUsed interface : Installed external ASPI interface
Used output format : User Defined EncoderSelected bitrate : 128 kBit/sQuality : HighAdd ID3 tag : NoCommand line compressor : C:\Program Files\Flac 1.2.1\bin\flac.exeAdditional command line options : -V -8 %s
TOC of the extracted CD
Track | Start | Length | Start sector | End sector --------------------------------------------------------- 1 | 0:00.00 | 5:10.32 | 0 | 23281 2 | 5:10.32 | 7:52.25 | 23282 | 58706 3 | 13:02.57 | 7:28.18 | 58707 | 92324 4 | 20:31.00 | 7:08.67 | 92325 | 124491 5 | 27:39.67 | 7:40.73 | 124492 | 159064 6 | 35:20.65 | 7:55.44 | 159065 | 194733 7 | 43:16.34 | 7:13.33 | 194734 | 227241 8 | 50:29.67 | 7:07.23 | 227242 | 259289 9 | 57:37.15 | 7:17.50 | 259290 | 292114 10 | 64:54.65 | 8:59.65 | 292115 | 332604
Range status and errors
Selected range
Filename C:\Documents and Settings\admin\Desktop\Hardfloor - The Best Of Hardfloor\Hardfloor - The Best Of Hardfloor CD1 - The Tracks.wav
Peak level 99.0 % Range quality 99.9 % Copy CRC 3ACC0B44 Copy OK
No errors occurred
AccurateRip summary
Track 1 not present in databaseTrack 2 not present in databaseTrack 3 not present in databaseTrack 4 not present in databaseTrack 5 not present in databaseTrack 6 not present in databaseTrack 7 not present in databaseTrack 8 not present in databaseTrack 9 not present in databaseTrack 10 not present in database
None of the tracks are present in the AccurateRip database
End of status report

Cue CD 1

PERFORMER "Hardfloor"TITLE "The Best Of Hardfloor CD1 - The Tracks"FILE "Hardfloor - The Best Of Hardfloor CD1 - The Tracks.flac" WAVE TRACK 01 AUDIO TITLE "Once Again Back" PERFORMER "Hardfloor" INDEX 01 00:00:00 TRACK 02 AUDIO TITLE "Into The Nature" PERFORMER "Hardfloor" INDEX 00 05:07:52 INDEX 01 05:10:32 TRACK 03 AUDIO TITLE "Mahogany Roots" PERFORMER "Hardfloor" INDEX 00 13:00:00 INDEX 01 13:02:57 TRACK 04 AUDIO TITLE "Dubdope" PERFORMER "Hardfloor" INDEX 00 20:29:25 INDEX 01 20:31:00 TRACK 05 AUDIO TITLE "Fish 'N Chips" PERFORMER "Hardfloor" INDEX 00 27:36:54 INDEX 01 27:39:67 TRACK 06 AUDIO TITLE "Ain't Nuttin' But A Format Thang" PERFORMER "Hardfloor" INDEX 00 35:18:74 INDEX 01 35:20:65 TRACK 07 AUDIO TITLE "Lost In The Silver Box" PERFORMER "Hardfloor" INDEX 00 43:13:45 INDEX 01 43:16:34 TRACK 08 AUDIO TITLE "Yimtrop" PERFORMER "Hardfloor" INDEX 00 50:27:55 INDEX 01 50:29:67 TRACK 09 AUDIO TITLE "Confuss" PERFORMER "Hardfloor" INDEX 00 57:34:25 INDEX 01 57:37:15 TRACK 10 AUDIO TITLE "Acperience" PERFORMER "Hardfloor" INDEX 00 64:52:35 INDEX 01 64:54:65

Log CD 2

Exact Audio Copy V0.99 prebeta 3 from 28. July 2007
EAC extraction logfile from 22. February 2008, 15:22
Hardfloor / The Best Of Hardfloor CD2 - The Mixes
Used drive : PLEXTOR DVDR PX-712A Adapter: 6 ID: 0
Read mode : SecureUtilize accurate stream : YesDefeat audio cache : YesMake use of C2 pointers : No
Read offset correction : 30Overread into Lead-In and Lead-Out : YesFill up missing offset samples with silence : YesDelete leading and trailing silent blocks : NoNull samples used in CRC calculations : YesUsed interface : Installed external ASPI interface
Used output format : User Defined EncoderSelected bitrate : 128 kBit/sQuality : HighAdd ID3 tag : NoCommand line compressor : C:\Program Files\Flac 1.2.1\bin\flac.exeAdditional command line options : -V -8 %s
TOC of the extracted CD
Track | Start | Length | Start sector | End sector --------------------------------------------------------- 1 | 0:00.00 | 7:20.57 | 0 | 33056 2 | 7:20.57 | 9:01.13 | 33057 | 73644 3 | 16:21.70 | 6:15.15 | 73645 | 101784 4 | 22:37.10 | 6:02.22 | 101785 | 128956 5 | 28:39.32 | 5:25.55 | 128957 | 153386 6 | 34:05.12 | 8:37.65 | 153387 | 192226 7 | 42:43.02 | 6:44.55 | 192227 | 222581 8 | 49:27.57 | 5:23.68 | 222582 | 246874 9 | 54:51.50 | 6:32.30 | 246875 | 276304
Range status and errors
Selected range
Filename C:\Documents and Settings\admin\Desktop\Hardfloor - The Best Of Hardfloor\Hardfloor - The Best Of Hardfloor CD2 - The Mixes.wav
Peak level 99.0 % Range quality 100.0 % Copy CRC 0360D47C Copy OK
No errors occurred
AccurateRip summary
Track 1 not present in databaseTrack 2 not present in databaseTrack 3 not present in databaseTrack 4 not present in databaseTrack 5 not present in databaseTrack 6 not present in databaseTrack 7 not present in databaseTrack 8 not present in databaseTrack 9 not present in database
None of the tracks are present in the AccurateRip database
End of status report

Cue CD 2

PERFORMER "Hardfloor"TITLE "The Best Of Hardfloor CD2 - The Mixes"FILE "Hardfloor - The Best Of Hardfloor CD2 - The Mixes.flac" WAVE TRACK 01 AUDIO TITLE "Rising High Collective / Fever Called Love (Hardfloor Remix)" PERFORMER "Hardfloor" INDEX 01 00:00:00 TRACK 02 AUDIO TITLE "Robert Armani / Circus Bells (Hardfloor Remix)" PERFORMER "Hardfloor" INDEX 00 07:17:57 INDEX 01 07:20:57 TRACK 03 AUDIO TITLE "Anne Clark / Our Darkness (Hardfloor '97 Version)" PERFORMER "Hardfloor" INDEX 00 16:18:65 INDEX 01 16:21:70 TRACK 04 AUDIO TITLE "Hardfloor / Beavis At Bat (Dave Angel Remix)" PERFORMER "Hardfloor" INDEX 01 22:37:10 TRACK 05 AUDIO TITLE "Hardfloor / StrikeOut (Surgeon Mix)" PERFORMER "Hardfloor" INDEX 00 28:36:10 INDEX 01 28:39:32 TRACK 06 AUDIO TITLE "New Order / Blue Monday (Hardfloor Remix)" PERFORMER "Hardfloor" INDEX 00 34:01:60 INDEX 01 34:05:12 TRACK 07 AUDIO TITLE "Depeche Mode / It's No Good (Hardfloor Remix)" PERFORMER "Hardfloor" INDEX 00 42:40:67 INDEX 01 42:43:02 TRACK 08 AUDIO TITLE "Hardfloor / Kangeroos & Bubbles (Armando's Darkside Mix)" PERFORMER "Hardfloor" INDEX 00 49:24:17 INDEX 01 49:27:57 TRACK 09 AUDIO TITLE "Mory Kante / Yeke Yeke (Hardfloor Remix)" PERFORMER "Hardfloor" INDEX 00 54:49:20 INDEX 01 54:51:50
[1997] Hardfloor – The Best Of Hardfloor [EYEUKCD015] Жанр: Techno, Hard Trance, Acid
Производитель диска: Eye Q (UK)
Продолжительность: 02:17:32

Треклист:

CD 1

01. Once Again Back (05:11)
02. Into The Nature (07:52)
03. Mahogany Roots (07:28)
04. Dubdope (07:08)
05. Fish 'N Chips (07:42)
06. Ain't Nuttin' But A Format Thang (07:55)
07. Lost In The Silver Box (07:13)
08. Yimtrop (07:07)
09. Confuss (07:17)
10. Acperience (08:59)
Total time: 01:13:52

CD 2

01. Rising High Collective – Fever Called Love (Hardfloor Remix) (07:21)
02. Robert Armani – Circus Bells (Hardfloor Remix) (09:00)
03. Bassheads – Is There Anybody Out There? (Hardfloor Remix) (08:36)
04. Hardfloor – Beavis At Bat (Dave Angel Remix) (06:02)
05. Hardfloor – Strikeout (Surgeon Remix) (05:25)
06. New Order – Blue Monday (Hardfloor Remix) (08:37)
07. Depeche Mode – It's No Good (Hardfloor Remix) (06:44)
08. Hardfloor – Kangaroos & Bubbles (Armando's Darkside Remix) (05:23)
09. Mory Kante – Yeke Yeke (Hardfloor Remix) (06:32)
Total time: 01:03:40

Лог создания рипаCD1

Exact Audio Copy V1.1 from 23. June 2015
EAC extraction logfile from 13. March 2017, 10:28
Hardfloor / The Best Of Hardfloor - The Tracks
Used drive : MATSHITADVD-RAM UJ8A0ASW Adapter: 1 ID: 0
Read mode : SecureUtilize accurate stream : YesDefeat audio cache : YesMake use of C2 pointers : No
Read offset correction : 102Overread into Lead-In and Lead-Out : NoFill up missing offset samples with silence : YesDelete leading and trailing silent blocks : NoNull samples used in CRC calculations : YesUsed interface : Native Win32 interface for Win NT & 2000Gap handling : Appended to previous track
Used output format : User Defined EncoderSelected bitrate : 1024 kBit/sQuality : HighAdd ID3 tag : NoCommand line compressor : C:\Program Files (x86)\Exact Audio Copy\Flac\flac.exeAdditional command line options : -8 -V -T "ARTIST=%artist%" -T "TITLE=%title%" -T "ALBUM=%albumtitle%" -T "DATE=%year%" -T "TRACKNUMBER=%tracknr%" -T "GENRE=%genre%" -T "PERFORMER=%albuminterpret%" -T "COMPOSER=%composer%" %haslyrics%--tag-from-file=LYRICS="%lyricsfile%"%haslyrics% -T "ALBUMARTIST=%albumartist%" -T "DISCNUMBER=%cdnumber%" -T "TOTALDISCS=%totalcds%" -T "TOTALTRACKS=%numtracks%" -T "COMMENT=%comment%" %source% -o %dest%
TOC of the extracted CD
Track | Start | Length | Start sector | End sector --------------------------------------------------------- 1 | 0:00.00 | 5:11.20 | 0 | 23344 2 | 5:11.20 | 7:52.25 | 23345 | 58769 3 | 13:03.45 | 7:28.17 | 58770 | 92386 4 | 20:31.62 | 7:08.68 | 92387 | 124554 5 | 27:40.55 | 7:42.20 | 124555 | 159224 6 | 35:23.00 | 7:55.45 | 159225 | 194894 7 | 43:18.45 | 7:13.32 | 194895 | 227401 8 | 50:32.02 | 7:07.23 | 227402 | 259449 9 | 57:39.25 | 7:17.52 | 259450 | 292276 10 | 64:57.02 | 8:59.38 | 292277 | 332739
Track 1
Filename C:\RED-Uploads\Hardfloor - The Best Of (1997)\CD1 The Tracks\01 Hardfloor - Once Again Back.wav
Pre-gap length 0:00:02.00
Peak level 83.2 % Extraction speed 1.3 X Track quality 100.0 % Test CRC 09B7C8BE Copy CRC 09B7C8BE Accurately ripped (confidence 15) [E7D30F7A] (AR v2) Copy OK
Track 2
Filename C:\RED-Uploads\Hardfloor - The Best Of (1997)\CD1 The Tracks\02 Hardfloor - Into The Nature.wav
Pre-gap length 0:00:02.55
Peak level 82.8 % Extraction speed 1.5 X Track quality 100.0 % Test CRC 3173DDE9 Copy CRC 3173DDE9 Accurately ripped (confidence 15) [2A43EEC8] (AR v2) Copy OK
Track 3
Filename C:\RED-Uploads\Hardfloor - The Best Of (1997)\CD1 The Tracks\03 Hardfloor - Mahogany Roots.wav
Pre-gap length 0:00:02.55
Peak level 83.2 % Extraction speed 1.7 X Track quality 100.0 % Test CRC 760CA804 Copy CRC 760CA804 Accurately ripped (confidence 15) [B2286172] (AR v2) Copy OK
Track 4
Filename C:\RED-Uploads\Hardfloor - The Best Of (1997)\CD1 The Tracks\04 Hardfloor - Dubdope.wav
Pre-gap length 0:00:01.57
Peak level 83.2 % Extraction speed 1.7 X Track quality 99.9 % Test CRC C470E9F3 Copy CRC C470E9F3 Accurately ripped (confidence 15) [DBDF7F28] (AR v2) Copy OK
Track 5
Filename C:\RED-Uploads\Hardfloor - The Best Of (1997)\CD1 The Tracks\05 Hardfloor - Fish 'N Chips.wav
Pre-gap length 0:00:02.55
Peak level 82.8 % Extraction speed 2.0 X Track quality 100.0 % Test CRC 1498A5B3 Copy CRC 1498A5B3 Accurately ripped (confidence 15) [9B426A47] (AR v2) Copy OK
Track 6
Filename C:\RED-Uploads\Hardfloor - The Best Of (1997)\CD1 The Tracks\06 Hardfloor - Ain't Nuttin' But A Format Thang.wav
Pre-gap length 0:00:02.55
Peak level 83.2 % Extraction speed 2.2 X Track quality 100.0 % Test CRC 3BC2C4BD Copy CRC 3BC2C4BD Accurately ripped (confidence 15) [3E67D5B2] (AR v2) Copy OK
Track 7
Filename C:\RED-Uploads\Hardfloor - The Best Of (1997)\CD1 The Tracks\07 Hardfloor - Lost In The Silver Box.wav
Pre-gap length 0:00:02.55
Peak level 83.2 % Extraction speed 2.3 X Track quality 100.0 % Test CRC 900FFBB1 Copy CRC 900FFBB1 Accurately ripped (confidence 15) [03C4A32C] (AR v2) Copy OK
Track 8
Filename C:\RED-Uploads\Hardfloor - The Best Of (1997)\CD1 The Tracks\08 Hardfloor - Yimtrop.wav
Pre-gap length 0:00:02.55
Peak level 82.8 % Extraction speed 2.4 X Track quality 100.0 % Test CRC 0551099A Copy CRC 0551099A Accurately ripped (confidence 14) [310A45BF] (AR v2) Copy OK
Track 9
Filename C:\RED-Uploads\Hardfloor - The Best Of (1997)\CD1 The Tracks\09 Hardfloor - Confuss.wav
Pre-gap length 0:00:02.55
Peak level 83.2 % Extraction speed 2.6 X Track quality 100.0 % Test CRC 121387C6 Copy CRC 121387C6 Accurately ripped (confidence 14) [9EE84658] (AR v2) Copy OK
Track 10
Filename C:\RED-Uploads\Hardfloor - The Best Of (1997)\CD1 The Tracks\10 Hardfloor - Acperience.wav
Pre-gap length 0:00:02.55
Peak level 84.0 % Extraction speed 2.6 X Track quality 99.9 % Test CRC 56832905 Copy CRC 56832905 Accurately ripped (confidence 12) [3E38ADED] (AR v2) Copy OK
All tracks accurately ripped
No errors occurred
End of status report
==== Log checksum CE1E999664DD36903143F22C270883BE0739C75E243C9F20DF09E0961B16E21C ====

CD2

Exact Audio Copy V1.1 from 23. June 2015
EAC extraction logfile from 13. March 2017, 11:40
Hardfloor / The Best Of Hardfloor - The Mixes
Used drive : MATSHITADVD-RAM UJ8A0ASW Adapter: 1 ID: 0
Read mode : SecureUtilize accurate stream : YesDefeat audio cache : YesMake use of C2 pointers : No
Read offset correction : 102Overread into Lead-In and Lead-Out : NoFill up missing offset samples with silence : YesDelete leading and trailing silent blocks : NoNull samples used in CRC calculations : YesUsed interface : Native Win32 interface for Win NT & 2000Gap handling : Appended to previous track
Used output format : User Defined EncoderSelected bitrate : 1024 kBit/sQuality : HighAdd ID3 tag : NoCommand line compressor : C:\Program Files (x86)\Exact Audio Copy\Flac\flac.exeAdditional command line options : -8 -V -T "ARTIST=%artist%" -T "TITLE=%title%" -T "ALBUM=%albumtitle%" -T "DATE=%year%" -T "TRACKNUMBER=%tracknr%" -T "GENRE=%genre%" -T "PERFORMER=%albuminterpret%" -T "COMPOSER=%composer%" %haslyrics%--tag-from-file=LYRICS="%lyricsfile%"%haslyrics% -T "ALBUMARTIST=%albumartist%" -T "DISCNUMBER=%cdnumber%" -T "TOTALDISCS=%totalcds%" -T "TOTALTRACKS=%numtracks%" -T "COMMENT=%comment%" %source% -o %dest%
TOC of the extracted CD
Track | Start | Length | Start sector | End sector --------------------------------------------------------- 1 | 0:00.00 | 7:21.45 | 0 | 33119 2 | 7:21.45 | 9:00.55 | 33120 | 73674 3 | 16:22.25 | 8:36.35 | 73675 | 112409 4 | 24:58.60 | 6:02.32 | 112410 | 139591 5 | 31:01.17 | 5:25.55 | 139592 | 164021 6 | 36:26.72 | 8:37.65 | 164022 | 202861 7 | 45:04.62 | 6:44.55 | 202862 | 233216 8 | 51:49.42 | 5:23.68 | 233217 | 257509 9 | 57:13.35 | 6:32.37 | 257510 | 286946
Track 1
Filename C:\RED-Uploads\Hardfloor - The Best Of (1997)\CD2 The Mixes\01 Rising High Collective - Fever Called Love (Hardfloor Remix).wav
Pre-gap length 0:00:02.00
Peak level 78.1 % Extraction speed 1.4 X Track quality 100.0 % Test CRC 239C6026 Copy CRC 239C6026 Accurately ripped (confidence 11) [A26909EF] (AR v2) Copy OK
Track 2
Filename C:\RED-Uploads\Hardfloor - The Best Of (1997)\CD2 The Mixes\02 Robert Armani - Circus Bells (Hardfloor Remix).wav
Pre-gap length 0:00:02.55
Peak level 84.0 % Extraction speed 1.6 X Track quality 100.0 % Test CRC EC22E891 Copy CRC EC22E891 Accurately ripped (confidence 13) [C8496E48] (AR v2) Copy OK
Track 3
Filename C:\RED-Uploads\Hardfloor - The Best Of (1997)\CD2 The Mixes\03 Bassheads - Is There Anybody Out There (Hardfloor Remix).wav
Pre-gap length 0:00:02.55
Peak level 82.6 % Extraction speed 1.8 X Track quality 100.0 % Test CRC 55F2A412 Copy CRC 55F2A412 Accurately ripped (confidence 12) [6BEEB287] (AR v2) Copy OK
Track 4
Filename C:\RED-Uploads\Hardfloor - The Best Of (1997)\CD2 The Mixes\04 Hardfloor - Beavis At Bat (Dave Angel Remix).wav
Pre-gap length 0:00:02.55
Peak level 80.6 % Extraction speed 2.0 X Track quality 100.0 % Test CRC C3575941 Copy CRC C3575941 Accurately ripped (confidence 13) [5A7BDF79] (AR v2) Copy OK
Track 5
Filename C:\RED-Uploads\Hardfloor - The Best Of (1997)\CD2 The Mixes\05 Hardfloor - Strikeout (Surgeon Remix).wav
Pre-gap length 0:00:02.55
Peak level 83.2 % Extraction speed 2.1 X Track quality 100.0 % Test CRC 8FA9BE9D Copy CRC 8FA9BE9D Accurately ripped (confidence 13) [5B1A92D3] (AR v2) Copy OK
Track 6
Filename C:\RED-Uploads\Hardfloor - The Best Of (1997)\CD2 The Mixes\06 New Order - Blue Monday (Hardfloor Remix).wav
Pre-gap length 0:00:02.55
Peak level 84.0 % Extraction speed 2.3 X Track quality 100.0 % Test CRC BCFD74E5 Copy CRC BCFD74E5 Accurately ripped (confidence 14) [64778432] (AR v2) Copy OK
Track 7
Filename C:\RED-Uploads\Hardfloor - The Best Of (1997)\CD2 The Mixes\07 Depeche Mode - It's No Good (Hardfloor Remix).wav
Pre-gap length 0:00:02.55
Peak level 77.6 % Extraction speed 2.2 X Track quality 99.9 % Test CRC 503EE490 Copy CRC 503EE490 Accurately ripped (confidence 12) [7BE827BD] (AR v2) Copy OK
Track 8
Filename C:\RED-Uploads\Hardfloor - The Best Of (1997)\CD2 The Mixes\08 Hardfloor - Kangaroos & Bubbles (Armando's Darkside Remix).wav
Pre-gap length 0:00:02.55
Peak level 83.2 % Extraction speed 2.4 X Track quality 100.0 % Test CRC 057D737D Copy CRC 057D737D Accurately ripped (confidence 13) [1AB68883] (AR v2) Copy OK
Track 9
Filename C:\RED-Uploads\Hardfloor - The Best Of (1997)\CD2 The Mixes\09 Mory Kante - Yeke Yeke (Hardfloor Remix).wav
Pre-gap length 0:00:02.55
Peak level 82.8 % Extraction speed 2.6 X Track quality 100.0 % Test CRC 55E75548 Copy CRC 55E75548 Accurately ripped (confidence 12) [C75B3B60] (AR v2) Copy OK
All tracks accurately ripped
No errors occurred
End of status report
==== Log checksum 0780FA5478CC7BD0D8059957CE962CD4836ECF97C8F60D61C882131BD88FB32E ====

Содержание индексной карты (.CUE)CD1

REM GENRE TechnoREM DATE 1997REM DISCID 7C11540AREM COMMENT "ExactAudioCopy v1.1"PERFORMER "Hardfloor"TITLE "The Best Of Hardfloor - The Tracks"FILE "01 Hardfloor - Once Again Back.wav" WAVE TRACK 01 AUDIO TITLE "Once Again Back" PERFORMER "Hardfloor" INDEX 01 00:00:00 TRACK 02 AUDIO TITLE "Into The Nature" PERFORMER "Hardfloor" INDEX 00 05:08:40FILE "02 Hardfloor - Into The Nature.wav" WAVE INDEX 01 00:00:00 TRACK 03 AUDIO TITLE "Mahogany Roots" PERFORMER "Hardfloor" INDEX 00 07:49:45FILE "03 Hardfloor - Mahogany Roots.wav" WAVE INDEX 01 00:00:00 TRACK 04 AUDIO TITLE "Dubdope" PERFORMER "Hardfloor" INDEX 00 07:26:35FILE "04 Hardfloor - Dubdope.wav" WAVE INDEX 01 00:00:00 TRACK 05 AUDIO TITLE "Fish 'N Chips" PERFORMER "Hardfloor" INDEX 00 07:06:13FILE "05 Hardfloor - Fish 'N Chips.wav" WAVE INDEX 01 00:00:00 TRACK 06 AUDIO TITLE "Ain't Nuttin' But A Format Thang" PERFORMER "Hardfloor" INDEX 00 07:39:40FILE "06 Hardfloor - Ain't Nuttin' But A Format Thang.wav" WAVE INDEX 01 00:00:00 TRACK 07 AUDIO TITLE "Lost In The Silver Box" PERFORMER "Hardfloor" INDEX 00 07:52:65FILE "07 Hardfloor - Lost In The Silver Box.wav" WAVE INDEX 01 00:00:00 TRACK 08 AUDIO TITLE "Yimtrop" PERFORMER "Hardfloor" INDEX 00 07:10:52FILE "08 Hardfloor - Yimtrop.wav" WAVE INDEX 01 00:00:00 TRACK 09 AUDIO TITLE "Confuss" PERFORMER "Hardfloor" INDEX 00 07:04:43FILE "09 Hardfloor - Confuss.wav" WAVE INDEX 01 00:00:00 TRACK 10 AUDIO TITLE "Acperience" PERFORMER "Hardfloor" INDEX 00 07:14:72FILE "10 Hardfloor - Acperience.wav" WAVE INDEX 01 00:00:00

CD2

REM GENRE TechnoREM DATE 1997REM DISCID 710EF109REM COMMENT "ExactAudioCopy v1.1"PERFORMER "Hardfloor"TITLE "The Best Of Hardfloor - The Mixes"FILE "01 Rising High Collective - Fever Called Love (Hardfloor Remix).wav" WAVE TRACK 01 AUDIO TITLE "Fever Called Love (Hardfloor Remix)" PERFORMER "Rising High Collective" INDEX 01 00:00:00 TRACK 02 AUDIO TITLE "Circus Bells (Hardfloor Remix)" PERFORMER "Robert Armani" INDEX 00 07:18:65FILE "02 Robert Armani - Circus Bells (Hardfloor Remix).wav" WAVE INDEX 01 00:00:00 TRACK 03 AUDIO TITLE "Is There Anybody Out There? (Hardfloor Remix)" PERFORMER "Bassheads" INDEX 00 08:58:00FILE "03 Bassheads - Is There Anybody Out There (Hardfloor Remix).wav" WAVE INDEX 01 00:00:00 TRACK 04 AUDIO TITLE "Beavis At Bat (Dave Angel Remix)" PERFORMER "Hardfloor" INDEX 00 08:33:55FILE "04 Hardfloor - Beavis At Bat (Dave Angel Remix).wav" WAVE INDEX 01 00:00:00 TRACK 05 AUDIO TITLE "Strikeout (Surgeon Remix)" PERFORMER "Hardfloor" INDEX 00 05:59:52FILE "05 Hardfloor - Strikeout (Surgeon Remix).wav" WAVE INDEX 01 00:00:00 TRACK 06 AUDIO TITLE "Blue Monday (Hardfloor Remix)" PERFORMER "New Order" INDEX 00 05:23:00FILE "06 New Order - Blue Monday (Hardfloor Remix).wav" WAVE INDEX 01 00:00:00 TRACK 07 AUDIO TITLE "It's No Good (Hardfloor Remix)" PERFORMER "Depeche Mode" INDEX 00 08:35:10FILE "07 Depeche Mode - It's No Good (Hardfloor Remix).wav" WAVE INDEX 01 00:00:00 TRACK 08 AUDIO TITLE "Kangaroos & Bubbles (Armando's Darkside Remix)" PERFORMER "Hardfloor" INDEX 00 06:42:00FILE "08 Hardfloor - Kangaroos & Bubbles (Armando's Darkside Remix).wav" WAVE INDEX 01 00:00:00 TRACK 09 AUDIO TITLE "Yeke Yeke (Hardfloor Remix)" PERFORMER "Mory Kante" INDEX 00 05:21:13FILE "09 Mory Kante - Yeke Yeke (Hardfloor Remix).wav" WAVE INDEX 01 00:00:00

[1998] Hardfloor – X-Mix - Jack The Box [! k7068cd]

Жанр: Acid House
Производитель диска: Studio !K7
Продолжительность: 01:05:35

Треклист:
01. Hardfloor – I Can't Complain (04:35)
02. Bam Bam – Where Is Your Child? (02:34)
03. Co-Jack – Nightshift (03:25)
04. Phuture – The Creator (02:39)
05. Armando – Land Of Confusion (03:38)
06. Fast Eddie – Let's Go (03:37)
07. Hardfloor – Safety Razor (03:22)
08. Housemaster Boyz – Housenation (04:27)
09. Adonis – No Way Back (02:43)
10. Hardfloor – Bodymove (03:21)
11. DJ Pierre – Box Energy (02:43)
12. Gentry Ice – Do You Wanna Jack (03:20)
13. Fast Eddie – Acid Thunder (02:57)
14. Cool House – Rock This Party Right (03:05)
15. Steve Pointexter – Born To Freak (02:25)
16. Jack Frost – Tom Tom (03:50)
17. Phuture – Spank Spank (02:31)
18. Adonis – The Poke (03:20)
19. Spanky – Acid House (02:31)
20. Sleezy D. – I've Lost Control (04:32)
Total time: 01:13:52

Лог создания рипа

Exact Audio Copy V1.1 from 23. June 2015
EAC extraction logfile from 29. April 2016, 9:08
Hardfloor / X-Mix - Jack The Box
Used drive : PIONEER DVD-RW DVR-220 Adapter: 1 ID: 2
Read mode : SecureUtilize accurate stream : YesDefeat audio cache : YesMake use of C2 pointers : No
Read offset correction : 6Overread into Lead-In and Lead-Out : NoFill up missing offset samples with silence : YesDelete leading and trailing silent blocks : NoNull samples used in CRC calculations : YesUsed interface : Native Win32 interface for Win NT & 2000Gap handling : Appended to previous track
Used output format : User Defined EncoderSelected bitrate : 896 kBit/sQuality : HighAdd ID3 tag : NoCommand line compressor : C:\Program Files (x86)\Exact Audio Copy\Flac\flac.exeAdditional command line options : -8 -V -T "ARTIST=%artist%" -T "TITLE=%title%" -T "ALBUM=%albumtitle%" -T "DATE=%year%" -T "TRACKNUMBER=%tracknr%" -T "GENRE=%genre%" -T "PERFORMER=%albuminterpret%" -T "COMPOSER=%composer%" %haslyrics%--tag-from-file=LYRICS="%lyricsfile%"%haslyrics% -T "ALBUMARTIST=%albumartist%" -T "DISCNUMBER=%cdnumber%" -T "TOTALDISCS=%totalcds%" -T "TOTALTRACKS=%numtracks%" -T "COMMENT=%comment%" %source% -o %dest%
TOC of the extracted CD
Track | Start | Length | Start sector | End sector --------------------------------------------------------- 1 | 0:00.00 | 4:35.34 | 0 | 20658 2 | 4:35.34 | 2:34.04 | 20659 | 32212 3 | 7:09.38 | 3:24.61 | 32213 | 47573 4 | 10:34.24 | 2:39.06 | 47574 | 59504 5 | 13:13.30 | 3:37.64 | 59505 | 75843 6 | 16:51.19 | 3:37.19 | 75844 | 92137 7 | 20:28.38 | 3:21.38 | 92138 | 107250 8 | 23:50.01 | 4:27.18 | 107251 | 127293 9 | 28:17.19 | 2:43.29 | 127294 | 139547 10 | 31:00.48 | 3:20.33 | 139548 | 154580 11 | 34:21.06 | 2:43.02 | 154581 | 166807 12 | 37:04.08 | 3:20.08 | 166808 | 181815 13 | 40:24.16 | 2:57.50 | 181816 | 195140 14 | 43:21.66 | 3:05.03 | 195141 | 209018 15 | 46:26.69 | 2:24.15 | 209019 | 219833 16 | 48:51.09 | 3:50.13 | 219834 | 237096 17 | 52:41.22 | 2:30.74 | 237097 | 248420 18 | 55:12.21 | 3:20.10 | 248421 | 263430 19 | 58:32.31 | 2:30.61 | 263431 | 274741 20 | 61:03.17 | 4:32.39 | 274742 | 295180
Track 1
Filename T:\MUSIC\VA - Hardfloor - X-Mix - Jack The Box (1998) [CD-FLAC]\1-01. Hardfloor - I Can't Complain.wav
Pre-gap length 0:00:02.00
Peak level 99.9 % Extraction speed 4.5 X Track quality 100.0 % Test CRC 73726984 Copy CRC 73726984 Accurately ripped (confidence 10) [3CAD2DC4] (AR v2) Copy OK
Track 2
Filename T:\MUSIC\VA - Hardfloor - X-Mix - Jack The Box (1998) [CD-FLAC]\1-02. Bam Bam - Where Is Your Child.wav
Peak level 99.9 % Extraction speed 3.8 X Track quality 99.9 % Test CRC BB85A7DD Copy CRC BB85A7DD Accurately ripped (confidence 10) [2D58DB9C] (AR v2) Copy OK
Track 3
Filename T:\MUSIC\VA - Hardfloor - X-Mix - Jack The Box (1998) [CD-FLAC]\1-03. Co-Jack - Nightshift.wav
Peak level 99.6 % Extraction speed 4.4 X Track quality 99.9 % Test CRC A044AD7F Copy CRC A044AD7F Accurately ripped (confidence 10) [2122A12A] (AR v2) Copy OK
Track 4
Filename T:\MUSIC\VA - Hardfloor - X-Mix - Jack The Box (1998) [CD-FLAC]\1-04. Phuture - The Creator.wav
Peak level 99.9 % Extraction speed 5.1 X Track quality 100.0 % Test CRC FE67DB48 Copy CRC FE67DB48 Accurately ripped (confidence 10) [4161C77C] (AR v2) Copy OK
Track 5
Filename T:\MUSIC\VA - Hardfloor - X-Mix - Jack The Box (1998) [CD-FLAC]\1-05. Armando - Land Of Confusion.wav
Peak level 99.2 % Extraction speed 5.7 X Track quality 100.0 % Test CRC F8AD076F Copy CRC F8AD076F Accurately ripped (confidence 10) [540A406A] (AR v2) Copy OK
Track 6
Filename T:\MUSIC\VA - Hardfloor - X-Mix - Jack The Box (1998) [CD-FLAC]\1-06. Fast Eddie - Let's Go.wav
Peak level 99.9 % Extraction speed 6.0 X Track quality 100.0 % Test CRC AF05A86F Copy CRC AF05A86F Accurately ripped (confidence 10) [6F61D483] (AR v2) Copy OK
Track 7
Filename T:\MUSIC\VA - Hardfloor - X-Mix - Jack The Box (1998) [CD-FLAC]\1-07. Hardfloor - Safety Razor.wav
Peak level 99.8 % Extraction speed 5.3 X Track quality 99.9 % Test CRC 144EA494 Copy CRC 144EA494 Accurately ripped (confidence 10) [E9AD1925] (AR v2) Copy OK
Track 8
Filename T:\MUSIC\VA - Hardfloor - X-Mix - Jack The Box (1998) [CD-FLAC]\1-08. The Housemaster Boyz - Housenation.wav
Peak level 99.9 % Extraction speed 6.0 X Track quality 99.9 % Test CRC ED53C561 Copy CRC ED53C561 Accurately ripped (confidence 10) [501E8CF4] (AR v2) Copy OK
Track 9
Filename T:\MUSIC\VA - Hardfloor - X-Mix - Jack The Box (1998) [CD-FLAC]\1-09. Adonis - The Poke.wav
Peak level 99.0 % Extraction speed 6.5 X Track quality 100.0 % Test CRC D66BB30F Copy CRC D66BB30F Accurately ripped (confidence 10) [BFACE4EC] (AR v2) Copy OK
Track 10
Filename T:\MUSIC\VA - Hardfloor - X-Mix - Jack The Box (1998) [CD-FLAC]\1-10. Hardfloor - Bodymove.wav
Peak level 99.4 % Extraction speed 6.8 X Track quality 100.0 % Test CRC 51D598B6 Copy CRC 51D598B6 Accurately ripped (confidence 10) [F20EDCEA] (AR v2) Copy OK
Track 11
Filename T:\MUSIC\VA - Hardfloor - X-Mix - Jack The Box (1998) [CD-FLAC]\1-11. DJ Pierre - Box Energy.wav
Peak level 99.9 % Extraction speed 5.7 X Track quality 99.9 % Test CRC 5DF282EB Copy CRC 5DF282EB Accurately ripped (confidence 10) [A3C53A43] (AR v2) Copy OK
Track 12
Filename T:\MUSIC\VA - Hardfloor - X-Mix - Jack The Box (1998) [CD-FLAC]\1-12. Gentry Ice - Do You Wanna Jack.wav
Peak level 98.0 % Extraction speed 7.1 X Track quality 100.0 % Test CRC 582AF67B Copy CRC 582AF67B Accurately ripped (confidence 10) [95AAB607] (AR v2) Copy OK
Track 13
Filename T:\MUSIC\VA - Hardfloor - X-Mix - Jack The Box (1998) [CD-FLAC]\1-13. Fast Eddie - Acid Thunder.wav
Peak level 99.9 % Extraction speed 7.3 X Track quality 100.0 % Test CRC CA257F78 Copy CRC CA257F78 Accurately ripped (confidence 10) [3A73E29F] (AR v2) Copy OK
Track 14
Filename T:\MUSIC\VA - Hardfloor - X-Mix - Jack The Box (1998) [CD-FLAC]\1-14. Cool House - Rock This Party Right.wav
Peak level 99.9 % Extraction speed 7.6 X Track quality 100.0 % Test CRC 2516DA99 Copy CRC 2516DA99 Accurately ripped (confidence 10) [F4DFB0A0] (AR v2) Copy OK
Track 15
Filename T:\MUSIC\VA - Hardfloor - X-Mix - Jack The Box (1998) [CD-FLAC]\1-15. Steve Poindexter - Born To Freak.wav
Peak level 99.9 % Extraction speed 7.3 X Track quality 100.0 % Test CRC 8992D78B Copy CRC 8992D78B Accurately ripped (confidence 10) [94F8E47D] (AR v2) Copy OK
Track 16
Filename T:\MUSIC\VA - Hardfloor - X-Mix - Jack The Box (1998) [CD-FLAC]\1-16. Jack Frost - Tom Tom.wav
Peak level 99.9 % Extraction speed 8.2 X Track quality 100.0 % Test CRC 5A3AC616 Copy CRC 5A3AC616 Accurately ripped (confidence 10) [E290BF14] (AR v2) Copy OK
Track 17
Filename T:\MUSIC\VA - Hardfloor - X-Mix - Jack The Box (1998) [CD-FLAC]\1-17. Phuture - Spank Spank.wav
Peak level 99.9 % Extraction speed 7.6 X Track quality 100.0 % Test CRC 3051D8C1 Copy CRC 3051D8C1 Accurately ripped (confidence 10) [4B82725F] (AR v2) Copy OK
Track 18
Filename T:\MUSIC\VA - Hardfloor - X-Mix - Jack The Box (1998) [CD-FLAC]\1-18. Adonis - No Way Back.wav
Peak level 99.0 % Extraction speed 8.1 X Track quality 100.0 % Test CRC 240C8574 Copy CRC 240C8574 Accurately ripped (confidence 10) [CD557BBC] (AR v2) Copy OK
Track 19
Filename T:\MUSIC\VA - Hardfloor - X-Mix - Jack The Box (1998) [CD-FLAC]\1-19. Spanky - Acid House.wav
Peak level 99.8 % Extraction speed 8.0 X Track quality 100.0 % Test CRC DEEFB11C Copy CRC DEEFB11C Accurately ripped (confidence 10) [FE389F68] (AR v2) Copy OK
Track 20
Filename T:\MUSIC\VA - Hardfloor - X-Mix - Jack The Box (1998) [CD-FLAC]\1-20. Sleezy D. - I've Lost Control.wav
Peak level 99.7 % Extraction speed 9.1 X Track quality 100.0 % Test CRC DDEA1B47 Copy CRC DDEA1B47 Accurately ripped (confidence 9) [A336630F] (AR v2) Copy OK
All tracks accurately ripped
No errors occurred
End of status report
---- CUETools DB Plugin V2.1.6
[CTDB TOCID: P2NFB2_bp_DZCpzx.XoVxkKhfGs-] foundSubmit result: P2NFB2_bp_DZCpzx.XoVxkKhfGs- has been confirmedTrack | CTDB Status 1 | (14/15) Accurately ripped 2 | (14/15) Accurately ripped 3 | (14/15) Accurately ripped 4 | (14/15) Accurately ripped 5 | (14/15) Accurately ripped 6 | (14/15) Accurately ripped 7 | (14/15) Accurately ripped 8 | (13/15) Accurately ripped 9 | (14/15) Accurately ripped 10 | (14/15) Accurately ripped 11 | (14/15) Accurately ripped 12 | (14/15) Accurately ripped 13 | (14/15) Accurately ripped 14 | (14/15) Accurately ripped 15 | (14/15) Accurately ripped 16 | (14/15) Accurately ripped 17 | (14/15) Accurately ripped 18 | (14/15) Accurately ripped 19 | (14/15) Accurately ripped 20 | (12/15) Accurately ripped
==== Log checksum D64272D1E4DBA6877F7F4359DB8856C99CE47511471F57C540C466DCFDF45DED ====

Содержание индексной карты (.CUE)

REM GENRE "Acid House"REM DATE 1998REM DISCID 110F5F14REM COMMENT "ExactAudioCopy v1.1"CATALOG 0000000000000PERFORMER "Hardfloor"TITLE "X-Mix - Jack The Box"FILE "1-01. Hardfloor - I Can't Complain.wav" WAVE TRACK 01 AUDIO TITLE "I Can't Complain" PERFORMER "Hardfloor" INDEX 01 00:00:00 INDEX 02 00:02:19FILE "1-02. Bam Bam - Where Is Your Child.wav" WAVE TRACK 02 AUDIO TITLE "Where Is Your Child?" PERFORMER "Bam Bam" INDEX 01 00:00:00FILE "1-03. Co-Jack - Nightshift.wav" WAVE TRACK 03 AUDIO TITLE "Nightshift" PERFORMER "Co-Jack" INDEX 01 00:00:00FILE "1-04. Phuture - The Creator.wav" WAVE TRACK 04 AUDIO TITLE "The Creator" PERFORMER "Phuture" INDEX 01 00:00:00FILE "1-05. Armando - Land Of Confusion.wav" WAVE TRACK 05 AUDIO TITLE "Land Of Confusion" PERFORMER "Armando" INDEX 01 00:00:00FILE "1-06. Fast Eddie - Let's Go.wav" WAVE TRACK 06 AUDIO TITLE "Let's Go" PERFORMER "Fast Eddie" INDEX 01 00:00:00FILE "1-07. Hardfloor - Safety Razor.wav" WAVE TRACK 07 AUDIO TITLE "Safety Razor" PERFORMER "Hardfloor" INDEX 01 00:00:00FILE "1-08. The Housemaster Boyz - Housenation.wav" WAVE TRACK 08 AUDIO TITLE "Housenation" PERFORMER "The Housemaster Boyz" INDEX 01 00:00:00FILE "1-09. Adonis - The Poke.wav" WAVE TRACK 09 AUDIO TITLE "The Poke" PERFORMER "Adonis" INDEX 01 00:00:00FILE "1-10. Hardfloor - Bodymove.wav" WAVE TRACK 10 AUDIO TITLE "Bodymove" PERFORMER "Hardfloor" INDEX 01 00:00:00FILE "1-11. DJ Pierre - Box Energy.wav" WAVE TRACK 11 AUDIO TITLE "Box Energy" PERFORMER "DJ Pierre" INDEX 01 00:00:00FILE "1-12. Gentry Ice - Do You Wanna Jack.wav" WAVE TRACK 12 AUDIO TITLE "Do You Wanna Jack" PERFORMER "Gentry Ice" INDEX 01 00:00:00FILE "1-13. Fast Eddie - Acid Thunder.wav" WAVE TRACK 13 AUDIO TITLE "Acid Thunder" PERFORMER "Fast Eddie" INDEX 01 00:00:00FILE "1-14. Cool House - Rock This Party Right.wav" WAVE TRACK 14 AUDIO TITLE "Rock This Party Right" PERFORMER "Cool House" INDEX 01 00:00:00FILE "1-15. Steve Poindexter - Born To Freak.wav" WAVE TRACK 15 AUDIO TITLE "Born To Freak" PERFORMER "Steve Poindexter" INDEX 01 00:00:00FILE "1-16. Jack Frost - Tom Tom.wav" WAVE TRACK 16 AUDIO TITLE "Tom Tom" PERFORMER "Jack Frost" INDEX 01 00:00:00FILE "1-17. Phuture - Spank Spank.wav" WAVE TRACK 17 AUDIO TITLE "Spank Spank" PERFORMER "Phuture" INDEX 01 00:00:00FILE "1-18. Adonis - No Way Back.wav" WAVE TRACK 18 AUDIO TITLE "No Way Back" PERFORMER "Adonis" INDEX 01 00:00:00FILE "1-19. Spanky - Acid House.wav" WAVE TRACK 19 AUDIO TITLE "Acid House" PERFORMER "Spanky" INDEX 01 00:00:00FILE "1-20. Sleezy D. - I've Lost Control.wav" WAVE TRACK 20 AUDIO TITLE "I've Lost Control" PERFORMER "Sleezy D." INDEX 01 00:00:00

[1998] Hardfloor – All Targets Down [HH 01-2]

Жанр: Techno, Acid, Electro, Downtempo
Производитель диска: Harthouse
Продолжительность: 00:51:16
Трэклист:
01. Insert Coin (05:25)
02. Hardfloor Will Survive [Club Mix] (06:51)
03. Jackin' Track (06:12)
04. Multiball Challenge (05:50)
05. Slammin' Shit (04:46)
06. Extra Ball (05:47)
07. Skill Shot (06:22)
08. Tilt (03:59)
09. Hardfloor Will Survive (06:04)--

Лог создания рипа

Exact Audio Copy V0.99 prebeta 4 from 23. January 2008
EAC extraction logfile from 25. February 2010, 19:25
Hardfloor / All Targets Down
Used drive : HL-DT-STDVDRAM GSA-4163B Adapter: 0 ID: 2
Read mode : SecureUtilize accurate stream : YesDefeat audio cache : YesMake use of C2 pointers : No
Read offset correction : 667Overread into Lead-In and Lead-Out : NoFill up missing offset samples with silence : YesDelete leading and trailing silent blocks : NoNull samples used in CRC calculations : YesUsed interface : Native Win32 interface for Win NT & 2000Gap handling : Appended to previous track
Used output format : User Defined EncoderSelected bitrate : 128 kBit/sQuality : HighAdd ID3 tag : NoCommand line compressor : C:\Program Files\Exact Audio Copy\Flac\flac.exeAdditional command line options : -V -8 -T "artist=%a" -T "title=%t" -T "album=%g" -T "date=%y" -T "tracknumber=%n" -T "genre=%m" %s
TOC of the extracted CD
Track | Start | Length | Start sector | End sector --------------------------------------------------------- 1 | 0:00.00 | 5:26.11 | 0 | 24460 2 | 5:26.11 | 6:51.41 | 24461 | 55326 3 | 12:17.52 | 6:13.25 | 55327 | 83326 4 | 18:31.02 | 5:50.53 | 83327 | 109629 5 | 24:21.55 | 4:48.10 | 109630 | 131239 6 | 29:09.65 | 5:49.06 | 131240 | 157420 7 | 34:58.71 | 6:22.29 | 157421 | 186099 8 | 41:21.25 | 3:58.48 | 186100 | 203997 9 | 45:19.73 | 6:01.66 | 203998 | 231138
Track 1
Filename F:\!FLAC\Hardfloor\All Targets Down\01 - Insert Coin.wav
Pre-gap length 0:00:02.00
Peak level 99.9 % Track quality 100.0 % Test CRC 34D2A24E Copy CRC 34D2A24E Accurately ripped (confidence 6) [417A99B2] Copy OK
Track 2
Filename F:\!FLAC\Hardfloor\All Targets Down\02 - Hardfloor Will Survive (Featuring Phuture 303) (Club Mix).wav
Pre-gap length 0:00:02.00
Peak level 96.5 % Track quality 100.0 % Test CRC 72C1D2A1 Copy CRC 72C1D2A1 Accurately ripped (confidence 6) [70401850] Copy OK
Track 3
Filename F:\!FLAC\Hardfloor\All Targets Down\03 - Jackin' Track.wav
Pre-gap length 0:00:02.00
Peak level 96.5 % Track quality 100.0 % Test CRC F74A5FB6 Copy CRC F74A5FB6 Accurately ripped (confidence 6) [9A0EFFCB] Copy OK
Track 4
Filename F:\!FLAC\Hardfloor\All Targets Down\04 - Multiball Challenge.wav
Pre-gap length 0:00:02.00
Peak level 99.9 % Track quality 100.0 % Test CRC D8A15983 Copy CRC D8A15983 Accurately ripped (confidence 6) [9542817C] Copy OK
Track 5
Filename F:\!FLAC\Hardfloor\All Targets Down\05 - Slammin' Shit.wav
Pre-gap length 0:00:02.00
Peak level 96.5 % Track quality 100.0 % Test CRC 65A36445 Copy CRC 65A36445 Accurately ripped (confidence 6) [1752BFB1] Copy OK
Track 6
Filename F:\!FLAC\Hardfloor\All Targets Down\06 - Extra Ball.wav
Pre-gap length 0:00:02.00
Peak level 96.5 % Track quality 100.0 % Test CRC 3A03180B Copy CRC 3A03180B Accurately ripped (confidence 6) [52D393E8] Copy OK
Track 7
Filename F:\!FLAC\Hardfloor\All Targets Down\07 - Skill Shot.wav
Pre-gap length 0:00:02.00
Peak level 96.5 % Track quality 100.0 % Test CRC 59ECA3CC Copy CRC 59ECA3CC Accurately ripped (confidence 6) [FBD3C956] Copy OK
Track 8
Filename F:\!FLAC\Hardfloor\All Targets Down\08 - Tilt.wav
Pre-gap length 0:00:02.00
Peak level 96.5 % Track quality 100.0 % Test CRC AC0105F0 Copy CRC AC0105F0 Accurately ripped (confidence 6) [F25C7413] Copy OK
Track 9
Filename F:\!FLAC\Hardfloor\All Targets Down\09 - Hardfloor Will Survive (Featuring Phuture 303) (Original Mix).wav
Pre-gap length 0:00:02.00
Peak level 96.5 % Track quality 100.0 % Test CRC D4D647EE Copy CRC D4D647EE Accurately ripped (confidence 7) [23A0B3FD] Copy OK
All tracks accurately ripped
No errors occurred
End of status report

Содержание индексной карты (.CUE)

REM GENRE AcidREM DATE 1998REM DISCID 640C0909REM COMMENT "ExactAudioCopy v0.99pb4"CATALOG 0000000000000PERFORMER "Hardfloor"TITLE "All Targets Down"FILE "01 - Insert Coin.wav" WAVE TRACK 01 AUDIO TITLE "Insert Coin" PERFORMER "Hardfloor" INDEX 01 00:00:00 TRACK 02 AUDIO TITLE "Hardfloor Will Survive (Featuring Phuture 303) (Club Mix)" PERFORMER "Hardfloor" INDEX 00 05:24:11FILE "02 - Hardfloor Will Survive (Featuring Phuture 303) (Club Mix).wav" WAVE INDEX 01 00:00:00 TRACK 03 AUDIO TITLE "Jackin' Track" PERFORMER "Hardfloor" INDEX 00 06:49:41FILE "03 - Jackin' Track.wav" WAVE INDEX 01 00:00:00 TRACK 04 AUDIO TITLE "Multiball Challenge" PERFORMER "Hardfloor" INDEX 00 06:11:25FILE "04 - Multiball Challenge.wav" WAVE INDEX 01 00:00:00 TRACK 05 AUDIO TITLE "Slammin' Shit" PERFORMER "Hardfloor" INDEX 00 05:48:53FILE "05 - Slammin' Shit.wav" WAVE INDEX 01 00:00:00 TRACK 06 AUDIO TITLE "Extra Ball" PERFORMER "Hardfloor" INDEX 00 04:46:10FILE "06 - Extra Ball.wav" WAVE INDEX 01 00:00:00 TRACK 07 AUDIO TITLE "Skill Shot" PERFORMER "Hardfloor" INDEX 00 05:47:06FILE "07 - Skill Shot.wav" WAVE INDEX 01 00:00:00 TRACK 08 AUDIO TITLE "Tilt" PERFORMER "Hardfloor" INDEX 00 06:20:29FILE "08 - Tilt.wav" WAVE INDEX 01 00:00:00 TRACK 09 AUDIO TITLE "Hardfloor Will Survive (Featuring Phuture 303) (Original Mix)" PERFORMER "Hardfloor" INDEX 00 03:56:48FILE "09 - Hardfloor Will Survive (Featuring Phuture 303) (Original Mix).wav" WAVE INDEX 01 00:00:00

[2000] Hardfloor – So What [HH CD05-2]

Жанр: Techno,Acid
Производитель диска: Harthouse
Продолжительность: 01:03:47
Трэклист:
01. Communication To None (05:51)
02. Smash The Nat (07:42)
03. Frozen Spotlight (05:54)
04. Underexposed Above Averenge (05:53)
05. Dear Mc Bain (07:12)
06. So What?! (07:15)
07. Spoken Token (05:52)
08. Dog In The Manger (06:25)
09. A Snifter For Daddy (05:18)
10. Non-Smoking Post Office (06:25)-

Лог создания рипа

Exact Audio Copy V0.99 prebeta 4 from 23. January 2008
EAC extraction logfile from 25. February 2010, 19:57
Hardfloor / So What?!
Used drive : HL-DT-STDVDRAM GSA-4163B Adapter: 0 ID: 2
Read mode : SecureUtilize accurate stream : YesDefeat audio cache : YesMake use of C2 pointers : No
Read offset correction : 667Overread into Lead-In and Lead-Out : NoFill up missing offset samples with silence : YesDelete leading and trailing silent blocks : NoNull samples used in CRC calculations : YesUsed interface : Native Win32 interface for Win NT & 2000Gap handling : Appended to previous track
Used output format : User Defined EncoderSelected bitrate : 128 kBit/sQuality : HighAdd ID3 tag : NoCommand line compressor : C:\Program Files\Exact Audio Copy\Flac\flac.exeAdditional command line options : -V -8 -T "artist=%a" -T "title=%t" -T "album=%g" -T "date=%y" -T "tracknumber=%n" -T "genre=%m" %s
TOC of the extracted CD
Track | Start | Length | Start sector | End sector --------------------------------------------------------- 1 | 0:00.00 | 5:51.20 | 0 | 26344 2 | 5:51.20 | 7:42.10 | 26345 | 61004 3 | 13:33.30 | 5:54.42 | 61005 | 87596 4 | 19:27.72 | 5:53.15 | 87597 | 114086 5 | 25:21.12 | 7:12.63 | 114087 | 146549 6 | 32:34.00 | 7:15.62 | 146550 | 179236 7 | 39:49.62 | 5:52.38 | 179237 | 205674 8 | 45:42.25 | 6:25.32 | 205675 | 234581 9 | 52:07.57 | 5:18.48 | 234582 | 258479 10 | 57:26.30 | 6:25.35 | 258480 | 287389
Track 1
Filename F:\!FLAC\Hardfloor\So What\01 - Communication 2 None.wav
Pre-gap length 0:00:02.00
Peak level 100.0 % Track quality 100.0 % Test CRC D0549A96 Copy CRC D0549A96 Accurately ripped (confidence 4) [79B0A05D] Copy OK
Track 2
Filename F:\!FLAC\Hardfloor\So What\02 - Smash the Gnat.wav
Peak level 100.0 % Track quality 100.0 % Test CRC 10B951D5 Copy CRC 10B951D5 Accurately ripped (confidence 4) [415C4EF6] Copy OK
Track 3
Filename F:\!FLAC\Hardfloor\So What\03 - Frozen Spotlight.wav
Peak level 100.0 % Track quality 100.0 % Test CRC 0228E56D Copy CRC 0228E56D Accurately ripped (confidence 4) [09E1048D] Copy OK
Track 4
Filename F:\!FLAC\Hardfloor\So What\04 - Underexposed Above Average.wav
Peak level 100.0 % Track quality 100.0 % Test CRC 32CA0F25 Copy CRC 32CA0F25 Accurately ripped (confidence 4) [9EEA4E61] Copy OK
Track 5
Filename F:\!FLAC\Hardfloor\So What\05 - Dear McBain.wav
Peak level 100.0 % Track quality 100.0 % Test CRC 5B8DC85E Copy CRC 5B8DC85E Accurately ripped (confidence 4) [9EC42285] Copy OK
Track 6
Filename F:\!FLAC\Hardfloor\So What\06 - So What !.wav
Peak level 100.0 % Track quality 100.0 % Test CRC D50297C9 Copy CRC D50297C9 Accurately ripped (confidence 4) [B8DD041B] Copy OK
Track 7
Filename F:\!FLAC\Hardfloor\So What\07 - Spoken Token.wav
Peak level 100.0 % Track quality 100.0 % Test CRC 082678B6 Copy CRC 082678B6 Accurately ripped (confidence 4) [9A8622A8] Copy OK
Track 8
Filename F:\!FLAC\Hardfloor\So What\08 - Dog in the Manger.wav
Peak level 100.0 % Track quality 100.0 % Test CRC 9D942855 Copy CRC 9D942855 Accurately ripped (confidence 4) [72D1309D] Copy OK
Track 9
Filename F:\!FLAC\Hardfloor\So What\09 - A Snifter for Daddy.wav
Peak level 100.0 % Track quality 100.0 % Test CRC 65C8F7A5 Copy CRC 65C8F7A5 Accurately ripped (confidence 4) [17160EF3] Copy OK
Track 10
Filename F:\!FLAC\Hardfloor\So What\10 - Non-Smoking Post Office.wav
Peak level 100.0 % Track quality 100.0 % Test CRC 36FA5054 Copy CRC 36FA5054 Accurately ripped (confidence 4) [73A23F31] Copy OK
All tracks accurately ripped
No errors occurred
End of status report

Содержание индексной карты (.CUE)

REM GENRE TechnoREM DATE 2000REM DISCID 8E0EF70AREM COMMENT "ExactAudioCopy v0.99pb4"CATALOG 0000000000000PERFORMER "Hardfloor"TITLE "So What?!"FILE "01 - Communication 2 None.wav" WAVE TRACK 01 AUDIO TITLE "Communication 2 None" PERFORMER "Hardfloor" INDEX 01 00:00:00FILE "02 - Smash the Gnat.wav" WAVE TRACK 02 AUDIO TITLE "Smash the Gnat" PERFORMER "Hardfloor" INDEX 01 00:00:00FILE "03 - Frozen Spotlight.wav" WAVE TRACK 03 AUDIO TITLE "Frozen Spotlight" PERFORMER "Hardfloor" INDEX 01 00:00:00FILE "04 - Underexposed Above Average.wav" WAVE TRACK 04 AUDIO TITLE "Underexposed Above Average" PERFORMER "Hardfloor" INDEX 01 00:00:00FILE "05 - Dear McBain.wav" WAVE TRACK 05 AUDIO TITLE "Dear McBain" PERFORMER "Hardfloor" INDEX 01 00:00:00FILE "06 - So What !.wav" WAVE TRACK 06 AUDIO TITLE "So What ?!" PERFORMER "Hardfloor" INDEX 01 00:00:00FILE "07 - Spoken Token.wav" WAVE TRACK 07 AUDIO TITLE "Spoken Token" PERFORMER "Hardfloor" INDEX 01 00:00:00FILE "08 - Dog in the Manger.wav" WAVE TRACK 08 AUDIO TITLE "Dog in the Manger" PERFORMER "Hardfloor" INDEX 01 00:00:00FILE "09 - A Snifter for Daddy.wav" WAVE TRACK 09 AUDIO TITLE "A Snifter for Daddy" PERFORMER "Hardfloor" INDEX 01 00:00:00FILE "10 - Non-Smoking Post Office.wav" WAVE TRACK 10 AUDIO TITLE "Non-Smoking Post Office" PERFORMER "Hardfloor" INDEX 01 00:00:00

[2005] Hardfloor – Four Out Of Five Aliens Recommend This [hfcd 1]

Жанр: Acid House, Acid
Производитель диска: Hardfloor
Продолжительность: 01:07:06
Трэклист:
01. Who's Jack? (05:30)
02. Itz Not Over (08:17)
03. Glop Glop (05:51)
04. Cube² (08:23)
05. T 2 Da C (Tribute) (05:54)
06. The Lost Souls (06:44)
07. Who Spends Money On Candygirls & Chocolate Chips? (07:06)
08. Groupie Love (07:54)
09. Itchy's Marbels (06:43)
10. Jack The House (04:44)-

Лог создания рипа

Exact Audio Copy V0.99 prebeta 4 from 23. January 2008
EAC extraction logfile from 18. November 2009, 18:01
Hardfloor / Four Out Of Five Aliens Recommend This
Used drive : HL-DT-STBD-RE GGW-H20L Adapter: 2 ID: 0
Read mode : SecureUtilize accurate stream : YesDefeat audio cache : YesMake use of C2 pointers : No
Read offset correction : 667Overread into Lead-In and Lead-Out : NoFill up missing offset samples with silence : YesDelete leading and trailing silent blocks : NoNull samples used in CRC calculations : YesUsed interface : Native Win32 interface for Win NT & 2000Gap handling : Appended to previous track
Used output format : User Defined EncoderSelected bitrate : 896 kBit/sQuality : HighAdd ID3 tag : NoCommand line compressor : C:\Program Files (x86)\Exact Audio Copy\Flac\flac.exeAdditional command line options : -V -8 -T "artist=%a" -T "title=%t" -T "album=%g" -T "date=%y" -T "tracknumber=%n" -T "genre=%m" %s
TOC of the extracted CD
Track | Start | Length | Start sector | End sector --------------------------------------------------------- 1 | 0:00.00 | 5:30.30 | 0 | 24779 2 | 5:30.30 | 8:17.32 | 24780 | 62086 3 | 13:47.62 | 5:52.24 | 62087 | 88510 4 | 19:40.11 | 8:25.01 | 88511 | 126386 5 | 28:05.12 | 5:55.05 | 126387 | 153016 6 | 34:00.17 | 6:44.70 | 153017 | 183386 7 | 40:45.12 | 7:07.46 | 183387 | 215457 8 | 47:52.58 | 7:54.20 | 215458 | 251027 9 | 55:47.03 | 6:45.27 | 251028 | 281429 10 | 62:32.30 | 4:44.18 | 281430 | 302747
Track 1
Filename F:\Downloads\EAC\Hardfloor - 2005 - Four Out Of Five Aliens Recommend This\01 - Who's Jack .wav
Pre-gap length 0:00:02.00
Peak level 98.8 % Track quality 99.9 % Test CRC 31CDD851 Copy CRC 31CDD851 Accurately ripped (confidence 3) [08FD7D0B] Copy OK
Track 2
Filename F:\Downloads\EAC\Hardfloor - 2005 - Four Out Of Five Aliens Recommend This\02 - Itz Not Over.wav
Peak level 98.8 % Track quality 99.9 % Test CRC 6505702E Copy CRC 6505702E Accurately ripped (confidence 3) [68722BE9] Copy OK
Track 3
Filename F:\Downloads\EAC\Hardfloor - 2005 - Four Out Of Five Aliens Recommend This\03 - Glop Glop.wav
Peak level 98.8 % Track quality 99.9 % Test CRC 3069F779 Copy CRC 3069F779 Accurately ripped (confidence 2) [F86934D8] Copy OK
Track 4
Filename F:\Downloads\EAC\Hardfloor - 2005 - Four Out Of Five Aliens Recommend This\04 - CubeІ.wav
Pre-gap length 0:00:01.00
Peak level 98.8 % Track quality 100.0 % Test CRC 4F72C8E7 Copy CRC 4F72C8E7 Accurately ripped (confidence 2) [BB4B349A] Copy OK
Track 5
Filename F:\Downloads\EAC\Hardfloor - 2005 - Four Out Of Five Aliens Recommend This\05 - T 2 Dac (Tribute).wav
Pre-gap length 0:00:01.74
Peak level 98.8 % Track quality 100.0 % Test CRC 79D87EFC Copy CRC 79D87EFC Accurately ripped (confidence 2) [6FF00CD4] Copy OK
Track 6
Filename F:\Downloads\EAC\Hardfloor - 2005 - Four Out Of Five Aliens Recommend This\06 - The Lost Souls.wav
Pre-gap length 0:00:01.00
Peak level 98.8 % Track quality 100.0 % Test CRC AAF74817 Copy CRC AAF74817 Accurately ripped (confidence 3) [86070292] Copy OK
Track 7
Filename F:\Downloads\EAC\Hardfloor - 2005 - Four Out Of Five Aliens Recommend This\07 - Who Spends Money On Candygirls & Chocolate Chips .wav
Peak level 98.8 % Track quality 100.0 % Test CRC 4208345F Copy CRC 4208345F Accurately ripped (confidence 2) [8B190DE6] Copy OK
Track 8
Filename F:\Downloads\EAC\Hardfloor - 2005 - Four Out Of Five Aliens Recommend This\08 - Groupie Love.wav
Pre-gap length 0:00:01.00
Peak level 98.8 % Track quality 100.0 % Test CRC 0FAB9B6B Copy CRC 0FAB9B6B Accurately ripped (confidence 3) [CDFFC6EB] Copy OK
Track 9
Filename F:\Downloads\EAC\Hardfloor - 2005 - Four Out Of Five Aliens Recommend This\09 - Itchy's Marbels.wav
Peak level 98.8 % Track quality 100.0 % Test CRC 77DCDA1B Copy CRC 77DCDA1B Accurately ripped (confidence 2) [D07DE52B] Copy OK
Track 10
Filename F:\Downloads\EAC\Hardfloor - 2005 - Four Out Of Five Aliens Recommend This\10 - Jack The House.wav
Pre-gap length 0:00:02.00
Peak level 98.8 % Track quality 100.0 % Test CRC 77326FD6 Copy CRC 77326FD6 Accurately ripped (confidence 3) [91C79BBE] Copy OK
All tracks accurately ripped
No errors occurred
End of status report

Содержание индексной карты (.CUE)

REM GENRE AcidREM DATE 2005REM DISCID 930FC40AREM COMMENT "ExactAudioCopy v0.99pb4"FILE "01 - Who's Jack .wav" WAVE TRACK 01 AUDIO INDEX 01 00:00:00FILE "02 - Itz Not Over.wav" WAVE TRACK 02 AUDIO INDEX 01 00:00:00FILE "03 - Glop Glop.wav" WAVE TRACK 03 AUDIO INDEX 01 00:00:00 TRACK 04 AUDIO INDEX 00 05:51:24FILE "04 - CubeІ.wav" WAVE INDEX 01 00:00:00 TRACK 05 AUDIO INDEX 00 08:23:02FILE "05 - T 2 Dac (Tribute).wav" WAVE INDEX 01 00:00:00 TRACK 06 AUDIO INDEX 00 05:54:05FILE "06 - The Lost Souls.wav" WAVE INDEX 01 00:00:00FILE "07 - Who Spends Money On Candygirls & Chocolate Chips .wav" WAVE TRACK 07 AUDIO INDEX 01 00:00:00 TRACK 08 AUDIO INDEX 00 07:06:46FILE "08 - Groupie Love.wav" WAVE INDEX 01 00:00:00FILE "09 - Itchy's Marbels.wav" WAVE TRACK 09 AUDIO INDEX 01 00:00:00 TRACK 10 AUDIO INDEX 00 06:43:27FILE "10 - Jack The House.wav" WAVE INDEX 01 00:00:00


[islamvillage.com]_t_5451688.torrent
Торрент: Зарегистрирован ·  [ 2019-01-07 11:59 ] ·  157083d398a89e8d1528be0aeac9beb738bd3101

161 KB

Статус: проверено
Скачан: 0 раз
Размер: 16.96 GB
Оценка: 
(Голосов: 0)
Сказали спасибо: 0  Спасибо
Похожие темы
[Профиль]    [ЛС]
Показать сообщения:    
Ответить на тему

Текущее время: Сегодня 06:38

Часовой пояс: GMT + 7



Вы не можете начинать темы
Вы не можете отвечать на сообщения
Вы не можете редактировать свои сообщения
Вы не можете удалять свои сообщения
Вы не можете голосовать в опросах
Вы не можете прикреплять файлы к сообщениям
Вы можете скачивать файлы


Eps2 Sando Season 1 | Can You Ever Forgive Me? (2018) | Dokumentation