(Techno, Electro) [CD] Mr. X & Mr. Y (Afrika Islam & WestBam) - 10 releases - 1997-2000, FLAC (tracks+.cue), lossless

Ответить на тему
Статистика раздачи [Обновить пиров]
Размер:  2.44 GB   |    Зарегистрирован:  14 дней   |    Скачан:  0 раз

Полного источника не было: Никогда

 
   
 
 
 
Автор Сообщение

islamvillage.com

Создавать темы 07-Янв-2019 12:33

[Цитировать]

Mr. X & Mr. Y

Жанр: Techno, Electro
Год издания: 1997-2000
Аудиокодек: FLAC (*.flac)
Тип рипа: tracks+.cue
Битрейт аудио: lossless
Продолжительность: 05:49:57
Источник (релизер): свои рипы
Наличие сканов в содержимом раздачи: да
06 11 2018 добавлен "1997 - Free Me (Sum Thing 4 Da Brothers) [HYD70270]"

Albums1999 - New world order (74321 67816 2)

Продолжительность:55 minutes 16 seconds
1. intro (1:29)
2. what's up at the brotherfront (4:57)
3. 1956 (4:52)
4. the flavour's in the fat (5:06)
5. free me (4:49)
6. scratch in my pocket (4:23)
7. three midget sushi chefs (3:37)
8. night of the tschuldigungs (5:08)
9. time tunnel 2000 (5:02)
10. viva la revolucion (i.c.e.t.) (5:20)
11. new world order (6:10)
12. x & y theme (4:23)

Extraction Log

Exact Audio Copy V0.99 prebeta 4 from 23. January 2008
EAC extraction logfile from 5. February 2009, 14:26
mr. x & mr. y / new world order
Used drive : HL-DT-STDVD-RAM GSA-H55N Adapter: 0 ID: 1
Read mode : SecureUtilize accurate stream : YesDefeat audio cache : YesMake use of C2 pointers : No
Read offset correction : 102Overread into Lead-In and Lead-Out : YesFill up missing offset samples with silence : YesDelete leading and trailing silent blocks : NoNull samples used in CRC calculations : YesUsed interface : Native Win32 interface for Win NT & 2000Gap handling : Appended to previous track
Used output format : User Defined EncoderSelected bitrate : 320 kBit/sQuality : HighAdd ID3 tag : NoCommand line compressor : C:\Programme\Exact Audio Copy\Flac\flac.exeAdditional command line options : -V -8 -T "artist=%a" -T "title=%t" -T "album=%g" -T "date=%y" -T "tracknumber=%n" -T "genre=%m" %s
TOC of the extracted CD
Track | Start | Length | Start sector | End sector --------------------------------------------------------- 1 | 0:00.32 | 1:29.03 | 32 | 6709 2 | 1:29.35 | 4:57.70 | 6710 | 29054 3 | 6:27.30 | 4:52.47 | 29055 | 51001 4 | 11:20.02 | 5:06.43 | 51002 | 73994 5 | 16:26.45 | 4:49.67 | 73995 | 95736 6 | 21:16.37 | 4:23.23 | 95737 | 115484 7 | 25:39.60 | 3:37.47 | 115485 | 131806 8 | 29:17.32 | 5:08.43 | 131807 | 154949 9 | 34:26.00 | 5:02.47 | 154950 | 177646 10 | 39:28.47 | 5:20.03 | 177647 | 201649 11 | 44:48.50 | 6:10.07 | 201650 | 229406 12 | 50:58.57 | 4:23.50 | 229407 | 249181
Track 1
Filename E:\eacrips\01 - mr. x & mr. y - intro.wav
Pre-gap length 0:00:02.42
Peak level 63.1 % Track quality 99.6 % Test CRC 4D1CF528 Copy CRC 4D1CF528 Accurately ripped (confidence 1) [EA8ECCC3] Copy OK
Track 2
Filename E:\eacrips\02 - mr. x & mr. y - what's up at the brotherfront.wav
Peak level 99.0 % Track quality 99.9 % Test CRC 756E8AFE Copy CRC 756E8AFE Accurately ripped (confidence 1) [56A7B451] Copy OK
Track 3
Filename E:\eacrips\03 - mr. x & mr. y - 1956.wav
Peak level 99.0 % Track quality 100.0 % Test CRC 930AA60F Copy CRC 930AA60F Accurately ripped (confidence 1) [B2D2F8B4] Copy OK
Track 4
Filename E:\eacrips\04 - mr. x & mr. y - the flavour's in the fat.wav
Peak level 98.9 % Track quality 100.0 % Test CRC FC80F65D Copy CRC FC80F65D Accurately ripped (confidence 1) [16FEBAC8] Copy OK
Track 5
Filename E:\eacrips\05 - mr. x & mr. y - free me.wav
Peak level 79.3 % Track quality 99.9 % Test CRC D119DD20 Copy CRC D119DD20 Accurately ripped (confidence 1) [64022811] Copy OK
Track 6
Filename E:\eacrips\06 - mr. x & mr. y - scratch in my pocket.wav
Peak level 99.0 % Track quality 99.9 % Test CRC 0792C693 Copy CRC 0792C693 Accurately ripped (confidence 1) [99F673D2] Copy OK
Track 7
Filename E:\eacrips\07 - mr. x & mr. y - three midget sushi chefs.wav
Peak level 86.5 % Track quality 100.0 % Test CRC 61526670 Copy CRC 61526670 Accurately ripped (confidence 1) [5CBBFBE3] Copy OK
Track 8
Filename E:\eacrips\08 - mr. x & mr. y - night of the tschuldigungs.wav
Pre-gap length 0:00:01.16
Peak level 99.0 % Track quality 100.0 % Test CRC F5A3F813 Copy CRC F5A3F813 Accurately ripped (confidence 1) [6F3C2225] Copy OK
Track 9
Filename E:\eacrips\09 - mr. x & mr. y - time tunnel 2000.wav
Peak level 99.0 % Track quality 100.0 % Test CRC A3E27CA8 Copy CRC A3E27CA8 Accurately ripped (confidence 1) [26C35A8B] Copy OK
Track 10
Filename E:\eacrips\10 - mr. x & mr. y - viva la revolucion (i.c.e.t.).wav
Peak level 99.0 % Track quality 100.0 % Test CRC D8CB337E Copy CRC D8CB337E Accurately ripped (confidence 1) [5B6DE9BF] Copy OK
Track 11
Filename E:\eacrips\11 - mr. x & mr. y - new world order.wav
Peak level 99.0 % Track quality 100.0 % Test CRC 32D2631A Copy CRC 32D2631A Accurately ripped (confidence 1) [2124651A] Copy OK
Track 12
Filename E:\eacrips\12 - mr. x & mr. y - x & y theme.wav
Peak level 80.6 % Track quality 99.9 % Test CRC 90B66DB1 Copy CRC 90B66DB1 Accurately ripped (confidence 1) [ED377217] Copy OK
All tracks accurately ripped
No errors occurred
End of status report

CUE

REM GENRE "elektro"REM DATE 1999REM DISCID B20CFA0CREM COMMENT "ExactAudioCopy v0.99pb4"PERFORMER "mr. x & mr. y"TITLE "new world order"FILE "01 - mr. x & mr. y - intro.wav" WAVE TRACK 01 AUDIO TITLE "intro" PERFORMER "mr. x & mr. y" PREGAP 00:00:32 INDEX 01 00:00:00FILE "02 - mr. x & mr. y - what's up at the brotherfront.wav" WAVE TRACK 02 AUDIO TITLE "what's up at the brotherfront" PERFORMER "mr. x & mr. y" INDEX 01 00:00:00FILE "03 - mr. x & mr. y - 1956.wav" WAVE TRACK 03 AUDIO TITLE "1956" PERFORMER "mr. x & mr. y" INDEX 01 00:00:00FILE "04 - mr. x & mr. y - the flavour's in the fat.wav" WAVE TRACK 04 AUDIO TITLE "the flavour's in the fat" PERFORMER "mr. x & mr. y" INDEX 01 00:00:00FILE "05 - mr. x & mr. y - free me.wav" WAVE TRACK 05 AUDIO TITLE "free me" PERFORMER "mr. x & mr. y" INDEX 01 00:00:00FILE "06 - mr. x & mr. y - scratch in my pocket.wav" WAVE TRACK 06 AUDIO TITLE "scratch in my pocket" PERFORMER "mr. x & mr. y" INDEX 01 00:00:00FILE "07 - mr. x & mr. y - three midget sushi chefs.wav" WAVE TRACK 07 AUDIO TITLE "three midget sushi chefs" PERFORMER "mr. x & mr. y" INDEX 01 00:00:00 TRACK 08 AUDIO TITLE "night of the tschuldigungs" PERFORMER "mr. x & mr. y" INDEX 00 03:36:35FILE "08 - mr. x & mr. y - night of the tschuldigungs.wav" WAVE INDEX 01 00:00:00FILE "09 - mr. x & mr. y - time tunnel 2000.wav" WAVE TRACK 09 AUDIO TITLE "time tunnel 2000" PERFORMER "mr. x & mr. y" INDEX 01 00:00:00FILE "10 - mr. x & mr. y - viva la revolucion (i.c.e.t.).wav" WAVE TRACK 10 AUDIO TITLE "viva la revolucion (i.c.e.t.)" PERFORMER "mr. x & mr. y" INDEX 01 00:00:00FILE "11 - mr. x & mr. y - new world order.wav" WAVE TRACK 11 AUDIO TITLE "new world order" PERFORMER "mr. x & mr. y" INDEX 01 00:00:00FILE "12 - mr. x & mr. y - x & y theme.wav" WAVE TRACK 12 AUDIO TITLE "x & y theme" PERFORMER "mr. x & mr. y" INDEX 01 00:00:00

2000 - Live From Berlin - 4 Turntables And A Microphone (74321 79247 2)

Продолжительность:66:19
1 Rock The House (Intro) 1:20
2 Global Players (My Name Is Techno) 6:05
3 1956 4:11
4 Back To Berlin 5:01
5 What's Up At The Brotherfront 6:36
6 Viva La Revolucion (I.C.E.T.) 7:05
7 New World Order 8:13
8 X On The Beatbox 3:58
9 Time Tunnel 2000 (TL Mix) 4:51
10 Black You Out 5:15
11 The Flavour's In The Fat 3:49
12 Night Of The Tschuldigungs 4:21
13 Free Me 5:20

Log

Exact Audio Copy V1.3 from 2. September 2016
EAC extraction logfile from 4. October 2017, 22:59
Mr. X & Mr. Y / Live From Berlin: 4 Turntables and a Microphone
Used drive : ASUS DRW-24B5ST Adapter: 6 ID: 0
Read mode : SecureUtilize accurate stream : YesDefeat audio cache : YesMake use of C2 pointers : No
Read offset correction : 6Overread into Lead-In and Lead-Out : NoFill up missing offset samples with silence : YesDelete leading and trailing silent blocks : NoNull samples used in CRC calculations : YesUsed interface : Installed external ASPI interfaceGap handling : Appended to previous track
Used output format : User Defined EncoderSelected bitrate : 128 kBit/sQuality : HighAdd ID3 tag : NoCommand line compressor : D:\flac-1.3.2-win\win64\flac.exeAdditional command line options : -8 -V -T "ARTIST=%artist%" -T "TITLE=%title%" -T "ALBUM=%albumtitle%" -T "DATE=%year%" -T "TRACKNUMBER=%tracknr%" -T "GENRE=%genre%" -T "COMMENT=ripped by Andy aka yetiisyou" %source%
TOC of the extracted CD
Track | Start | Length | Start sector | End sector --------------------------------------------------------- 1 | 0:00.32 | 1:21.73 | 32 | 6179 2 | 1:22.30 | 6:05.32 | 6180 | 33586 3 | 7:27.62 | 4:11.58 | 33587 | 52469 4 | 11:39.45 | 5:02.52 | 52470 | 75171 5 | 16:42.22 | 6:36.33 | 75172 | 104904 6 | 23:18.55 | 7:05.10 | 104905 | 136789 7 | 30:23.65 | 8:17.70 | 136790 | 174134 8 | 38:41.60 | 3:58.45 | 174135 | 192029 9 | 42:40.30 | 4:51.42 | 192030 | 213896 10 | 47:31.72 | 5:15.48 | 213897 | 237569 11 | 52:47.45 | 3:49.62 | 237570 | 254806 12 | 56:37.32 | 4:20.68 | 254807 | 274374 13 | 60:58.25 | 5:21.45 | 274375 | 298494
Track 1
Filename E:\!Ripped by Andy aka yetiisyou\2000 - Mr. X & Mr. Y - Live From Berlin - 4 Turntables And A Microphone (74321 79247 2)\01. Mr. X & Mr. Y - Rock the House (intro).wav
Pre-gap length 0:00:02.32
Peak level 74.8 % Extraction speed 1.9 X Track quality 99.8 % Test CRC 486AEDF8 Copy CRC 486AEDF8 Accurately ripped (confidence 2) [1205CFA8] (AR v2) Copy OK
Track 2
Filename E:\!Ripped by Andy aka yetiisyou\2000 - Mr. X & Mr. Y - Live From Berlin - 4 Turntables And A Microphone (74321 79247 2)\02. Mr. X & Mr. Y - Global Players (My Name Is Techno).wav
Peak level 99.0 % Extraction speed 4.3 X Track quality 100.0 % Test CRC EBCC63C1 Copy CRC EBCC63C1 Accurately ripped (confidence 2) [26197854] (AR v2) Copy OK
Track 3
Filename E:\!Ripped by Andy aka yetiisyou\2000 - Mr. X & Mr. Y - Live From Berlin - 4 Turntables And A Microphone (74321 79247 2)\03. Mr. X & Mr. Y - 1956.wav
Peak level 99.0 % Extraction speed 4.6 X Track quality 100.0 % Test CRC 7BC18FC2 Copy CRC 7BC18FC2 Accurately ripped (confidence 2) [6E28F824] (AR v2) Copy OK
Track 4
Filename E:\!Ripped by Andy aka yetiisyou\2000 - Mr. X & Mr. Y - Live From Berlin - 4 Turntables And A Microphone (74321 79247 2)\04. Mr. X & Mr. Y - Back to Berlin.wav
Peak level 84.7 % Extraction speed 5.0 X Track quality 100.0 % Test CRC F9E83983 Copy CRC F9E83983 Accurately ripped (confidence 2) [5A6132DA] (AR v2) Copy OK
Track 5
Filename E:\!Ripped by Andy aka yetiisyou\2000 - Mr. X & Mr. Y - Live From Berlin - 4 Turntables And A Microphone (74321 79247 2)\05. Mr. X & Mr. Y - What's Up at the Brotherfront.wav
Peak level 99.0 % Extraction speed 5.5 X Track quality 100.0 % Test CRC F06A09ED Copy CRC F06A09ED Accurately ripped (confidence 2) [D3C39948] (AR v2) Copy OK
Track 6
Filename E:\!Ripped by Andy aka yetiisyou\2000 - Mr. X & Mr. Y - Live From Berlin - 4 Turntables And A Microphone (74321 79247 2)\06. Mr. X & Mr. Y - Viva La Revolucion (I.C.E.T.).wav
Peak level 99.0 % Extraction speed 6.1 X Track quality 100.0 % Test CRC F06B1197 Copy CRC F06B1197 Accurately ripped (confidence 2) [6E4FF62C] (AR v2) Copy OK
Track 7
Filename E:\!Ripped by Andy aka yetiisyou\2000 - Mr. X & Mr. Y - Live From Berlin - 4 Turntables And A Microphone (74321 79247 2)\07. Mr. X & Mr. Y - New World Order.wav
Peak level 99.0 % Extraction speed 6.6 X Track quality 100.0 % Test CRC 0218500B Copy CRC 0218500B Accurately ripped (confidence 2) [539083FD] (AR v2) Copy OK
Track 8
Filename E:\!Ripped by Andy aka yetiisyou\2000 - Mr. X & Mr. Y - Live From Berlin - 4 Turntables And A Microphone (74321 79247 2)\08. Mr. X & Mr. Y - X on the Beatbox.wav
Peak level 76.8 % Extraction speed 6.5 X Track quality 100.0 % Test CRC 1719A7DE Copy CRC 1719A7DE Accurately ripped (confidence 2) [4AE7BA93] (AR v2) Copy OK
Track 9
Filename E:\!Ripped by Andy aka yetiisyou\2000 - Mr. X & Mr. Y - Live From Berlin - 4 Turntables And A Microphone (74321 79247 2)\09. Mr. X & Mr. Y - Time Tunnel 2000 (TL mix).wav
Peak level 98.9 % Extraction speed 6.9 X Track quality 100.0 % Test CRC 0A838D69 Copy CRC 0A838D69 Accurately ripped (confidence 2) [FE01A869] (AR v2) Copy OK
Track 10
Filename E:\!Ripped by Andy aka yetiisyou\2000 - Mr. X & Mr. Y - Live From Berlin - 4 Turntables And A Microphone (74321 79247 2)\10. Mr. X & Mr. Y - Black You Out.wav
Peak level 99.0 % Extraction speed 7.1 X Track quality 100.0 % Test CRC 3308F1C8 Copy CRC 3308F1C8 Accurately ripped (confidence 2) [BE205B08] (AR v2) Copy OK
Track 11
Filename E:\!Ripped by Andy aka yetiisyou\2000 - Mr. X & Mr. Y - Live From Berlin - 4 Turntables And A Microphone (74321 79247 2)\11. Mr. X & Mr. Y - The Flavour's in the Fat.wav
Peak level 97.9 % Extraction speed 7.1 X Track quality 100.0 % Test CRC 8C8F832A Copy CRC 8C8F832A Accurately ripped (confidence 2) [30C9DA86] (AR v2) Copy OK
Track 12
Filename E:\!Ripped by Andy aka yetiisyou\2000 - Mr. X & Mr. Y - Live From Berlin - 4 Turntables And A Microphone (74321 79247 2)\12. Mr. X & Mr. Y - Night of the Tschuldigungs.wav
Peak level 99.0 % Extraction speed 6.1 X Track quality 99.9 % Test CRC 9C00D6EB Copy CRC 9C00D6EB Accurately ripped (confidence 2) [406CEA1E] (AR v2) Copy OK
Track 13
Filename E:\!Ripped by Andy aka yetiisyou\2000 - Mr. X & Mr. Y - Live From Berlin - 4 Turntables And A Microphone (74321 79247 2)\13. Mr. X & Mr. Y - Free Me.wav
Peak level 79.4 % Extraction speed 7.8 X Track quality 100.0 % Test CRC 09E8659D Copy CRC 09E8659D Accurately ripped (confidence 2) [D7757D02] (AR v2) Copy OK
All tracks accurately ripped
No errors occurred
End of status report
---- CUETools DB Plugin V2.1.6
[CTDB TOCID: tNswPBFhiCnT1kXKkUJabKLWDFA-] foundSubmit result: tNswPBFhiCnT1kXKkUJabKLWDFA- has been confirmedTrack | CTDB Status 1 | (8/8) Accurately ripped 2 | (8/8) Accurately ripped 3 | (8/8) Accurately ripped 4 | (8/8) Accurately ripped 5 | (8/8) Accurately ripped 6 | (8/8) Accurately ripped 7 | (8/8) Accurately ripped 8 | (8/8) Accurately ripped 9 | (8/8) Accurately ripped 10 | (8/8) Accurately ripped 11 | (8/8) Accurately ripped 12 | (8/8) Accurately ripped 13 | (8/8) Accurately ripped
==== Log checksum 0E710506180AFDFFCA357EC2AE1F665F73702B803A16A5F5ADC11CD8863F3643 ====

cue

REM DATE 2000REM DISCID A60F8B0DREM COMMENT "ExactAudioCopy v1.3"PERFORMER "Mr. X & Mr. Y"TITLE "Live From Berlin: 4 Turntables and a Microphone"REM COMPOSER ""FILE "01. Mr. X & Mr. Y - Rock the House (intro).wav" WAVE TRACK 01 AUDIO TITLE "Rock the House (intro)" PERFORMER "Mr. X & Mr. Y" REM COMPOSER "" ISRC DEE190000130 PREGAP 00:00:32 INDEX 01 00:00:00FILE "02. Mr. X & Mr. Y - Global Players (My Name Is Techno).wav" WAVE TRACK 02 AUDIO TITLE "Global Players (My Name Is Techno)" PERFORMER "Mr. X & Mr. Y" REM COMPOSER "" ISRC DEE190000131 INDEX 01 00:00:00FILE "03. Mr. X & Mr. Y - 1956.wav" WAVE TRACK 03 AUDIO TITLE "1956" PERFORMER "Mr. X & Mr. Y" REM COMPOSER "" ISRC DEE190000132 INDEX 01 00:00:00FILE "04. Mr. X & Mr. Y - Back to Berlin.wav" WAVE TRACK 04 AUDIO TITLE "Back to Berlin" PERFORMER "Mr. X & Mr. Y" REM COMPOSER "" ISRC DEE190000133 INDEX 01 00:00:00FILE "05. Mr. X & Mr. Y - What's Up at the Brotherfront.wav" WAVE TRACK 05 AUDIO TITLE "What's Up at the Brotherfront" PERFORMER "Mr. X & Mr. Y" REM COMPOSER "" ISRC DEE190000143 INDEX 01 00:00:00FILE "06. Mr. X & Mr. Y - Viva La Revolucion (I.C.E.T.).wav" WAVE TRACK 06 AUDIO TITLE "Viva La Revolucion (I.C.E.T.)" PERFORMER "Mr. X & Mr. Y" REM COMPOSER "" ISRC DEE190000134 INDEX 01 00:00:00FILE "07. Mr. X & Mr. Y - New World Order.wav" WAVE TRACK 07 AUDIO TITLE "New World Order" PERFORMER "Mr. X & Mr. Y" REM COMPOSER "" ISRC DEE190000135 INDEX 01 00:00:00FILE "08. Mr. X & Mr. Y - X on the Beatbox.wav" WAVE TRACK 08 AUDIO TITLE "X on the Beatbox" PERFORMER "Mr. X & Mr. Y" REM COMPOSER "" ISRC DEE190000136 INDEX 01 00:00:00FILE "09. Mr. X & Mr. Y - Time Tunnel 2000 (TL mix).wav" WAVE TRACK 09 AUDIO TITLE "Time Tunnel 2000 (TL mix)" PERFORMER "Mr. X & Mr. Y" REM COMPOSER "" ISRC DEE190000137 INDEX 01 00:00:00FILE "10. Mr. X & Mr. Y - Black You Out.wav" WAVE TRACK 10 AUDIO TITLE "Black You Out" PERFORMER "Mr. X & Mr. Y" REM COMPOSER "" ISRC DEE190000138 INDEX 01 00:00:00FILE "11. Mr. X & Mr. Y - The Flavour's in the Fat.wav" WAVE TRACK 11 AUDIO TITLE "The Flavour's in the Fat" PERFORMER "Mr. X & Mr. Y" REM COMPOSER "" ISRC DEE190000139 INDEX 01 00:00:00FILE "12. Mr. X & Mr. Y - Night of the Tschuldigungs.wav" WAVE TRACK 12 AUDIO TITLE "Night of the Tschuldigungs" PERFORMER "Mr. X & Mr. Y" REM COMPOSER "" ISRC DEE190000140 INDEX 01 00:00:00FILE "13. Mr. X & Mr. Y - Free Me.wav" WAVE TRACK 13 AUDIO TITLE "Free Me" PERFORMER "Mr. X & Mr. Y" REM COMPOSER "" ISRC DEE190000141 INDEX 01 00:00:00

2000 - Live From Berlin - 4 Turntables And A Microphone (+3 bonus tracks) (UA Edition)


Жанр: Techno, Electro
Продолжительность: 78m 44s
01 - Rock the House (Intro)* [01:21]
02 - Global Players (My Name Is Techno) [06:05]
03 - 1956 [04:11]
04 - Back To Berlin [05:02]
05 - What`s Up At the Brotherfront [06:36]
06 - Viva La Revolucion (I.C.E.T.) [07:05]
07 - New World Order [08:17]
08 - X On the Box [03:58]
09 - Time Tunnel 2000 (TL mix) [04:51]
10 - Black You Out [05:15]
11 - The Flavour's In the Fat [03:49]
12 - Night of the Tschuldigungs [04:20]
13 - Free Me [05:21]
14 - Scratch In My Pocket (bonus) [04:23]
15 - Three Midget Sushi Chefs (bonus) [03:37]
16 - X & Y Theme (bonus) [04:23]

Log

Exact Audio Copy V0.99 prebeta 5 from 4. May 2009
EAC extraction logfile from 13. June 2010, 16:29
Unknown Artist / Unknown Title
Used drive : ASUS DRW-1608P3S Adapter: 3 ID: 0
Read mode : SecureUtilize accurate stream : YesDefeat audio cache : YesMake use of C2 pointers : No
Read offset correction : 48Overread into Lead-In and Lead-Out : NoFill up missing offset samples with silence : YesDelete leading and trailing silent blocks : NoNull samples used in CRC calculations : YesUsed interface : Installed external ASPI interfaceGap handling : Appended to previous track
Used output format : User Defined EncoderSelected bitrate : 128 kBit/sQuality : HighAdd ID3 tag : NoCommand line compressor : C:\Program Files\FLAC\flac.exeAdditional command line options : -5 -V -T "ARTIST=%a" -T "TITLE=%t" -T "ALBUM=%g" -T "DATE=%y" -T "TRACKNUMBER=%n" -T "GENRE=%m" -T "COMMENT=Ripped by browndj" %s
TOC of the extracted CD
Track | Start | Length | Start sector | End sector --------------------------------------------------------- 1 | 0:00.00 | 1:21.73 | 0 | 6147 2 | 1:21.73 | 6:05.32 | 6148 | 33554 3 | 7:27.30 | 4:11.58 | 33555 | 52437 4 | 11:39.13 | 5:02.52 | 52438 | 75139 5 | 16:41.65 | 6:36.33 | 75140 | 104872 6 | 23:18.23 | 7:05.10 | 104873 | 136757 7 | 30:23.33 | 8:17.70 | 136758 | 174102 8 | 38:41.28 | 3:58.45 | 174103 | 191997 9 | 42:39.73 | 4:51.42 | 191998 | 213864 10 | 47:31.40 | 5:15.48 | 213865 | 237537 11 | 52:47.13 | 3:49.62 | 237538 | 254774 12 | 56:37.00 | 4:20.68 | 254775 | 274342 13 | 60:57.68 | 5:21.45 | 274343 | 298462 14 | 66:19.38 | 4:23.23 | 298463 | 318210 15 | 70:42.61 | 3:37.47 | 318211 | 334532 16 | 74:20.33 | 4:23.50 | 334533 | 354307
Track 1
Filename F:\РАЗДАЧИ\MR.X & MR.Y - Live From Berlin\01 - Unknown Artist - Rock the House (Intro)x.wav
Pre-gap length 0:00:02.00
Peak level 74.8 % Track quality 100.0 % Test CRC 91ADE164 Copy CRC 91ADE164 Track not present in AccurateRip database Copy OK
Track 2
Filename F:\РАЗДАЧИ\MR.X & MR.Y - Live From Berlin\02 - Unknown Artist - Global Players (My Name Is Techno).wav
Peak level 99.0 % Track quality 100.0 % Test CRC 86053B69 Copy CRC 86053B69 Track not present in AccurateRip database Copy OK
Track 3
Filename F:\РАЗДАЧИ\MR.X & MR.Y - Live From Berlin\03 - Unknown Artist - 1956.wav
Peak level 99.0 % Track quality 100.0 % Test CRC B5AC14E3 Copy CRC B5AC14E3 Track not present in AccurateRip database Copy OK
Track 4
Filename F:\РАЗДАЧИ\MR.X & MR.Y - Live From Berlin\04 - Unknown Artist - Back To Berlin.wav
Peak level 84.7 % Track quality 100.0 % Test CRC 923FF57F Copy CRC 923FF57F Track not present in AccurateRip database Copy OK
Track 5
Filename F:\РАЗДАЧИ\MR.X & MR.Y - Live From Berlin\05 - Unknown Artist - What`s Up At the Brotherfront.wav
Peak level 99.0 % Track quality 100.0 % Test CRC 0B42C76E Copy CRC 0B42C76E Track not present in AccurateRip database Copy OK
Track 6
Filename F:\РАЗДАЧИ\MR.X & MR.Y - Live From Berlin\06 - Unknown Artist - Viva La Revolucion (I.C.E.T.).wav
Peak level 99.0 % Track quality 100.0 % Test CRC 33E3A1BA Copy CRC 33E3A1BA Track not present in AccurateRip database Copy OK
Track 7
Filename F:\РАЗДАЧИ\MR.X & MR.Y - Live From Berlin\07 - Unknown Artist - New World Order.wav
Peak level 99.0 % Track quality 100.0 % Test CRC 7F8CD2DC Copy CRC 7F8CD2DC Track not present in AccurateRip database Copy OK
Track 8
Filename F:\РАЗДАЧИ\MR.X & MR.Y - Live From Berlin\08 - Unknown Artist - X On the Box.wav
Peak level 76.8 % Track quality 100.0 % Test CRC E2EBF6D6 Copy CRC E2EBF6D6 Track not present in AccurateRip database Copy OK
Track 9
Filename F:\РАЗДАЧИ\MR.X & MR.Y - Live From Berlin\09 - Unknown Artist - Time Tunnel 2000 (TL mix).wav
Peak level 98.9 % Track quality 99.9 % Test CRC 5467403B Copy CRC 5467403B Track not present in AccurateRip database Copy OK
Track 10
Filename F:\РАЗДАЧИ\MR.X & MR.Y - Live From Berlin\10 - Unknown Artist - Black You Out.wav
Peak level 99.0 % Track quality 100.0 % Test CRC D0EA4566 Copy CRC D0EA4566 Track not present in AccurateRip database Copy OK
Track 11
Filename F:\РАЗДАЧИ\MR.X & MR.Y - Live From Berlin\11 - Unknown Artist - The Flavour's In the Fat.wav
Peak level 97.9 % Track quality 100.0 % Test CRC F7EF3806 Copy CRC F7EF3806 Track not present in AccurateRip database Copy OK
Track 12
Filename F:\РАЗДАЧИ\MR.X & MR.Y - Live From Berlin\12 - Unknown Artist - Night of the Tschuldigungs.wav
Peak level 99.0 % Track quality 100.0 % Test CRC D245B1DF Copy CRC D245B1DF Track not present in AccurateRip database Copy OK
Track 13
Filename F:\РАЗДАЧИ\MR.X & MR.Y - Live From Berlin\13 - Unknown Artist - Free Me.wav
Peak level 79.4 % Track quality 100.0 % Test CRC CC300156 Copy CRC CC300156 Track not present in AccurateRip database Copy OK
Track 14
Filename F:\РАЗДАЧИ\MR.X & MR.Y - Live From Berlin\14 - Unknown Artist - Scratch In My Pocket (bonus).wav
Peak level 99.0 % Track quality 99.9 % Test CRC 8950ECFF Copy CRC 8950ECFF Track not present in AccurateRip database Copy OK
Track 15
Filename F:\РАЗДАЧИ\MR.X & MR.Y - Live From Berlin\15 - Unknown Artist - Three Midget Sushi Chefs (bonus).wav
Peak level 86.5 % Track quality 100.0 % Test CRC 8E88FECF Copy CRC 8E88FECF Track not present in AccurateRip database Copy OK
Track 16
Filename F:\РАЗДАЧИ\MR.X & MR.Y - Live From Berlin\16 - Unknown Artist - X & Y Theme (bonus).wav
Peak level 80.6 % Track quality 99.9 % Test CRC 3AA36A36 Copy CRC 3AA36A36 Track not present in AccurateRip database Copy OK
None of the tracks are present in the AccurateRip database
No errors occurred
End of status report

cue

REM DISCID DE127410REM COMMENT "ExactAudioCopy v0.99pb5"PERFORMER "Mr. X & Mr. Y"TITLE "4 Turntables And A Microphone (+3 bonus tracks)"FILE "01 - Mr. X & Mr. Y - Rock the House (Intro)x.wav" WAVE TRACK 01 AUDIO TITLE "Rock the House (Intro)*" PERFORMER "Mr. X & Mr. Y" INDEX 01 00:00:00FILE "02 - Mr. X & Mr. Y - Global Players (My Name Is Techno).wav" WAVE TRACK 02 AUDIO TITLE "Global Players (My Name Is Techno)" PERFORMER "Mr. X & Mr. Y" INDEX 01 00:00:00FILE "03 - Mr. X & Mr. Y - 1956.wav" WAVE TRACK 03 AUDIO TITLE "1956" PERFORMER "Mr. X & Mr. Y" INDEX 01 00:00:00FILE "04 - Mr. X & Mr. Y - Back To Berlin.wav" WAVE TRACK 04 AUDIO TITLE "Back To Berlin" PERFORMER "Mr. X & Mr. Y" INDEX 01 00:00:00FILE "05 - Mr. X & Mr. Y - What`s Up At the Brotherfront.wav" WAVE TRACK 05 AUDIO TITLE "What`s Up At the Brotherfront " PERFORMER "Mr. X & Mr. Y" INDEX 01 00:00:00FILE "06 - Mr. X & Mr. Y - Viva La Revolucion (I.C.E.T.).wav" WAVE TRACK 06 AUDIO TITLE "Viva La Revolucion (I.C.E.T.)" PERFORMER "Mr. X & Mr. Y" INDEX 01 00:00:00FILE "07 - Mr. X & Mr. Y - New World Order.wav" WAVE TRACK 07 AUDIO TITLE "New World Order" PERFORMER "Mr. X & Mr. Y" INDEX 01 00:00:00FILE "08 - Mr. X & Mr. Y - X On the Box.wav" WAVE TRACK 08 AUDIO TITLE "X On the Box" PERFORMER "Mr. X & Mr. Y" INDEX 01 00:00:00FILE "09 - Mr. X & Mr. Y - Time Tunnel 2000 (TL mix).wav" WAVE TRACK 09 AUDIO TITLE "Time Tunnel 2000 (TL mix)" PERFORMER "Mr. X & Mr. Y" INDEX 01 00:00:00FILE "10 - Mr. X & Mr. Y - Black You Out.wav" WAVE TRACK 10 AUDIO TITLE "Black You Out" PERFORMER "Mr. X & Mr. Y" INDEX 01 00:00:00FILE "11 - Mr. X & Mr. Y - The Flavour's In the Fat.wav" WAVE TRACK 11 AUDIO TITLE "The Flavour's In the Fat " PERFORMER "Mr. X & Mr. Y" INDEX 01 00:00:00FILE "12 - Mr. X & Mr. Y - Night of the Tschuldigungs.wav" WAVE TRACK 12 AUDIO TITLE "Night of the Tschuldigungs" PERFORMER "Mr. X & Mr. Y" INDEX 01 00:00:00FILE "13 - Mr. X & Mr. Y - Free Me.wav" WAVE TRACK 13 AUDIO TITLE "Free Me" PERFORMER "Mr. X & Mr. Y" INDEX 01 00:00:00FILE "14 - Mr. X & Mr. Y - Scratch In My Pocket (bonus).wav" WAVE TRACK 14 AUDIO TITLE "Scratch In My Pocket (bonus)" PERFORMER "Mr. X & Mr. Y" INDEX 01 00:00:00FILE "15 - Mr. X & Mr. Y - Three Midget Sushi Chefs (bonus).wav" WAVE TRACK 15 AUDIO TITLE "Three Midget Sushi Chefs (bonus)" PERFORMER "Mr. X & Mr. Y" INDEX 01 00:00:00FILE "16 - Mr. X & Mr. Y - X & Y Theme (bonus).wav" WAVE TRACK 16 AUDIO TITLE "X & Y Theme (bonus)" PERFORMER "Mr. X & Mr. Y" INDEX 01 00:00:00
Singles1997 - Free Me (Sum Thing 4 Da Brothers) [HYD70270]
Продолжительность: 14:59
01. Mr. X & Mr. Y - Free Me (Sum Thing 4 Da Brothers) (7:27)
02. Mr. X & Mr. Y - Nite Of The Tschuldigungs (7:32)

log and sheetLog

Exact Audio Copy V1.3 from 2. September 2016
EAC extraction logfile from 21. June 2018, 13:35
Mr. X & Mr. Y / Free Me (Sum Thing 4 Da Brothers)
Used drive : ASUS DRW-24B5ST Adapter: 6 ID: 0
Read mode : SecureUtilize accurate stream : YesDefeat audio cache : YesMake use of C2 pointers : No
Read offset correction : 6Overread into Lead-In and Lead-Out : NoFill up missing offset samples with silence : YesDelete leading and trailing silent blocks : NoNull samples used in CRC calculations : YesUsed interface : Installed external ASPI interfaceGap handling : Appended to previous track
Used output format : User Defined EncoderSelected bitrate : 128 kBit/sQuality : HighAdd ID3 tag : NoCommand line compressor : D:\flac-1.3.2-win\win64\flac.exeAdditional command line options : -8 -V -T "ARTIST=%artist%" -T "TITLE=%title%" -T "ALBUM=%albumtitle%" -T "DATE=%year%" -T "TRACKNUMBER=%tracknr%" -T "GENRE=%genre%" -T "COMMENT=ripped by Andy aka yetiisyou" %source%
TOC of the extracted CD
Track | Start | Length | Start sector | End sector --------------------------------------------------------- 1 | 0:00.00 | 7:27.12 | 0 | 33536 2 | 7:27.12 | 7:31.45 | 33537 | 67406
Track 1
Filename E:\!Ripped by Andy aka yetiisyou\Mr. X & Mr. Y - Free Me (Sum Thing 4 Da Brothers) [HYD70270] [1997]\01. Mr. X & Mr. Y - Free Me (Sum Thing 4 Da Brothers).wav
Pre-gap length 0:00:02.00
Peak level 75.3 % Extraction speed 3.3 X Track quality 99.9 % Test CRC 7F548D6B Copy CRC 7F548D6B Track not present in AccurateRip database Copy OK
Track 2
Filename E:\!Ripped by Andy aka yetiisyou\Mr. X & Mr. Y - Free Me (Sum Thing 4 Da Brothers) [HYD70270] [1997]\02. Mr. X & Mr. Y - Nite Of The Tschuldigungs.wav
Pre-gap length 0:00:01.50
Peak level 90.9 % Extraction speed 4.5 X Track quality 100.0 % Test CRC D8DC91FA Copy CRC D8DC91FA Track not present in AccurateRip database Copy OK
None of the tracks are present in the AccurateRip database
No errors occurred
End of status report
---- CUETools DB Plugin V2.1.6
[CTDB TOCID: 5z22p4YB3xG1DjoSKi.tqzZQ7Yg-] disk not present in databaseSubmit result: 5z22p4YB3xG1DjoSKi.tqzZQ7Yg- has been uploaded
==== Log checksum 2D71231409A783681804B027C4B41EF8BFAA41A5D4CB6D7110C005A230E8F044 ====

CUE

REM DATE 1997REM DISCID 13038202REM COMMENT "ExactAudioCopy v1.3"CATALOG 0602507027025PERFORMER "Mr. X & Mr. Y"TITLE "Free Me (Sum Thing 4 Da Brothers)"REM COMPOSER ""FILE "01. Mr. X & Mr. Y - Free Me (Sum Thing 4 Da Brothers).wav" WAVE TRACK 01 AUDIO TITLE "Free Me (Sum Thing 4 Da Brothers)" PERFORMER "Mr. X & Mr. Y" REM COMPOSER "" ISRC DEA859600359 INDEX 01 00:00:00 TRACK 02 AUDIO TITLE "Nite Of The Tschuldigungs" PERFORMER "Mr. X & Mr. Y" REM COMPOSER "" ISRC DEA859600358 INDEX 00 07:25:37FILE "02. Mr. X & Mr. Y - Nite Of The Tschuldigungs.wav" WAVE INDEX 01 00:00:00

1997 - Free Me (74321 53571 2)

Продолжительность: 15:09
01 Free Me (Official Mix) [05:55]
02 Free Me (Freestyle Mix) [05:43]
03 Free Me (short Cut) [03:30]

Log EAC

Exact Audio Copy V1.0 beta 1 from 15. November 2010
EAC extraction logfile from 25. February 2011, 1:05
Mr. X and Mr. Y / Free Me
Used drive : Optiarc DVD RW AD-5200A Adapter: 6 ID: 0
Read mode : SecureUtilize accurate stream : YesDefeat audio cache : YesMake use of C2 pointers : No
Read offset correction : 48Overread into Lead-In and Lead-Out : NoFill up missing offset samples with silence : YesDelete leading and trailing silent blocks : NoNull samples used in CRC calculations : YesUsed interface : Native Win32 interface for Win NT & 2000Gap handling : Appended to previous track
Used output format : User Defined EncoderSelected bitrate : 896 kBit/sQuality : HighAdd ID3 tag : NoCommand line compressor : C:\Program Files (x86)\Exact Audio Copy\Flac\flac.exeAdditional command line options : -5 -V -T "ARTIST=%a" -T "TITLE=%t" -T "ALBUM=%g" -T "DATE=%y" -T "TRACKNUMBER=%n" -T "GENRE=%m" -T "COMMENT=Ripped by Andy aka yetiisyou" %s
TOC of the extracted CD
Track | Start | Length | Start sector | End sector --------------------------------------------------------- 1 | 0:00.32 | 5:55.63 | 32 | 26719 2 | 5:56.20 | 5:43.02 | 26720 | 52446 3 | 11:39.22 | 3:30.35 | 52447 | 68231
Track 1
Filename E:\!Rips\x & y\1997 - Free Me (74321 53571 2)\01 - Free Me (Official Mix).wav
Pre-gap length 0:00:02.42
Peak level 94.2 % Extraction speed 2.5 X Track quality 100.0 % Test CRC 79D6BEBE Copy CRC 79D6BEBE Accurately ripped (confidence 5) [429A7D74] Copy OK
Track 2
Filename E:\!Rips\x & y\1997 - Free Me (74321 53571 2)\02 - Free Me (Freestyle Mix).wav
Pre-gap length 0:00:00.33
Peak level 92.7 % Extraction speed 2.6 X Track quality 99.9 % Test CRC BDDDD35D Copy CRC BDDDD35D Accurately ripped (confidence 5) [9FB8B3D2] Copy OK
Track 3
Filename E:\!Rips\x & y\1997 - Free Me (74321 53571 2)\03 - Free Me (short Cut).wav
Pre-gap length 0:00:00.20
Peak level 99.0 % Extraction speed 2.9 X Track quality 100.0 % Test CRC FD5865F9 Copy CRC FD5865F9 Accurately ripped (confidence 5) [25D3A0AD] Copy OK
All tracks accurately ripped
No errors occurred
End of status report
==== Log checksum 5358FB757A00645010FF59735110B905696D7D7F60E3DA8D9353525A49827676 ====

CUE

REM GENRE OtherREM DATE 1997REM DISCID 1A038D03REM COMMENT "ExactAudioCopy v1.0b1"PERFORMER "Mr. X and Mr. Y"TITLE "Free Me"FILE "01 - Free Me (Official Mix).wav" WAVE TRACK 01 AUDIO TITLE "Free Me (Official Mix)" PERFORMER "Mr. X and Mr. Y" PREGAP 00:00:32 INDEX 01 00:00:00 TRACK 02 AUDIO TITLE "Free Me (Freestyle Mix)" PERFORMER "Mr. X and Mr. Y" INDEX 00 05:55:38FILE "02 - Free Me (Freestyle Mix).wav" WAVE INDEX 01 00:00:00 TRACK 03 AUDIO TITLE "Free Me (short Cut)" PERFORMER "Mr. X and Mr. Y" INDEX 00 05:42:62FILE "03 - Free Me (short Cut).wav" WAVE INDEX 01 00:00:00

1999 - Viva La Revolucion (74321 68589 2)


Жанр: Electro
Продолжительность: 20m 06s
01 - Viva La Revolucion (Short) [03:25]
02 - Viva La Revolucion (Dr. Rhythm's Ghetto Mix) [05:45]
03 - Viva La Revolucion (Extended) [05:21]
04 - Viva La Revolucion (K - Paul's Dark Mix) [05:35]

Extraction Log

Exact Audio Copy V1.3 from 2. September 2016
EAC extraction logfile from 8. October 2017, 21:30
Mr. X & Mr. Y / Viva La Revolucion
Used drive : ASUS SDRW-08D2S-U Adapter: 8 ID: 6
Read mode : SecureUtilize accurate stream : YesDefeat audio cache : YesMake use of C2 pointers : No
Read offset correction : 6Overread into Lead-In and Lead-Out : NoFill up missing offset samples with silence : YesDelete leading and trailing silent blocks : NoNull samples used in CRC calculations : YesUsed interface : Installed external ASPI interfaceGap handling : Appended to previous track
Used output format : User Defined EncoderSelected bitrate : 128 kBit/sQuality : HighAdd ID3 tag : NoCommand line compressor : D:\flac-1.3.2-win\win64\flac.exeAdditional command line options : -8 -V -T "ARTIST=%artist%" -T "TITLE=%title%" -T "ALBUM=%albumtitle%" -T "DATE=%year%" -T "TRACKNUMBER=%tracknr%" -T "GENRE=%genre%" -T "COMMENT=ripped by Andy aka yetiisyou" %source%
TOC of the extracted CD
Track | Start | Length | Start sector | End sector --------------------------------------------------------- 1 | 0:00.32 | 3:25.33 | 32 | 15439 2 | 3:25.65 | 5:45.17 | 15440 | 41331 3 | 9:11.07 | 5:21.25 | 41332 | 65431 4 | 14:32.32 | 5:35.00 | 65432 | 90556
Track 1
Filename E:\!Ripped by Andy aka yetiisyou\1999 - Viva La Revolucion (74321 68589 2)\01. Mr. X & Mr. Y - Viva La Revolucion (Short).wav
Pre-gap length 0:00:02.32
Peak level 95.9 % Extraction speed 1.1 X Track quality 100.0 % Test CRC DB258760 Copy CRC DB258760 Accurately ripped (confidence 3) [BDEE0BAD] (AR v2) Copy OK
Track 2
Filename E:\!Ripped by Andy aka yetiisyou\1999 - Viva La Revolucion (74321 68589 2)\02. Mr. X & Mr. Y - Viva La Revolucion (Dr. Rhythm's Ghetto Mix).wav
Pre-gap length 0:00:01.03
Peak level 77.8 % Extraction speed 1.3 X Track quality 100.0 % Test CRC D4CD499A Copy CRC D4CD499A Accurately ripped (confidence 3) [4CABF5DD] (AR v2) Copy OK
Track 3
Filename E:\!Ripped by Andy aka yetiisyou\1999 - Viva La Revolucion (74321 68589 2)\03. Mr. X & Mr. Y - Viva La Revolucion (Extended).wav
Pre-gap length 0:00:00.72
Peak level 97.0 % Extraction speed 1.3 X Track quality 99.9 % Test CRC D75D8724 Copy CRC D75D8724 Accurately ripped (confidence 3) [49DAD752] (AR v2) Copy OK
Track 4
Filename E:\!Ripped by Andy aka yetiisyou\1999 - Viva La Revolucion (74321 68589 2)\04. Mr. X & Mr. Y - Viva La Revolucion (K-Paul's Dark Mix).wav
Pre-gap length 0:00:01.22
Peak level 95.0 % Extraction speed 1.5 X Track quality 99.9 % Test CRC 80BAF058 Copy CRC 80BAF058 Accurately ripped (confidence 3) [70656AC1] (AR v2) Copy OK
All tracks accurately ripped
No errors occurred
End of status report
---- CUETools DB Plugin V2.1.6
[CTDB TOCID: qbsOP_fVzvlZ2l_LYubWs06G7lU-] foundSubmit result: qbsOP_fVzvlZ2l_LYubWs06G7lU- has been confirmedTrack | CTDB Status 1 | (4/4) Accurately ripped 2 | (4/4) Accurately ripped 3 | (4/4) Accurately ripped 4 | (4/4) Accurately ripped
==== Log checksum 9EFA3B1713220EA84C72545C9954AFCCA12EDBB8B79A56D74C8F2C95579D9BB7 ====

CUE

REM DATE 1999REM DISCID 2B04B704REM COMMENT "ExactAudioCopy v1.3"PERFORMER "Mr. X & Mr. Y"TITLE "Viva La Revolucion"REM COMPOSER ""FILE "01. Mr. X & Mr. Y - Viva La Revolucion (Short).wav" WAVE TRACK 01 AUDIO TITLE "Viva La Revolucion (Short)" PERFORMER "Mr. X & Mr. Y" REM COMPOSER "" ISRC DEE199900098 PREGAP 00:00:32 INDEX 01 00:00:00 TRACK 02 AUDIO TITLE "Viva La Revolucion (Dr. Rhythm's Ghetto Mix)" PERFORMER "Mr. X & Mr. Y" REM COMPOSER "" ISRC DEE199900080 INDEX 00 03:24:30FILE "02. Mr. X & Mr. Y - Viva La Revolucion (Dr. Rhythm's Ghetto Mix).wav" WAVE INDEX 01 00:00:00 TRACK 03 AUDIO TITLE "Viva La Revolucion (Extended)" PERFORMER "Mr. X & Mr. Y" REM COMPOSER "" ISRC DEE199900045 INDEX 00 05:44:20FILE "03. Mr. X & Mr. Y - Viva La Revolucion (Extended).wav" WAVE INDEX 01 00:00:00 TRACK 04 AUDIO TITLE "Viva La Revolucion (K-Paul's Dark Mix)" PERFORMER "Mr. X & Mr. Y" REM COMPOSER "" ISRC DEE199900099 INDEX 00 05:20:03FILE "04. Mr. X & Mr. Y - Viva La Revolucion (K-Paul's Dark Mix).wav" WAVE INDEX 01 00:00:00

1999 - What's up at the Brotherfront (74321 70679 2)


Жанр: Electro
Продолжительность: 16m 04s
01 - Extended [06:02]
02 - Club Mix [06:36]
03 - Short [03:25]

Extraction Log

Exact Audio Copy V1.3 from 2. September 2016
EAC extraction logfile from 8. October 2017, 21:18
Mr. X & Mr. Y / What's Up At The Brotherfront
Used drive : ASUS DRW-24B5ST Adapter: 6 ID: 0
Read mode : SecureUtilize accurate stream : YesDefeat audio cache : YesMake use of C2 pointers : No
Read offset correction : 6Overread into Lead-In and Lead-Out : NoFill up missing offset samples with silence : YesDelete leading and trailing silent blocks : NoNull samples used in CRC calculations : YesUsed interface : Installed external ASPI interfaceGap handling : Appended to previous track
Used output format : User Defined EncoderSelected bitrate : 128 kBit/sQuality : HighAdd ID3 tag : NoCommand line compressor : D:\flac-1.3.2-win\win64\flac.exeAdditional command line options : -8 -V -T "ARTIST=%artist%" -T "TITLE=%title%" -T "ALBUM=%albumtitle%" -T "DATE=%year%" -T "TRACKNUMBER=%tracknr%" -T "GENRE=%genre%" -T "COMMENT=ripped by Andy aka yetiisyou" %source%
TOC of the extracted CD
Track | Start | Length | Start sector | End sector --------------------------------------------------------- 1 | 0:00.32 | 6:02.58 | 32 | 27239 2 | 6:03.15 | 6:36.22 | 27240 | 56961 3 | 12:39.37 | 3:25.70 | 56962 | 72406
Track 1
Filename E:\!Ripped by Andy aka yetiisyou\1999 - What's up at the Brotherfront (74321 70679 2)\01. Mr. X & Mr. Y - What's Up At The Brotherfront (Extended).wav
Pre-gap length 0:00:02.32
Peak level 97.5 % Extraction speed 5.5 X Track quality 100.0 % Test CRC 92698708 Copy CRC 92698708 Accurately ripped (confidence 4) [5333C84E] (AR v2) Copy OK
Track 2
Filename E:\!Ripped by Andy aka yetiisyou\1999 - What's up at the Brotherfront (74321 70679 2)\02. Mr. X & Mr. Y - What's Up At The Brotherfront (Club Mix).wav
Pre-gap length 0:00:02.20
Peak level 96.1 % Extraction speed 6.5 X Track quality 100.0 % Test CRC 8D8B44E9 Copy CRC 8D8B44E9 Accurately ripped (confidence 4) [DE5A0BA2] (AR v2) Copy OK
Track 3
Filename E:\!Ripped by Andy aka yetiisyou\1999 - What's up at the Brotherfront (74321 70679 2)\03. Mr. X & Mr. Y - What's Up At The Brotherfront (Short).wav
Pre-gap length 0:00:01.50
Peak level 96.9 % Extraction speed 6.6 X Track quality 100.0 % Test CRC 5DCFA602 Copy CRC 5DCFA602 Accurately ripped (confidence 4) [60B38851] (AR v2) Copy OK
All tracks accurately ripped
No errors occurred
End of status report
---- CUETools DB Plugin V2.1.6
[CTDB TOCID: s.z8EvMJ5041JhT1E1ndu0TUsaM-] foundSubmit result: s.z8EvMJ5041JhT1E1ndu0TUsaM- has been confirmedTrack | CTDB Status 1 | (5/5) Accurately ripped 2 | (5/5) Accurately ripped 3 | (5/5) Accurately ripped
==== Log checksum C9FA821129105FB4CDBA2285355FFFD8390A6B7E1739B7E4DAAB1F0DE489D7F7 ====

CUE

REM DATE 1998REM DISCID 1E03C503REM COMMENT "ExactAudioCopy v1.3"PERFORMER "Mr. X & Mr. Y"TITLE "What's Up At The Brotherfront"REM COMPOSER ""FILE "01. Mr. X & Mr. Y - What's Up At The Brotherfront (Extended).wav" WAVE TRACK 01 AUDIO TITLE "What's Up At The Brotherfront (Extended)" PERFORMER "Mr. X & Mr. Y" REM COMPOSER "" ISRC DEE199900142 PREGAP 00:00:32 INDEX 01 00:00:00 TRACK 02 AUDIO TITLE "What's Up At The Brotherfront (Club Mix)" PERFORMER "Mr. X & Mr. Y" REM COMPOSER "" ISRC DEE199900143 INDEX 00 06:00:38FILE "02. Mr. X & Mr. Y - What's Up At The Brotherfront (Club Mix).wav" WAVE INDEX 01 00:00:00 TRACK 03 AUDIO TITLE "What's Up At The Brotherfront (Short)" PERFORMER "Mr. X & Mr. Y" REM COMPOSER "" ISRC DEE199900125 INDEX 00 06:34:47FILE "03. Mr. X & Mr. Y - What's Up At The Brotherfront (Short).wav" WAVE INDEX 01 00:00:00

1999 - New World Order (Maxi Single) (74321 64859 2)

Продолжительность:29 min 52 sec
1. Mr.X & Mr.Y - New World Order (Short Mix) (3:34)
2. Mr.X & Mr.Y - New World Order (Dr. Rhythm's Trance Hop Mix) (5:51)
3. Mr.X & Mr.Y - New World Order (Original Club Mix) (6:01)
4. Mr.X & Mr.Y - New World Order (Storm Mix) (7:33)
5. Mr.X & Mr.Y - New World Order (Flim Flam Mix) (6:53)

Extraction Log

Exact Audio Copy V1.3 from 2. September 2016
EAC extraction logfile from 8. October 2017, 21:09
Mr. X & Mr. Y / New World Order
Used drive : ASUS DRW-24B5ST Adapter: 6 ID: 0
Read mode : SecureUtilize accurate stream : YesDefeat audio cache : YesMake use of C2 pointers : No
Read offset correction : 6Overread into Lead-In and Lead-Out : NoFill up missing offset samples with silence : YesDelete leading and trailing silent blocks : NoNull samples used in CRC calculations : YesUsed interface : Installed external ASPI interfaceGap handling : Appended to previous track
Used output format : User Defined EncoderSelected bitrate : 128 kBit/sQuality : HighAdd ID3 tag : NoCommand line compressor : D:\flac-1.3.2-win\win64\flac.exeAdditional command line options : -8 -V -T "ARTIST=%artist%" -T "TITLE=%title%" -T "ALBUM=%albumtitle%" -T "DATE=%year%" -T "TRACKNUMBER=%tracknr%" -T "GENRE=%genre%" -T "COMMENT=ripped by Andy aka yetiisyou" %source%
TOC of the extracted CD
Track | Start | Length | Start sector | End sector --------------------------------------------------------- 1 | 0:00.32 | 3:34.25 | 32 | 16106 2 | 3:34.57 | 5:51.50 | 16107 | 42481 3 | 9:26.32 | 6:01.38 | 42482 | 69594 4 | 15:27.70 | 7:33.50 | 69595 | 103619 5 | 23:01.45 | 6:53.00 | 103620 | 134594
Track 1
Filename E:\!Ripped by Andy aka yetiisyou\1999 - New World Order (Maxi Single) (74321 64859 2)\01. Mr. X & Mr. Y - New World Order (short mix).wav
Pre-gap length 0:00:02.32
Peak level 99.0 % Extraction speed 5.0 X Track quality 100.0 % Test CRC 4423D31B Copy CRC 4423D31B Accurately ripped (confidence 5) [FB7B0B08] (AR v2) Copy OK
Track 2
Filename E:\!Ripped by Andy aka yetiisyou\1999 - New World Order (Maxi Single) (74321 64859 2)\02. Mr. X & Mr. Y - New World Order (Dr. Rhythm's Trance Hop mix).wav
Pre-gap length 0:00:00.07
Peak level 99.0 % Extraction speed 6.0 X Track quality 100.0 % Test CRC F66EA857 Copy CRC F66EA857 Accurately ripped (confidence 5) [BDB2B803] (AR v2) Copy OK
Track 3
Filename E:\!Ripped by Andy aka yetiisyou\1999 - New World Order (Maxi Single) (74321 64859 2)\03. Mr. X & Mr. Y - New World Order (original club mix).wav
Pre-gap length 0:00:00.25
Peak level 99.0 % Extraction speed 6.0 X Track quality 99.9 % Test CRC E7892A2A Copy CRC E7892A2A Accurately ripped (confidence 5) [54073FF6] (AR v2) Copy OK
Track 4
Filename E:\!Ripped by Andy aka yetiisyou\1999 - New World Order (Maxi Single) (74321 64859 2)\04. Mr. X & Mr. Y - New World Order (Storm mix).wav
Pre-gap length 0:00:00.08
Peak level 80.6 % Extraction speed 7.7 X Track quality 100.0 % Test CRC 21106F52 Copy CRC 21106F52 Accurately ripped (confidence 5) [7BDE2551] (AR v2) Copy OK
Track 5
Filename E:\!Ripped by Andy aka yetiisyou\1999 - New World Order (Maxi Single) (74321 64859 2)\05. Mr. X & Mr. Y - New World Order (Flim Flam mix).wav
Pre-gap length 0:00:00.60
Peak level 78.2 % Extraction speed 7.4 X Track quality 99.9 % Test CRC 2EBBDC86 Copy CRC 2EBBDC86 Accurately ripped (confidence 5) [7266124B] (AR v2) Copy OK
All tracks accurately ripped
No errors occurred
End of status report
---- CUETools DB Plugin V2.1.6
[CTDB TOCID: 6V6pDxZdjABnwER_30iBJZ_bWMs-] foundSubmit result: 6V6pDxZdjABnwER_30iBJZ_bWMs- has been confirmedTrack | CTDB Status 1 | (29/29) Accurately ripped 2 | (29/29) Accurately ripped 3 | (29/29) Accurately ripped 4 | (29/29) Accurately ripped 5 | (29/29) Accurately ripped
==== Log checksum 52C7C168B12BCBCFE71BFB8A032254A3244C36EA252871FD253630FFEF39F2CF ====

CUE

REM DATE 1999REM DISCID 41070205REM COMMENT "ExactAudioCopy v1.3"PERFORMER "Mr. X & Mr. Y"TITLE "New World Order"REM COMPOSER ""FILE "01. Mr. X & Mr. Y - New World Order (short mix).wav" WAVE TRACK 01 AUDIO TITLE "New World Order (short mix)" PERFORMER "Mr. X & Mr. Y" REM COMPOSER "" ISRC DEE199900064 PREGAP 00:00:32 INDEX 01 00:00:00 TRACK 02 AUDIO TITLE "New World Order (Dr. Rhythm's Trance Hop mix)" PERFORMER "Mr. X & Mr. Y" REM COMPOSER "" ISRC DEE199900055 INDEX 00 03:34:18FILE "02. Mr. X & Mr. Y - New World Order (Dr. Rhythm's Trance Hop mix).wav" WAVE INDEX 01 00:00:00 TRACK 03 AUDIO TITLE "New World Order (original club mix)" PERFORMER "Mr. X & Mr. Y" REM COMPOSER "" ISRC DEE199900065 INDEX 00 05:51:25FILE "03. Mr. X & Mr. Y - New World Order (original club mix).wav" WAVE INDEX 01 00:00:00 TRACK 04 AUDIO TITLE "New World Order (Storm mix)" PERFORMER "Mr. X & Mr. Y" REM COMPOSER "" ISRC DEE199900056 INDEX 00 06:01:30FILE "04. Mr. X & Mr. Y - New World Order (Storm mix).wav" WAVE INDEX 01 00:00:00 TRACK 05 AUDIO TITLE "New World Order (Flim Flam mix)" PERFORMER "Mr. X & Mr. Y" REM COMPOSER "" ISRC DEE199900057 INDEX 00 07:32:65FILE "05. Mr. X & Mr. Y - New World Order (Flim Flam mix).wav" WAVE INDEX 01 00:00:00

1999 - New World Order (Maxi Single) (74321 64859 2) 4 track's edition

Продолжительность: 16:49
01 New World Order [06:12]
02 New World Order (Instrumental) [05:37]
03 New World Order (Accapella) [01:19]
04 New World Order (Short) [03:40]

Log EAC

Exact Audio Copy V1.0 beta 1 from 15. November 2010
EAC extraction logfile from 24. February 2011, 20:53
Mr. X & Mr. Y / New World Order
Used drive : Optiarc DVD RW AD-5200A Adapter: 6 ID: 0
Read mode : SecureUtilize accurate stream : YesDefeat audio cache : YesMake use of C2 pointers : No
Read offset correction : 48Overread into Lead-In and Lead-Out : NoFill up missing offset samples with silence : YesDelete leading and trailing silent blocks : NoNull samples used in CRC calculations : YesUsed interface : Native Win32 interface for Win NT & 2000Gap handling : Appended to previous track
Used output format : User Defined EncoderSelected bitrate : 896 kBit/sQuality : HighAdd ID3 tag : NoCommand line compressor : C:\Program Files (x86)\Exact Audio Copy\Flac\flac.exeAdditional command line options : -5 -V -T "ARTIST=%a" -T "TITLE=%t" -T "ALBUM=%g" -T "DATE=%y" -T "TRACKNUMBER=%n" -T "GENRE=%m" -T "COMMENT=Ripped by Andy aka yetiisyou" %s
TOC of the extracted CD
Track | Start | Length | Start sector | End sector --------------------------------------------------------- 1 | 0:00.32 | 6:12.43 | 32 | 27974 2 | 6:13.00 | 5:37.22 | 27975 | 53271 3 | 11:50.22 | 1:19.10 | 53272 | 59206 4 | 13:09.32 | 3:40.38 | 59207 | 75744
Track 1
Filename E:\!Rips\x & y\1999 - New World Order (Maxi Single) (74321 64859 2) 4 track's edition\01 - New World Order.wav
Pre-gap length 0:00:02.42
Peak level 99.0 % Extraction speed 2.3 X Track quality 99.9 % Test CRC 679F6258 Copy CRC 679F6258 Cannot be verified as accurate (confidence 1) [05D7C255], AccurateRip returned [B528A5AA] Copy OK
Track 2
Filename E:\!Rips\x & y\1999 - New World Order (Maxi Single) (74321 64859 2) 4 track's edition\02 - New World Order (Instrumental).wav
Pre-gap length 0:00:00.73
Peak level 99.0 % Extraction speed 2.9 X Track quality 100.0 % Test CRC A20FE03F Copy CRC A20FE03F Track not present in AccurateRip database Copy OK
Track 3
Filename E:\!Rips\x & y\1999 - New World Order (Maxi Single) (74321 64859 2) 4 track's edition\03 - New World Order (Accapella).wav
Pre-gap length 0:00:01.20
Peak level 44.4 % Extraction speed 2.3 X Track quality 100.0 % Test CRC 37B0A61F Copy CRC 37B0A61F Track not present in AccurateRip database Copy OK
Track 4
Filename E:\!Rips\x & y\1999 - New World Order (Maxi Single) (74321 64859 2) 4 track's edition\04 - New World Order (Short).wav
Pre-gap length 0:00:00.82
Peak level 99.0 % Extraction speed 2.7 X Track quality 99.9 % Test CRC CDF7F43E Copy CRC CDF7F43E Track not present in AccurateRip database Copy OK
1 track(s) could not be verified as accurate 3 track(s) not present in the AccurateRip database
No tracks could be verified as accurateYou may have a different pressing from the one(s) in the database
No errors occurred
End of status report
==== Log checksum 1F7A604E16E64D41C8E92067622CA31D382C3450279E0E2DCEC2C07FE31040C1 ====

CUE

REM GENRE ElectroREM DATE 1997REM DISCID 2C03F104REM COMMENT "ExactAudioCopy v1.0b1"PERFORMER "Mr. X & Mr. Y"TITLE "New World Order"FILE "01 - New World Order.wav" WAVE TRACK 01 AUDIO TITLE "New World Order" PERFORMER "Mr. X & Mr. Y" PREGAP 00:00:32 INDEX 01 00:00:00 TRACK 02 AUDIO TITLE "New World Order (Instrumental)" PERFORMER "Mr. X & Mr. Y" INDEX 00 06:11:63FILE "02 - New World Order (Instrumental).wav" WAVE INDEX 01 00:00:00 TRACK 03 AUDIO TITLE "New World Order (Accapella)" PERFORMER "Mr. X & Mr. Y" INDEX 00 05:36:07FILE "03 - New World Order (Accapella).wav" WAVE INDEX 01 00:00:00 TRACK 04 AUDIO TITLE "New World Order (Short)" PERFORMER "Mr. X & Mr. Y" INDEX 00 01:18:23FILE "04 - New World Order (Short).wav" WAVE INDEX 01 00:00:00

2000 - Global players (My Name Is Techno) (74321 77967 2)

Продолжительность: 36 min 23 sec
01 - Global Players [My Name Is Techno] (Extended) [06:37]
02 - Global Players [My Name Is Techno] (Beroshima Remix) [05:49]
03 - Global Players [My Name Is Techno] (Autotune Remix) [04:55]
04 - Global Players [My Name Is Techno] (Raver's Nature Remix) [06:02]
05 - Global Players [My Name Is Techno] (DJ Dero's Technoelectro Mix) [04:23]
06 - Global Players [My Name Is Techno] (DJ Rok's Darkroom Mix) [05:07]
07 - Global Players [My Name Is Techno] (Short) [03:30]
Примечание: сд выходил в "серыми" и с "розовыми" коврами. Однако содержимое сд абсолютно одинаковое. (срс\кат номера)
Я оставил рип со своего серого сд, оставив обложки в раздаче двух вариантов.

Log

Exact Audio Copy V1.3 from 2. September 2016
EAC extraction logfile from 8. October 2017, 21:34
Mr.X & Mr.Y / Global Players [My Name Is Techno] (Maxi Single)
Used drive : ASUS DRW-24B5ST Adapter: 6 ID: 0
Read mode : SecureUtilize accurate stream : YesDefeat audio cache : YesMake use of C2 pointers : No
Read offset correction : 6Overread into Lead-In and Lead-Out : NoFill up missing offset samples with silence : YesDelete leading and trailing silent blocks : NoNull samples used in CRC calculations : YesUsed interface : Installed external ASPI interfaceGap handling : Appended to previous track
Used output format : User Defined EncoderSelected bitrate : 128 kBit/sQuality : HighAdd ID3 tag : NoCommand line compressor : D:\flac-1.3.2-win\win64\flac.exeAdditional command line options : -8 -V -T "ARTIST=%artist%" -T "TITLE=%title%" -T "ALBUM=%albumtitle%" -T "DATE=%year%" -T "TRACKNUMBER=%tracknr%" -T "GENRE=%genre%" -T "COMMENT=ripped by Andy aka yetiisyou" %source%
TOC of the extracted CD
Track | Start | Length | Start sector | End sector --------------------------------------------------------- 1 | 0:00.00 | 6:37.70 | 0 | 29844 2 | 6:37.70 | 5:49.58 | 29845 | 56077 3 | 12:27.53 | 4:55.62 | 56078 | 78264 4 | 17:23.40 | 6:02.43 | 78265 | 105457 5 | 23:26.08 | 4:23.67 | 105458 | 125249 6 | 27:50.00 | 5:07.63 | 125250 | 148337 7 | 32:57.63 | 3:30.12 | 148338 | 164099 8 | 39:00.00 | 8:49.07 | 175500 | 215181
Track 1
Filename E:\!Ripped by Andy aka yetiisyou\2000 - Global players (my name is techno) (74321 77967 2)\01. Mr.X & Mr.Y - Global Players [My Name Is Techno] (Extended).wav
Pre-gap length 0:00:02.00
Peak level 99.0 % Extraction speed 5.6 X Track quality 100.0 % Test CRC 9653B84B Copy CRC 9653B84B Accurately ripped (confidence 4) [1D746977] (AR v2) Copy OK
Track 2
Filename E:\!Ripped by Andy aka yetiisyou\2000 - Global players (my name is techno) (74321 77967 2)\02. Mr.X & Mr.Y - Global Players [My Name Is Techno] (Beroshima Remix).wav
Pre-gap length 0:00:00.37
Peak level 78.1 % Extraction speed 6.4 X Track quality 100.0 % Test CRC 00C6D662 Copy CRC 00C6D662 Accurately ripped (confidence 4) [64E1BA4D] (AR v2) Copy OK
Track 3
Filename E:\!Ripped by Andy aka yetiisyou\2000 - Global players (my name is techno) (74321 77967 2)\03. Mr.X & Mr.Y - Global Players [My Name Is Techno] (Autotune Remix).wav
Pre-gap length 0:00:00.25
Peak level 99.0 % Extraction speed 5.9 X Track quality 99.9 % Test CRC 589E7AF8 Copy CRC 589E7AF8 Accurately ripped (confidence 3) [F8646836] (AR v2) Copy OK
Track 4
Filename E:\!Ripped by Andy aka yetiisyou\2000 - Global players (my name is techno) (74321 77967 2)\04. Mr.X & Mr.Y - Global Players [My Name Is Techno] (Raver's Nature Remix).wav
Pre-gap length 0:00:00.25
Peak level 99.0 % Extraction speed 7.7 X Track quality 100.0 % Test CRC 39EA6308 Copy CRC 39EA6308 Accurately ripped (confidence 3) [D48FC1C6] (AR v2) Copy OK
Track 5
Filename E:\!Ripped by Andy aka yetiisyou\2000 - Global players (my name is techno) (74321 77967 2)\05. Mr.X & Mr.Y - Global Players [My Name Is Techno] (DJ Dero's Technoelectro Mix).wav
Pre-gap length 0:00:01.00
Peak level 70.6 % Extraction speed 7.9 X Track quality 100.0 % Test CRC F3FDF4E7 Copy CRC F3FDF4E7 Accurately ripped (confidence 4) [6294951A] (AR v2) Copy OK
Track 6
Filename E:\!Ripped by Andy aka yetiisyou\2000 - Global players (my name is techno) (74321 77967 2)\06. Mr.X & Mr.Y - Global Players [My Name Is Techno] (DJ Rok's Darkroom Mix).wav
Pre-gap length 0:00:00.50
Peak level 80.9 % Extraction speed 8.5 X Track quality 100.0 % Test CRC 6D1D9EC7 Copy CRC 6D1D9EC7 Accurately ripped (confidence 3) [1FE341F9] (AR v2) Copy OK
Track 7
Filename E:\!Ripped by Andy aka yetiisyou\2000 - Global players (my name is techno) (74321 77967 2)\07. Mr.X & Mr.Y - Global Players [My Name Is Techno] (Short).wav
Pre-gap length 0:00:00.38
Peak level 99.0 % Extraction speed 6.9 X Track quality 99.9 % Test CRC 91C3424B Copy CRC 91C3424B Accurately ripped (confidence 4) [91E6059A] (AR v2) Copy OK
All tracks accurately ripped
No errors occurred
End of status report
---- CUETools DB Plugin V2.1.6
[CTDB TOCID: makk.CBUmIClAvlNxpS61TVEbMM-] foundSubmit result: makk.CBUmIClAvlNxpS61TVEbMM- has been confirmedTrack | CTDB Status 1 | (11/11) Accurately ripped 2 | (11/11) Accurately ripped 3 | (11/11) Accurately ripped 4 | (11/11) Accurately ripped 5 | (11/11) Accurately ripped 6 | (11/11) Accurately ripped 7 | (11/11) Accurately ripped
==== Log checksum 073460B6E772E74DFCE9D77DDF31280558F2CBB3AB58D351587F57C5A5DB1C24 ====

cue

REM GENRE TechnoREM DATE 2000REM DISCID 770B3508REM COMMENT "ExactAudioCopy v1.3"PERFORMER "Mr.X & Mr.Y"TITLE "Global Players [My Name Is Techno] (Maxi Single)"REM COMPOSER ""FILE "01. Mr.X & Mr.Y - Global Players [My Name Is Techno] (Extended).wav" WAVE TRACK 01 AUDIO TITLE "Global Players [My Name Is Techno] (Extended)" PERFORMER "Mr.X & Mr.Y" REM COMPOSER "" ISRC DEE190000114 INDEX 01 00:00:00 TRACK 02 AUDIO TITLE "Global Players [My Name Is Techno] (Beroshima Remix)" PERFORMER "Mr.X & Mr.Y" REM COMPOSER "" ISRC DEE190000116 INDEX 00 06:37:33FILE "02. Mr.X & Mr.Y - Global Players [My Name Is Techno] (Beroshima Remix).wav" WAVE INDEX 01 00:00:00 TRACK 03 AUDIO TITLE "Global Players [My Name Is Techno] (Autotune Remix)" PERFORMER "Mr.X & Mr.Y" REM COMPOSER "" ISRC DEE190000117 INDEX 00 05:49:33FILE "03. Mr.X & Mr.Y - Global Players [My Name Is Techno] (Autotune Remix).wav" WAVE INDEX 01 00:00:00 TRACK 04 AUDIO TITLE "Global Players [My Name Is Techno] (Raver's Nature Remix)" PERFORMER "Mr.X & Mr.Y" REM COMPOSER "" ISRC DEE190000155 INDEX 00 04:55:37FILE "04. Mr.X & Mr.Y - Global Players [My Name Is Techno] (Raver's Nature Remix).wav" WAVE INDEX 01 00:00:00 TRACK 05 AUDIO TITLE "Global Players [My Name Is Techno] (DJ Dero's Technoelectro Mix)" PERFORMER "Mr.X & Mr.Y" REM COMPOSER "" ISRC DEE190000164 INDEX 00 06:01:43FILE "05. Mr.X & Mr.Y - Global Players [My Name Is Techno] (DJ Dero's Technoelectro Mix).wav" WAVE INDEX 01 00:00:00 TRACK 06 AUDIO TITLE "Global Players [My Name Is Techno] (DJ Rok's Darkroom Mix)" PERFORMER "Mr.X & Mr.Y" REM COMPOSER "" ISRC DEE190000119 INDEX 00 04:23:17FILE "06. Mr.X & Mr.Y - Global Players [My Name Is Techno] (DJ Rok's Darkroom Mix).wav" WAVE INDEX 01 00:00:00 TRACK 07 AUDIO TITLE "Global Players [My Name Is Techno] (Short)" PERFORMER "Mr.X & Mr.Y" REM COMPOSER "" ISRC DEE190000120 INDEX 00 05:07:25FILE "07. Mr.X & Mr.Y - Global Players [My Name Is Techno] (Short).wav" WAVE INDEX 01 00:00:00 TRACK 08 MODEx/2xxx TITLE "Video" PERFORMER "Mr.X & Mr.Y" REM COMPOSER "" INDEX 00 03:30:12
Maximillian Lenz (Westbam, Members of Mayday) \ Electric Kingdom & Low spirit Recordings


[islamvillage.com]_t_4238487.torrent
Торрент: Зарегистрирован ·  [ 2019-01-07 11:59 ] ·  3c6619d7b46d28e3eda50b3b486dad40c93c1a29

31 KB

Статус: проверено
Скачан: 0 раз
Размер: 2.44 GB
Оценка: 
(Голосов: 0)
Сказали спасибо: 0  Спасибо
Похожие темы
[Профиль]    [ЛС]
Показать сообщения:    
Ответить на тему

Текущее время: Сегодня 07:08

Часовой пояс: GMT + 7



Вы не можете начинать темы
Вы не можете отвечать на сообщения
Вы не можете редактировать свои сообщения
Вы не можете удалять свои сообщения
Вы не можете голосовать в опросах
Вы не можете прикреплять файлы к сообщениям
Вы можете скачивать файлы


Big City Shop - 流行都市Big City Shop | Text Effects | 29 de dezembro de 2018