(Electro, Minimal, Techno, House) [CD\\WEB] Lexy & K-Paul (Collection: 43 releases) - 1999-2018, FLAC (tracks+.cue\\tracks), lossless

Ответить на тему
Статистика раздачи [Обновить пиров]
Размер:  16.37 GB   |    Зарегистрирован:  14 дней   |    Скачан:  0 раз

Полного источника не было: Никогда

 
   
 
 
 
Автор Сообщение

islamvillage.com

Создавать темы 07-Янв-2019 12:33

[Цитировать]

Collection - Lexy & K-Paul-
Жанр: Electro, Minimal, Techno, House
Год выхода диска: 1999-2018
Производитель: Germany
Аудио кодек: FLAC
Тип рипа: tracks+.cue\tracks
Битрейт аудио: lossless
Продолжительность: 01 d 20 h 19 min 26 s
Собрано из: личных рипов и нескольких с what.cd и red
-
Collection - Lexy & K-Paul [Live's]
Collection - Lexy & K-Paul [MP3]
Lexy & K-Paul – The DVD [2005 г., House, Electro, DVD5]
-
04 11 2018
добавлены\изменены:
2018 - Peilschnarten [4250117688219]
2009 - Abrakadabra [0196112KON]
2000 - Loud [74321 79648 2]

Albums & Compilations2000 - Loud (74321 79648 2)

Продолжительность: 67 min 52 sec
01 Rock The East [03:29]
02 Freak [04:44]
03 Play The Music Loud [05:36]
04 You're The One [05:43]
05 Electric Kingdom [05:40]
06 Do Your Thing [04:17]
07 The Greatest DJ [05:42]
08 Electric Lexy Land [05:55]
09 If You Know What I Mean [03:17]
10 Boys Selekta [03:23]
11 Love To Feel [06:10]
12 Turntable Artist [05:07]
13 Booty [04:14]
14 TechnoLectro Pop [04:29]

Log EAC

Exact Audio Copy V1.1 from 23. June 2015
EAC extraction logfile from 4. March 2017, 13:37
Lexy & K‐Paul / Loud
Used drive : LITE-ON DVDRW LH-20A1P Adapter: 1 ID: 1
Read mode : SecureUtilize accurate stream : YesDefeat audio cache : YesMake use of C2 pointers : No
Read offset correction : 6Overread into Lead-In and Lead-Out : NoFill up missing offset samples with silence : YesDelete leading and trailing silent blocks : NoNull samples used in CRC calculations : YesUsed interface : Native Win32 interface for Win NT & 2000Gap handling : Appended to previous track
Used output format : User Defined EncoderSelected bitrate : 896 kBit/sQuality : HighAdd ID3 tag : NoCommand line compressor : C:\Program Files (x86)\Exact Audio Copy\FLAC\FLAC.EXEAdditional command line options : -6 -V -T "ARTIST=%artist%" -T "TITLE=%title%" -T "ALBUM=%albumtitle%" -T "DATE=%year%" -T "TRACKNUMBER=%tracknr%" -T "GENRE=%genre%" -T "COMMENT=%comment%" -T "BAND=%albuminterpret%" -T "ALBUMARTIST=%albuminterpret%" -T "COMPOSER=%composer%" %haslyrics%--tag-from-file=LYRICS="%lyricsfile%"%haslyrics% -T "DISCNUMBER=%cdnumber%" -T "TOTALDISCS=%totalcds%" -T "TOTALTRACKS=%numtracks%" %hascover%--picture="%coverfile%"%hascover% %source% -o %dest%
TOC of the extracted CD
Track | Start | Length | Start sector | End sector --------------------------------------------------------- 1 | 0:00.32 | 3:29.45 | 32 | 15751 2 | 3:30.02 | 4:44.33 | 15752 | 37084 3 | 8:14.35 | 5:36.60 | 37085 | 62344 4 | 13:51.20 | 5:43.07 | 62345 | 88076 5 | 19:34.27 | 5:40.23 | 88077 | 113599 6 | 25:14.50 | 4:17.57 | 113600 | 132931 7 | 29:32.32 | 5:42.38 | 132932 | 158619 8 | 35:14.70 | 5:55.50 | 158620 | 185294 9 | 41:10.45 | 3:17.62 | 185295 | 200131 10 | 44:28.32 | 3:23.25 | 200132 | 215381 11 | 47:51.57 | 6:10.25 | 215382 | 243156 12 | 54:02.07 | 5:07.28 | 243157 | 266209 13 | 59:09.35 | 4:14.20 | 266210 | 285279 14 | 63:23.55 | 4:29.52 | 285280 | 305506
Track 1
Filename C:\RED-Uploads\Lexy & K-Paul ‎- Loud (2000)\01 Lexy & K‐Paul - Rock The East.wav
Pre-gap length 0:00:02.32
Peak level 99.0 % Extraction speed 2.0 X Track quality 100.0 % Test CRC 630BC90D Copy CRC 630BC90D Accurately ripped (confidence 6) [93D8B714] (AR v2) Copy OK
Track 2
Filename C:\RED-Uploads\Lexy & K-Paul ‎- Loud (2000)\02 Lexy & K‐Paul - Freak.wav
Peak level 98.9 % Extraction speed 2.2 X Track quality 100.0 % Test CRC 8206F991 Copy CRC 8206F991 Accurately ripped (confidence 6) [A2A1D748] (AR v2) Copy OK
Track 3
Filename C:\RED-Uploads\Lexy & K-Paul ‎- Loud (2000)\03 Lexy & K‐Paul - Play The Musik Loud.wav
Peak level 70.1 % Extraction speed 2.5 X Track quality 100.0 % Test CRC 10B57E12 Copy CRC 10B57E12 Accurately ripped (confidence 6) [FA89DF2B] (AR v2) Copy OK
Track 4
Filename C:\RED-Uploads\Lexy & K-Paul ‎- Loud (2000)\04 Lexy & K‐Paul - You're The One.wav
Peak level 91.4 % Extraction speed 2.7 X Track quality 100.0 % Test CRC E9B01C6E Copy CRC E9B01C6E Accurately ripped (confidence 6) [B2DC8053] (AR v2) Copy OK
Track 5
Filename C:\RED-Uploads\Lexy & K-Paul ‎- Loud (2000)\05 Lexy & K‐Paul - Electric Kingdom.wav
Peak level 99.0 % Extraction speed 2.7 X Track quality 99.9 % Test CRC AA5A9C06 Copy CRC AA5A9C06 Accurately ripped (confidence 6) [138E9BC4] (AR v2) Copy OK
Track 6
Filename C:\RED-Uploads\Lexy & K-Paul ‎- Loud (2000)\06 Lexy & K‐Paul - Do You Thing.wav
Peak level 98.4 % Extraction speed 3.0 X Track quality 100.0 % Test CRC 74FF3769 Copy CRC 74FF3769 Accurately ripped (confidence 6) [DD4CD400] (AR v2) Copy OK
Track 7
Filename C:\RED-Uploads\Lexy & K-Paul ‎- Loud (2000)\07 Lexy & K‐Paul - The Greatest DJ.wav
Peak level 68.1 % Extraction speed 3.3 X Track quality 100.0 % Test CRC 076AC30D Copy CRC 076AC30D Accurately ripped (confidence 6) [5C399767] (AR v2) Copy OK
Track 8
Filename C:\RED-Uploads\Lexy & K-Paul ‎- Loud (2000)\08 Lexy & K‐Paul - Electric Lexy Land.wav
Peak level 99.0 % Extraction speed 3.5 X Track quality 100.0 % Test CRC E701A89E Copy CRC E701A89E Accurately ripped (confidence 6) [B1E23682] (AR v2) Copy OK
Track 9
Filename C:\RED-Uploads\Lexy & K-Paul ‎- Loud (2000)\09 Lexy & K‐Paul - If You Know What I Mean.wav
Peak level 99.0 % Extraction speed 3.4 X Track quality 100.0 % Test CRC BC611EA2 Copy CRC BC611EA2 Accurately ripped (confidence 6) [52E7AF69] (AR v2) Copy OK
Track 10
Filename C:\RED-Uploads\Lexy & K-Paul ‎- Loud (2000)\10 Lexy & K‐Paul - Boys Selekta.wav
Peak level 57.0 % Extraction speed 3.5 X Track quality 100.0 % Test CRC 6C85E830 Copy CRC 6C85E830 Accurately ripped (confidence 6) [9F8AA3BD] (AR v2) Copy OK
Track 11
Filename C:\RED-Uploads\Lexy & K-Paul ‎- Loud (2000)\11 Lexy & K‐Paul - Love To Feel.wav
Peak level 99.0 % Extraction speed 3.9 X Track quality 100.0 % Test CRC 1ED5250B Copy CRC 1ED5250B Accurately ripped (confidence 6) [6253F2F0] (AR v2) Copy OK
Track 12
Filename C:\RED-Uploads\Lexy & K-Paul ‎- Loud (2000)\12 Lexy & K‐Paul - Turntable Artist.wav
Peak level 83.2 % Extraction speed 3.9 X Track quality 100.0 % Test CRC BA825329 Copy CRC BA825329 Accurately ripped (confidence 6) [D752CA2F] (AR v2) Copy OK
Track 13
Filename C:\RED-Uploads\Lexy & K-Paul ‎- Loud (2000)\13 Lexy & K‐Paul - Booty.wav
Peak level 99.0 % Extraction speed 3.5 X Track quality 99.9 % Test CRC D4CBEF89 Copy CRC D4CBEF89 Accurately ripped (confidence 6) [813E8A46] (AR v2) Copy OK
Track 14
Filename C:\RED-Uploads\Lexy & K-Paul ‎- Loud (2000)\14 Lexy & K‐Paul - Technoelectro Pop.wav
Peak level 99.0 % Extraction speed 4.1 X Track quality 100.0 % Test CRC E94E3B8F Copy CRC E94E3B8F Accurately ripped (confidence 6) [E9E94588] (AR v2) Copy OK
All tracks accurately ripped
No errors occurred
End of status report
==== Log checksum 4D5255F59D23492712EA60BB69AF0BE51B6719D8FBC07EB4F2ED60205B62C3DE ====

CUE

REM GENRE TechnoREM DATE 2000REM DISCID BE0FE90EREM COMMENT "ExactAudioCopy v1.1"PERFORMER "Lexy & K.Paul"TITLE "Loud"FILE "01 Lexy & K.Paul - Rock The East.wav" WAVE TRACK 01 AUDIO TITLE "Rock The East" PERFORMER "Lexy & K.Paul" PREGAP 00:00:32 INDEX 01 00:00:00FILE "02 Lexy & K.Paul - Freak.wav" WAVE TRACK 02 AUDIO TITLE "Freak" PERFORMER "Lexy & K.Paul" INDEX 01 00:00:00FILE "03 Lexy & K.Paul - Play The Musik Loud.wav" WAVE TRACK 03 AUDIO TITLE "Play The Musik Loud" PERFORMER "Lexy & K.Paul" INDEX 01 00:00:00FILE "04 Lexy & K.Paul - You're The One.wav" WAVE TRACK 04 AUDIO TITLE "You're The One" PERFORMER "Lexy & K.Paul" INDEX 01 00:00:00FILE "05 Lexy & K.Paul - Electric Kingdom.wav" WAVE TRACK 05 AUDIO TITLE "Electric Kingdom" PERFORMER "Lexy & K.Paul" INDEX 01 00:00:00FILE "06 Lexy & K.Paul - Do You Thing.wav" WAVE TRACK 06 AUDIO TITLE "Do You Thing" PERFORMER "Lexy & K.Paul" INDEX 01 00:00:00FILE "07 Lexy & K.Paul - The Greatest DJ.wav" WAVE TRACK 07 AUDIO TITLE "The Greatest DJ" PERFORMER "Lexy & K.Paul" INDEX 01 00:00:00FILE "08 Lexy & K.Paul - Electric Lexy Land.wav" WAVE TRACK 08 AUDIO TITLE "Electric Lexy Land" PERFORMER "Lexy & K.Paul" INDEX 01 00:00:00FILE "09 Lexy & K.Paul - If You Know What I Mean.wav" WAVE TRACK 09 AUDIO TITLE "If You Know What I Mean" PERFORMER "Lexy & K.Paul" INDEX 01 00:00:00FILE "10 Lexy & K.Paul - Boys Selekta.wav" WAVE TRACK 10 AUDIO TITLE "Boys Selekta" PERFORMER "Lexy & K.Paul" INDEX 01 00:00:00FILE "11 Lexy & K.Paul - Love To Feel.wav" WAVE TRACK 11 AUDIO TITLE "Love To Feel" PERFORMER "Lexy & K.Paul" INDEX 01 00:00:00FILE "12 Lexy & K.Paul - Turntable Artist.wav" WAVE TRACK 12 AUDIO TITLE "Turntable Artist" PERFORMER "Lexy & K.Paul" INDEX 01 00:00:00FILE "13 Lexy & K.Paul - Booty.wav" WAVE TRACK 13 AUDIO TITLE "Booty" PERFORMER "Lexy & K.Paul" INDEX 01 00:00:00FILE "14 Lexy & K.Paul - Technoelectro Pop.wav" WAVE TRACK 14 AUDIO TITLE "Technoelectro Pop" PERFORMER "Lexy & K.Paul" INDEX 01 00:00:00

2003 - East End Boys (82876 51639 2)

Продолжительность: 71 min 36 sec
Продолжительность: 71 min 36 sec
01 Intro [00:34]
02 Come Together (Feat. Blake Baxter) [05:00]
03 Girls Get It First [03:32]
04 Let's Play (Feat. Atomek Dog) [03:01]
05 Bleib Cool [03:11]
06 Hoppla [00:41]
07 Der Fernsehturm [04:04]
08 Dancing [05:17]
09 East End Boys (Feat. Pujeh) [05:03]
10 Starbaby [05:18]
11 Robots Dancing [04:59]
12 We Like That (Feat. Colee) [04:07]
13 Talk To You [05:02]
14 Control [04:04]
15 Oder Beides (Feat. Sven Regener) [04:45]
16 Have A Whistle, Have A Haito [01:18]
17 Ice Cream, Disco, TV, Show [11:32]
2003 - East End Boys (82876 52195 2) Продолжительность:1 hour 31 minutes 38 seconds
CD ONE (72:00)
1. Lexy & K. Paul - Intro (0:36)
2. Lexy & K. Paul - Come Together (Feat. Blake Baxter) (5:02)
3. Lexy & K. Paul - Girls Get It First (3:34)
4. Lexy & K. Paul - Let's Play (Feat. Atomek Dog) (3:03)
5. Lexy & K. Paul - Bleib Cool (3:13)
6. Lexy & K. Paul - Hoppla (0:43)
7. Lexy & K. Paul - Der Fernsehturm (4:06)
8. Lexy & K. Paul - Dancing (5:19)
9. Lexy & K. Paul - East End Boys (Feat. Pujeh) (5:05)
10. Lexy & K. Paul - Starbaby (5:20)
11. Lexy & K. Paul - Robots Dancing (5:01)
12. Lexy & K. Paul - We Like That (Feat. Colee) (4:09)
13. Lexy & K. Paul - Talk To You (5:04)
14. Lexy & K. Paul - Control (4:06)
15. Lexy & K. Paul - Oder Beides (Feat. Sven Regener) (4:47)
16. Lexy & K. Paul - Have A Whistle, Have A Haito (1:20)
17. Lexy & K. Paul - Ice Cream, Disco, TV, Show (11:32)
CD TWO (19:38)
1. Lexy & K-Paul - The Greatest DJ (Elektro RMX) (5:24)
2. Lexy & K-Paul - Love Me Babe (5:06)
3. Lexy & K-Paul - Starbaby (K.Paul RMX) (4:41)
4. Lexy & K-Paul - Robots Dancing (Trash Mo Pet RMX) (4:27)

2003 - East End Boys (82876 52195 2)Log EAC CD 1

Exact Audio Copy V1.3 from 2. September 2016
EAC extraction logfile from 9. September 2017, 11:37
Lexy & K-Paul / East End Boys
Used drive : hp DVD-RAM UJ8DB Adapter: 1 ID: 0
Read mode : SecureUtilize accurate stream : YesDefeat audio cache : YesMake use of C2 pointers : No
Read offset correction : 6Overread into Lead-In and Lead-Out : NoFill up missing offset samples with silence : YesDelete leading and trailing silent blocks : NoNull samples used in CRC calculations : YesUsed interface : Native Win32 interface for Win NT & 2000Gap handling : Appended to previous track
Used output format : User Defined EncoderSelected bitrate : 128 kBit/sQuality : HighAdd ID3 tag : NoCommand line compressor : C:\Exact Audio Copy\Flac\flac.exeAdditional command line options : -V -8 -T "Date=%year%" -T "COMMENT=ripped by Andy aka yetiisyou" -T "Genre=%genre%" %source%
TOC of the extracted CD
Track | Start | Length | Start sector | End sector --------------------------------------------------------- 1 | 0:00.00 | 0:34.57 | 0 | 2606 2 | 0:34.57 | 5:00.33 | 2607 | 25139 3 | 5:35.15 | 3:32.13 | 25140 | 41052 4 | 9:07.28 | 3:01.74 | 41053 | 54701 5 | 12:09.27 | 3:11.47 | 54702 | 69073 6 | 15:20.74 | 0:41.74 | 69074 | 72222 7 | 16:02.73 | 4:04.36 | 72223 | 90558 8 | 20:07.34 | 5:17.08 | 90559 | 114341 9 | 25:24.42 | 5:03.02 | 114342 | 137068 10 | 30:27.44 | 5:18.74 | 137069 | 160992 11 | 35:46.43 | 4:59.25 | 160993 | 183442 12 | 40:45.68 | 4:07.23 | 183443 | 201990 13 | 44:53.16 | 5:02.25 | 201991 | 224665 14 | 49:55.41 | 4:04.14 | 224666 | 242979 15 | 53:59.55 | 4:45.26 | 242980 | 264380 16 | 58:45.06 | 1:18.61 | 264381 | 270291 17 | 60:03.67 | 11:32.33 | 270292 | 322224 18 | 74:08.25 | 5:44.50 | 333625 | 359474
Track 1
Filename C:\!Ripped by Andy aka yetiisyou\01. Intro.wav
Pre-gap length 0:00:02.00
Peak level 47.0 % Extraction speed 0.7 X Track quality 100.0 % Test CRC 43B8D1A9 Copy CRC 43B8D1A9 Accurately ripped (confidence 4) [D415D21C] (AR v2) Copy OK
Track 2
Filename C:\!Ripped by Andy aka yetiisyou\02. Come Together (feat. Blake Baxter).wav
Peak level 99.0 % Extraction speed 1.1 X Track quality 99.9 % Test CRC 6EFD6B85 Copy CRC 6EFD6B85 Accurately ripped (confidence 2) [D61BBA13] (AR v2) Copy OK
Track 3
Filename C:\!Ripped by Andy aka yetiisyou\03. Girls Get It First.wav
Peak level 99.0 % Extraction speed 1.1 X Track quality 99.9 % Test CRC 3DB30AF2 Copy CRC 3DB30AF2 Accurately ripped (confidence 3) [BF12C2D7] (AR v2) Copy OK
Track 4
Filename C:\!Ripped by Andy aka yetiisyou\04. Let's Play (feat. Atomek Dogg).wav
Peak level 68.5 % Extraction speed 1.3 X Track quality 100.0 % Test CRC F2F5C140 Copy CRC F2F5C140 Cannot be verified as accurate (confidence 2) [6F544A9B], AccurateRip returned [37E45C99] (AR v2) Copy OK
Track 5
Filename C:\!Ripped by Andy aka yetiisyou\05. Bleib Cool.wav
Peak level 86.2 % Extraction speed 1.3 X Track quality 100.0 % Test CRC 9EEEFB08 Copy CRC 9EEEFB08 Accurately ripped (confidence 4) [FDFEC478] (AR v2) Copy OK
Track 6
Filename C:\!Ripped by Andy aka yetiisyou\06. Hoppla.wav
Peak level 62.6 % Extraction speed 1.0 X Track quality 100.0 % Test CRC 1FD4F562 Copy CRC 1FD4F562 Cannot be verified as accurate (confidence 3) [680A63FC], AccurateRip returned [B78DDBA6] (AR v2) Copy OK
Track 7
Filename C:\!Ripped by Andy aka yetiisyou\07. Der Fernsehturm.wav
Peak level 91.1 % Extraction speed 1.2 X Track quality 100.0 % Test CRC 909279BB Copy CRC 909279BB Accurately ripped (confidence 1) [B84D90C8] (AR v2) Copy OK
Track 8
Filename C:\!Ripped by Andy aka yetiisyou\08. Dancing.wav
Peak level 99.0 % Extraction speed 1.5 X Track quality 100.0 % Test CRC B86B3531 Copy CRC B86B3531 Accurately ripped (confidence 4) [DEB91F58] (AR v2) Copy OK
Track 9
Filename C:\!Ripped by Andy aka yetiisyou\09. East End Boys (feat. Pujeh).wav
Peak level 99.0 % Extraction speed 1.5 X Track quality 100.0 % Test CRC DF8F6FA5 Copy CRC DF8F6FA5 Accurately ripped (confidence 3) [73A0B75F] (AR v2) Copy OK
Track 10
Filename C:\!Ripped by Andy aka yetiisyou\10. Starbaby.wav
Peak level 85.5 % Extraction speed 1.6 X Track quality 100.0 % Test CRC 9F469993 Copy CRC 9F469993 Accurately ripped (confidence 3) [D89E4617] (AR v2) Copy OK
Track 11
Filename C:\!Ripped by Andy aka yetiisyou\11. Robots Dancing.wav
Peak level 78.6 % Extraction speed 1.7 X Track quality 100.0 % Test CRC AE93FB72 Copy CRC AE93FB72 Accurately ripped (confidence 4) [98E1FECE] (AR v2) Copy OK
Track 12
Filename C:\!Ripped by Andy aka yetiisyou\12. We Like That (feat. Colee).wav
Peak level 98.9 % Extraction speed 1.5 X Track quality 99.9 % Test CRC 95998AD5 Copy CRC 95998AD5 Accurately ripped (confidence 2) [ABDC342B] (AR v2) Copy OK
Track 13
Filename C:\!Ripped by Andy aka yetiisyou\13. Talk To You.wav
Peak level 90.6 % Extraction speed 1.6 X Track quality 100.0 % Test CRC 25BC5145 Copy CRC 25BC5145 Accurately ripped (confidence 2) [5F2B75EE] (AR v2) Copy OK
Track 14
Filename C:\!Ripped by Andy aka yetiisyou\14. Control.wav
Peak level 81.9 % Extraction speed 1.3 X Track quality 100.0 % Test CRC E9F78E38 Copy CRC E9F78E38 Accurately ripped (confidence 3) [FCDF7E3C] (AR v2) Copy OK
Track 15
Filename C:\!Ripped by Andy aka yetiisyou\15. Oder Beides (feat. Sven Regener).wav
Peak level 97.1 % Extraction speed 0.9 X Track quality 99.9 % Test CRC A2B31975 Copy CRC A2B31975 Cannot be verified as accurate (confidence 2) [C61F55F7], AccurateRip returned [14447853] (AR v2) Copy OK
Track 16
Filename C:\!Ripped by Andy aka yetiisyou\16. Have A Whistle, Have A Haito.wav
Peak level 66.0 % Extraction speed 0.4 X Track quality 100.0 % Test CRC CBF728E7 Copy CRC CBF728E7 Accurately ripped (confidence 4) [8D77A239] (AR v2) Copy OK
Track 17
Filename C:\!Ripped by Andy aka yetiisyou\17. Ice Cream, Disco, TV, Show.wav
Peak level 93.9 % Extraction speed 0.8 X Track quality 100.0 % Test CRC 6A44E7B2 Copy CRC 6A44E7B2 Cannot be verified as accurate (confidence 2) [2BBC9E47], AccurateRip returned [50DB124F] (AR v2) Copy OK
13 track(s) accurately ripped 4 track(s) could not be verified as accurate
Some tracks could not be verified as accurate
No errors occurred
End of status report
---- CUETools DB Plugin V2.1.6
[CTDB TOCID: JDAbPsoamzhEzNo8T1vk1N5wMes-] foundSubmit result: JDAbPsoamzhEzNo8T1vk1N5wMes- has been uploadedTrack | CTDB Status 1 | ( 4/10) Accurately ripped 2 | ( 1/10) Accurately ripped, or (1/10) differs in 27 samples @02:04:60,02:52:50-02:52:51, or (1/10) differs in 19 samples @02:52:50-02:52:51 3 | ( 4/10) Accurately ripped 4 | ( 1/10) Differs in 21 samples @00:53:04-00:53:05, or (1/10) differs in 21 samples @00:53:04-00:53:05, or (1/10) differs in 21 samples @00:53:04-00:53:05 5 | ( 4/10) Accurately ripped 6 | ( 1/10) Differs in 22 samples @00:22:32-00:22:33, or (1/10) differs in 22 samples @00:22:32-00:22:33, or (1/10) differs in 22 samples @00:22:32-00:22:33 7 | ( 1/10) Differs in 99 samples @01:10:34-01:10:35,01:52:44,02:52:44, or (1/10) differs in 136 samples @00:52:43-00:52:44,01:10:34-01:10:35,01:52:44,02:52:44, or (1/10) differs in 172 samples @01:10:34-01:10:35,01:22:44,01:52:44,02:52:44,03:04:43-03:04:44 8 | ( 4/10) Accurately ripped 9 | ( 2/10) Accurately ripped, or (1/10) differs in 89 samples @02:47:00-02:47:01,04:47:00 10 | ( 2/10) Accurately ripped, or (1/10) differs in 45 samples @00:22:63, or (1/10) differs in 64 samples @03:58:73,04:58:72-04:58:73 11 | ( 4/10) Accurately ripped 12 | ( 3/10) Accurately ripped, or (1/10) differs in 63 samples @03:16:49 13 | ( 2/10) Accurately ripped, or (1/10) differs in 22 samples @02:35:25-02:35:26 14 | ( 4/10) Accurately ripped 15 | ( 1/10) Differs in 46 samples @00:28:52,02:10:52-02:10:53, or (1/10) differs in 46 samples @00:28:52,02:10:52-02:10:53, or (1/10) differs in 81 samples @00:22:52-00:22:53,00:28:52,02:22:51-02:22:52 16 | ( 5/10) Accurately ripped 17 | ( 2/10) Accurately ripped, or (1/10) differs in 62 samples @03:10:50,03:16:40, or (1/10) differs in 221 samples @00:58:40,07:22:49-07:22:50,07:28:50-07:28:51,07:40:51,08:04:39,08:10:40-08:10:41,08:16:39-08:16:40If you are sure that your rip contains errors, you can use CUETools to repair it.
==== Log checksum F148357D5031F2FE7A8FC977CA0B8EDF684B9B78568DCCA601A2D3CF2EB36B83 ====

CUE

REM GENRE TranceREM DATE 2003REM DISCID 0B12B912REM COMMENT "ExactAudioCopy v1.3"PERFORMER "Lexy & K-Paul"TITLE "East End Boys"REM COMPOSER ""FILE "01. Intro.wav" WAVE TRACK 01 AUDIO TITLE "Intro" PERFORMER "Lexy & K-Paul" REM COMPOSER "" ISRC DEE190300028 INDEX 01 00:00:00FILE "02. Come Together (feat. Blake Baxter).wav" WAVE TRACK 02 AUDIO TITLE "Come Together (feat. Blake Baxter)" PERFORMER "Lexy & K-Paul" REM COMPOSER "" ISRC DEE190300029 INDEX 01 00:00:00FILE "03. Girls Get It First.wav" WAVE TRACK 03 AUDIO TITLE "Girls Get It First" PERFORMER "Lexy & K-Paul" REM COMPOSER "" ISRC DEE190300005 INDEX 01 00:00:00FILE "04. Let's Play (feat. Atomek Dogg).wav" WAVE TRACK 04 AUDIO TITLE "Let's Play (feat. Atomek Dogg)" PERFORMER "Lexy & K-Paul" REM COMPOSER "" ISRC DEE190300030 INDEX 01 00:00:00FILE "05. Bleib Cool.wav" WAVE TRACK 05 AUDIO TITLE "Bleib Cool" PERFORMER "Lexy & K-Paul" REM COMPOSER "" ISRC DEE190300031 INDEX 01 00:00:00FILE "06. Hoppla.wav" WAVE TRACK 06 AUDIO TITLE "Hoppla" PERFORMER "Lexy & K-Paul" REM COMPOSER "" ISRC DEE190300032 INDEX 01 00:00:00FILE "07. Der Fernsehturm.wav" WAVE TRACK 07 AUDIO TITLE "Der Fernsehturm" PERFORMER "Lexy & K-Paul" REM COMPOSER "" ISRC DEE190300033 INDEX 01 00:00:00FILE "08. Dancing.wav" WAVE TRACK 08 AUDIO TITLE "Dancing" PERFORMER "Lexy & K-Paul" REM COMPOSER "" ISRC DEE190300034 INDEX 01 00:00:00FILE "09. East End Boys (feat. Pujeh).wav" WAVE TRACK 09 AUDIO TITLE "East End Boys (feat. Pujeh)" PERFORMER "Lexy & K-Paul" REM COMPOSER "" ISRC DEE190300035 INDEX 01 00:00:00FILE "10. Starbaby.wav" WAVE TRACK 10 AUDIO TITLE "Starbaby" PERFORMER "Lexy & K-Paul" REM COMPOSER "" ISRC DEE190300036 INDEX 01 00:00:00FILE "11. Robots Dancing.wav" WAVE TRACK 11 AUDIO TITLE "Robots Dancing" PERFORMER "Lexy & K-Paul" REM COMPOSER "" ISRC DEE190300081 INDEX 01 00:00:00FILE "12. We Like That (feat. Colee).wav" WAVE TRACK 12 AUDIO TITLE "We Like That (feat. Colee)" PERFORMER "Lexy & K-Paul" REM COMPOSER "" ISRC DEE190300082 INDEX 01 00:00:00FILE "13. Talk To You.wav" WAVE TRACK 13 AUDIO TITLE "Talk To You" PERFORMER "Lexy & K-Paul" REM COMPOSER "" ISRC DEE190300039 INDEX 01 00:00:00FILE "14. Control.wav" WAVE TRACK 14 AUDIO TITLE "Control" PERFORMER "Lexy & K-Paul" REM COMPOSER "" ISRC DEE190300040 INDEX 01 00:00:00FILE "15. Oder Beides (feat. Sven Regener).wav" WAVE TRACK 15 AUDIO TITLE "Oder Beides (feat. Sven Regener)" PERFORMER "Lexy & K-Paul" REM COMPOSER "" ISRC DEE190300041 INDEX 01 00:00:00FILE "16. Have A Whistle, Have A Haito.wav" WAVE TRACK 16 AUDIO TITLE "Have A Whistle, Have A Haito" PERFORMER "Lexy & K-Paul" REM COMPOSER "" ISRC DEE190300042 INDEX 01 00:00:00FILE "17. Ice Cream, Disco, TV, Show.wav" WAVE TRACK 17 AUDIO TITLE "Ice Cream, Disco, TV, Show" PERFORMER "Lexy & K-Paul" REM COMPOSER "" ISRC DEE190200162 INDEX 01 00:00:00

Log EAC Bonus CD 2

Exact Audio Copy V1.3 from 2. September 2016
EAC extraction logfile from 8. September 2017, 20:28
Lexy & K-Paul / East End Boys (Bonus-CD)
Used drive : ASUS DRW-24B5ST Adapter: 6 ID: 0
Read mode : SecureUtilize accurate stream : YesDefeat audio cache : YesMake use of C2 pointers : No
Read offset correction : 6Overread into Lead-In and Lead-Out : NoFill up missing offset samples with silence : YesDelete leading and trailing silent blocks : NoNull samples used in CRC calculations : YesUsed interface : Installed external ASPI interfaceGap handling : Appended to previous track
Used output format : User Defined EncoderSelected bitrate : 128 kBit/sQuality : HighAdd ID3 tag : NoCommand line compressor : D:\flac-1.3.2-win\win64\flac.exeAdditional command line options : -8 -V -T "ARTIST=%artist%" -T "TITLE=%title%" -T "ALBUM=%albumtitle%" -T "DATE=%year%" -T "TRACKNUMBER=%tracknr%" -T "GENRE=%genre%" -T "COMMENT=ripped by Andy aka yetiisyou" %source%
TOC of the extracted CD
Track | Start | Length | Start sector | End sector --------------------------------------------------------- 1 | 0:00.00 | 5:24.38 | 0 | 24337 2 | 5:24.38 | 5:06.69 | 24338 | 47356 3 | 10:31.32 | 4:41.68 | 47357 | 68499 4 | 15:13.25 | 4:27.23 | 68500 | 88547 5 | 22:12.48 | 3:41.26 | 99948 | 116548
Track 1
Filename E:\!Ripped by Andy aka yetiisyou\2003 - Lexy & K-Paul - East End Boys [82876 52195 2]\Disc 2\01. Lexy & K-Paul - The Greatest DJ (Elektrö RMX).wav
Pre-gap length 0:00:02.00
Peak level 99.0 % Extraction speed 3.7 X Track quality 100.0 % Test CRC FFD4C5E2 Copy CRC FFD4C5E2 Accurately ripped (confidence 5) [BEB1F490] (AR v2) Copy OK
Track 2
Filename E:\!Ripped by Andy aka yetiisyou\2003 - Lexy & K-Paul - East End Boys [82876 52195 2]\Disc 2\02. Lexy & K-Paul - Love Me Babe.wav
Pre-gap length 0:00:01.30
Peak level 81.9 % Extraction speed 4.2 X Track quality 100.0 % Test CRC CE8D46B8 Copy CRC CE8D46B8 Accurately ripped (confidence 5) [C07C0868] (AR v2) Copy OK
Track 3
Filename E:\!Ripped by Andy aka yetiisyou\2003 - Lexy & K-Paul - East End Boys [82876 52195 2]\Disc 2\03. Lexy & K-Paul - Starbaby (K.Paul RMX).wav
Pre-gap length 0:00:01.65
Peak level 87.2 % Extraction speed 4.5 X Track quality 100.0 % Test CRC 9F69687F Copy CRC 9F69687F Accurately ripped (confidence 5) [D8E9AF3D] (AR v2) Copy OK
Track 4
Filename E:\!Ripped by Andy aka yetiisyou\2003 - Lexy & K-Paul - East End Boys [82876 52195 2]\Disc 2\04. Lexy & K-Paul - Robots Dancing (Trash Mo Pet RMX).wav
Pre-gap length 0:00:01.31
Peak level 93.4 % Extraction speed 4.8 X Track quality 100.0 % Test CRC 1754B169 Copy CRC 1754B169 Accurately ripped (confidence 5) [7B7CB3BE] (AR v2) Copy OK
All tracks accurately ripped
No errors occurred
End of status report
---- CUETools DB Plugin V2.1.6
[CTDB TOCID: Dj3FFYSoGMYWGSYvUqVEt32NE8o-] foundSubmit result: Dj3FFYSoGMYWGSYvUqVEt32NE8o- has been confirmedTrack | CTDB Status 1 | (8/8) Accurately ripped 2 | (8/8) Accurately ripped 3 | (8/8) Accurately ripped 4 | (8/8) Accurately ripped
==== Log checksum 8842C86AC549F67CAD44FDEDD50F7EBEFADFE4822324905773E44A016F52AEF9 ====

CUE

REM GENRE ElectronicREM DATE 2003REM DISCID 33061105REM COMMENT "ExactAudioCopy v1.3"PERFORMER "Lexy & K-Paul"TITLE "East End Boys (Bonus-CD)"REM COMPOSER ""FILE "01. Lexy & K-Paul - The Greatest DJ (Elektro RMX).wav" WAVE TRACK 01 AUDIO TITLE "The Greatest DJ (Elektro RMX)" PERFORMER "Lexy & K-Paul" REM COMPOSER "" ISRC DEE190300089 INDEX 01 00:00:00 TRACK 02 AUDIO TITLE "Love Me Babe" PERFORMER "Lexy & K-Paul" REM COMPOSER "" ISRC DEE190300090 INDEX 00 05:23:08FILE "02. Lexy & K-Paul - Love Me Babe.wav" WAVE INDEX 01 00:00:00 TRACK 03 AUDIO TITLE "Starbaby (K.Paul RMX)" PERFORMER "Lexy & K-Paul" REM COMPOSER "" ISRC DEE190300091 INDEX 00 05:05:04FILE "03. Lexy & K-Paul - Starbaby (K.Paul RMX).wav" WAVE INDEX 01 00:00:00 TRACK 04 AUDIO TITLE "Robots Dancing (Trash Mo Pet RMX)" PERFORMER "Lexy & K-Paul" REM COMPOSER "" ISRC DEE190300092 INDEX 00 04:40:37FILE "04. Lexy & K-Paul - Robots Dancing (Trash Mo Pet RMX).wav" WAVE INDEX 01 00:00:00 TRACK 05 MODEx/2xxx TITLE "Videoclip - Let's Play" PERFORMER "Lexy & K-Paul" REM COMPOSER "" INDEX 00 04:27:23

Let's Play Vodeoclip

Формат файла: MPEG-PS
Видео: MPEG-1 Video, 512 x 288, 16/9, 1 072 Kbps, 25.000 fps, 0.291 b/px
Аудио: MPEG-1 Audio layer 2, 224 Kbps, CBR, 44.1 KHz, 2 ch.
Продолжительность: 3mn 12s-
2005 - U60311 Compilation (U60DCD09) Продолжительность:02:19:54
CD ONE
1. Lexy & K-Paul - Intro (0:17)
2. Lexy & K-Paul - Happy Zombies (Paul Kalkbrenner RMX) (6:59)
3. Trentemцller - Physical Fraction (5:59)
4. Lexy - Scream, When you Burn (5:11)
5. Silver City - Galactic Ride (2020 Soundsystem Re-Edit) (7:18)
6. Patrice Bдumel - Mutant Pop (6:16)
7. David & Pedro - Unknown 7 (5:00)
8. Hug - The Angry Ghost (5:14)
9. Lexy & K-Paul - Ghost (4:22)
10. Seymour Shade & De jeugd van tegenwoordig - Watsekeburt (Dexter RMX) (4:45)
11. Booka Shade - Mandarine Girl (6:31)
12. Juergen Paape - Cream (5:07)
13. Gцpfrich & Gerlach - Auf der Lauer Aua Aua (5:23)
CD TWO
1. Artificial Latvamдki - Mдnty (6:49)
2. Gui.tar - Homeopathic Delight (4:20)
3. Oliver Hacke - Subject Carrier (Alex Under RMX) (5:17)
4. Chelonis R. Jones - Middle Finger Music (Booka Shade RMX) (5:20)
5. Marlow feat. Delhia - Quiet (Losoul RMX) (5:23)
6. Argy - Love Dose (Luciano RMX) (4:11)
7. Phage and Daniel Dreier - Chicks 'n Chips (6:06)
8. Hakan Libdo - Televinken (5:20)
9. Konrad Black & Ghostman - Medusa Smile (6:05)
10. Robag Wruhme - Wortkabular (Luciano RMX) (6:46)
11. Alex Under - Aditah, La Granjerita (4:42)
12. Hello Trouble - Hello Trouble (4:41)
13. Metope - M1D1 (6:32)

2005 - U60311 Compilation (U60DCD09)Log EAC

Exact Audio Copy V1.3 from 2. September 2016
EAC extraction logfile from 15. November 2016, 10:20
Lexy & K-Paul / U60311 Compilation CD1
Used drive : TS8XDVDRTranscend Adapter: 1 ID: 1
Read mode : SecureUtilize accurate stream : YesDefeat audio cache : YesMake use of C2 pointers : No
Read offset correction : 6Overread into Lead-In and Lead-Out : NoFill up missing offset samples with silence : YesDelete leading and trailing silent blocks : NoNull samples used in CRC calculations : YesUsed interface : Native Win32 interface for Win NT & 2000Gap handling : Appended to previous track
Used output format : User Defined EncoderSelected bitrate : 896 kBit/sQuality : HighAdd ID3 tag : NoCommand line compressor : C:\Program Files (x86)\Exact Audio Copy\Flac\flac.exeAdditional command line options : -8 -V -T "ARTIST=%artist%" -T "TITLE=%title%" -T "ALBUM=%albumtitle%" -T "DATE=%year%" -T "TRACKNUMBER=%tracknr%" -T "GENRE=%genre%" -T "PERFORMER=%albuminterpret%" -T "COMPOSER=%composer%" %haslyrics%--tag-from-file=LYRICS="%lyricsfile%"%haslyrics% -T "ALBUMARTIST=%albumartist%" -T "DISCNUMBER=%cdnumber%" -T "TOTALDISCS=%totalcds%" -T "TOTALTRACKS=%numtracks%" -T "COMMENT=%comment%" %source% -o %dest%
TOC of the extracted CD
Track | Start | Length | Start sector | End sector --------------------------------------------------------- 1 | 0:00.00 | 0:17.71 | 0 | 1345 2 | 0:17.71 | 6:59.61 | 1346 | 32831 3 | 7:17.57 | 5:59.11 | 32832 | 59767 4 | 13:16.68 | 5:11.13 | 59768 | 83105 5 | 18:28.06 | 7:18.65 | 83106 | 116020 6 | 25:46.71 | 6:16.04 | 116021 | 144224 7 | 32:03.00 | 5:00.10 | 144225 | 166734 8 | 37:03.10 | 5:14.65 | 166735 | 190349 9 | 42:18.00 | 4:22.17 | 190350 | 210016 10 | 46:40.17 | 4:45.19 | 210017 | 231410 11 | 51:25.36 | 6:31.65 | 231411 | 260800 12 | 57:57.26 | 5:07.41 | 260801 | 283866 13 | 63:04.67 | 5:23.53 | 283867 | 308144
Track 1
Filename E:\MUSIC\VA - Lexy & K-Paul - U60311 Compilation (2005) [CD-FLAC]\1-01. Lexy & K-Paul - Intro.wav
Pre-gap length 0:00:02.00
Peak level 97.9 % Extraction speed 0.5 X Track quality 99.4 % Test CRC 59C799DC Copy CRC 59C799DC Accurately ripped (confidence 2) [8C560AC0] (AR v2) Copy OK
Track 2
Filename E:\MUSIC\VA - Lexy & K-Paul - U60311 Compilation (2005) [CD-FLAC]\1-02. Lexy & K-Paul - Happy Zombies (Paul Kalkbrenner Remix).wav
Peak level 97.9 % Extraction speed 3.2 X Track quality 100.0 % Test CRC 9BC29BCD Copy CRC 9BC29BCD Accurately ripped (confidence 2) [444F7778] (AR v2) Copy OK
Track 3
Filename E:\MUSIC\VA - Lexy & K-Paul - U60311 Compilation (2005) [CD-FLAC]\1-03. Trentemøller - Physical Fraction.wav
Peak level 97.9 % Extraction speed 3.5 X Track quality 100.0 % Test CRC E4F63DAC Copy CRC E4F63DAC Accurately ripped (confidence 2) [4960142E] (AR v2) Copy OK
Track 4
Filename E:\MUSIC\VA - Lexy & K-Paul - U60311 Compilation (2005) [CD-FLAC]\1-04. Lexy - Scream When You Burn.wav
Peak level 97.9 % Extraction speed 3.8 X Track quality 100.0 % Test CRC 8D63D2D3 Copy CRC 8D63D2D3 Accurately ripped (confidence 2) [C50869B3] (AR v2) Copy OK
Track 5
Filename E:\MUSIC\VA - Lexy & K-Paul - U60311 Compilation (2005) [CD-FLAC]\1-05. Silver City - Galactic Ride (2020 Soundsystem Re-Edit).wav
Peak level 97.9 % Extraction speed 3.8 X Track quality 99.9 % Test CRC ADBF6356 Copy CRC ADBF6356 Accurately ripped (confidence 2) [56832685] (AR v2) Copy OK
Track 6
Filename E:\MUSIC\VA - Lexy & K-Paul - U60311 Compilation (2005) [CD-FLAC]\1-06. Patrice Bäumel - Mutant Pop.wav
Peak level 97.9 % Extraction speed 4.5 X Track quality 100.0 % Test CRC 5C433337 Copy CRC 5C433337 Accurately ripped (confidence 2) [BF3E55BB] (AR v2) Copy OK
Track 7
Filename E:\MUSIC\VA - Lexy & K-Paul - U60311 Compilation (2005) [CD-FLAC]\1-07. Davide & Pedro - Unknown 7.wav
Peak level 97.9 % Extraction speed 3.9 X Track quality 99.9 % Test CRC E3A88C81 Copy CRC E3A88C81 Accurately ripped (confidence 2) [C7DE82C1] (AR v2) Copy OK
Track 8
Filename E:\MUSIC\VA - Lexy & K-Paul - U60311 Compilation (2005) [CD-FLAC]\1-08. Hug - The Angry Ghost.wav
Peak level 97.9 % Extraction speed 4.9 X Track quality 100.0 % Test CRC 7E8BA307 Copy CRC 7E8BA307 Accurately ripped (confidence 2) [436E61E2] (AR v2) Copy OK
Track 9
Filename E:\MUSIC\VA - Lexy & K-Paul - U60311 Compilation (2005) [CD-FLAC]\1-09. Lexy & K-Paul - Ghost.wav
Peak level 97.9 % Extraction speed 4.9 X Track quality 100.0 % Test CRC C31FD6DA Copy CRC C31FD6DA Accurately ripped (confidence 2) [489E561C] (AR v2) Copy OK
Track 10
Filename E:\MUSIC\VA - Lexy & K-Paul - U60311 Compilation (2005) [CD-FLAC]\1-10. Seymour Bits presents De Jeugd Van Tegenwoordig - Watskeburt (Dexter's Dexter Is Een Baas Edit).wav
Peak level 97.9 % Extraction speed 5.1 X Track quality 100.0 % Test CRC C2A669E6 Copy CRC C2A669E6 Accurately ripped (confidence 2) [75C7D861] (AR v2) Copy OK
Track 11
Filename E:\MUSIC\VA - Lexy & K-Paul - U60311 Compilation (2005) [CD-FLAC]\1-11. Booka Shade - Mandarine Girl.wav
Peak level 97.9 % Extraction speed 5.5 X Track quality 100.0 % Test CRC 8DF05139 Copy CRC 8DF05139 Accurately ripped (confidence 2) [E7E6942A] (AR v2) Copy OK
Track 12
Filename E:\MUSIC\VA - Lexy & K-Paul - U60311 Compilation (2005) [CD-FLAC]\1-12. Jürgen Paape - Cream.wav
Peak level 97.9 % Extraction speed 5.5 X Track quality 100.0 % Test CRC 707253FD Copy CRC 707253FD Accurately ripped (confidence 2) [0CD2A357] (AR v2) Copy OK
Track 13
Filename E:\MUSIC\VA - Lexy & K-Paul - U60311 Compilation (2005) [CD-FLAC]\1-13. Göpfrich & Gerlach - Auf Der Lauer Aua Aua.wav
Peak level 97.9 % Extraction speed 4.9 X Track quality 99.9 % Test CRC 6CDB6833 Copy CRC 6CDB6833 Accurately ripped (confidence 2) [66CB4980] (AR v2) Copy OK
All tracks accurately ripped
No errors occurred
End of status report
---- CUETools DB Plugin V2.1.6
[CTDB TOCID: i29UdmL3Dwa06AgdU8SQQwVPy1E-] foundSubmit result: i29UdmL3Dwa06AgdU8SQQwVPy1E- has been uploadedTrack | CTDB Status 1 | (1/1) Accurately ripped 2 | (1/1) Differs in 433 samples @00:30:38,00:30:48,00:30:57-00:30:58,00:30:68,00:31:03,00:31:12-00:31:13,00:31:22-00:31:23,00:31:32-00:31:33,00:31:43,00:31:52,00:31:72-00:31:73,00:32:07,00:32:17-00:32:18,00:32:27-00:32:28,00:32:37,00:32:47,00:32:57-00:32:58,00:32:67,00:33:01-00:33:02,00:33:11-00:33:12,00:33:21-00:33:22,00:33:31-00:33:32,00:33:42,00:33:51-00:33:52,00:33:61-00:33:62,00:33:71-00:33:72,00:34:06 3 | (1/1) Accurately ripped 4 | (1/1) Accurately ripped 5 | (1/1) Accurately ripped 6 | (1/1) Accurately ripped 7 | (1/1) Accurately ripped 8 | (1/1) Differs in 23 samples @01:08:39,01:08:56,01:08:74,01:09:16,01:09:33,01:09:50,01:10:09,01:10:44,01:10:61 9 | (1/1) Accurately ripped 10 | (1/1) Accurately ripped 11 | (1/1) Accurately ripped 12 | (1/1) Accurately ripped 13 | (1/1) Accurately rippedIf you are sure that your rip contains errors, you can use CUETools to repair it.
==== Log checksum 2A3AF562ADA9B3721375DC7D19ABEA41847B1AA8935BACBD5C584EFEC022CC34 ====

CUE

REM GENRE "Techno, Electro, Tech House, Minimal"REM DATE 2005REM DISCID BD100C0DREM COMMENT "ExactAudioCopy v1.3"PERFORMER "Lexy & K-Paul"TITLE "U60311 Compilation CD1"REM COMPOSER ""FILE "1-01. Lexy & K-Paul - Intro.wav" WAVE TRACK 01 AUDIO TITLE "Intro" PERFORMER "Lexy & K-Paul" REM COMPOSER "" ISRC DEE190500035 INDEX 01 00:00:00FILE "1-02. Lexy & K-Paul - Happy Zombies (Paul Kalkbrenner Remix).wav" WAVE TRACK 02 AUDIO TITLE "Happy Zombies (Paul Kalkbrenner Remix)" PERFORMER "Lexy & K-Paul" REM COMPOSER "" ISRC DEE190500035 INDEX 01 00:00:00FILE "1-03. Trentemoller - Physical Fraction.wav" WAVE TRACK 03 AUDIO TITLE "Physical Fraction" PERFORMER "Trentemoller" REM COMPOSER "" ISRC DEL020550001 INDEX 01 00:00:00FILE "1-04. Lexy - Scream When You Burn.wav" WAVE TRACK 04 AUDIO TITLE "Scream When You Burn" PERFORMER "Lexy" REM COMPOSER "" ISRC DEE190500013 INDEX 01 00:00:00FILE "1-05. Silver City - Galactic Ride (2020 Soundsystem Re-Edit).wav" WAVE TRACK 05 AUDIO TITLE "Galactic Ride (2020 Soundsystem Re-Edit)" PERFORMER "Silver City" REM COMPOSER "" INDEX 01 00:00:00FILE "1-06. Patrice Baumel - Mutant Pop.wav" WAVE TRACK 06 AUDIO TITLE "Mutant Pop" PERFORMER "Patrice Baumel" REM COMPOSER "" INDEX 01 00:00:00FILE "1-07. Davide & Pedro - Unknown 7.wav" WAVE TRACK 07 AUDIO TITLE "Unknown 7" PERFORMER "Davide & Pedro" REM COMPOSER "" INDEX 01 00:00:00FILE "1-08. Hug - The Angry Ghost.wav" WAVE TRACK 08 AUDIO TITLE "The Angry Ghost" PERFORMER "Hug" REM COMPOSER "" ISRC DEU670500087 INDEX 01 00:00:00FILE "1-09. Lexy & K-Paul - Ghost.wav" WAVE TRACK 09 AUDIO TITLE "Ghost" PERFORMER "Lexy & K-Paul" REM COMPOSER "" ISRC DEU670500087 INDEX 01 00:00:00FILE "1-10. Seymour Bits presents De Jeugd Van Tegenwoordig - Watskeburt (Dexter's Dexter Is Een Baas Edit).wav" WAVE TRACK 10 AUDIO TITLE "Watskeburt (Dexter's Dexter Is Een Baas Edit)" PERFORMER "Seymour Bits presents De Jeugd Van Tegenwoordig" REM COMPOSER "" ISRC NLL560500639 INDEX 01 00:00:00FILE "1-11. Booka Shade - Mandarine Girl.wav" WAVE TRACK 11 AUDIO TITLE "Mandarine Girl" PERFORMER "Booka Shade" REM COMPOSER "" ISRC DEBE70500127 INDEX 01 00:00:00FILE "1-12. Jurgen Paape - Cream.wav" WAVE TRACK 12 AUDIO TITLE "Cream" PERFORMER "Jurgen Paape" REM COMPOSER "" ISRC DEU670500086 INDEX 01 00:00:00FILE "1-13. Gopfrich & Gerlach - Auf Der Lauer Aua Aua.wav" WAVE TRACK 13 AUDIO TITLE "Auf Der Lauer Aua Aua" PERFORMER "Gopfrich & Gerlach" REM COMPOSER "" INDEX 01 00:00:00

Log EAC CD TWO

Exact Audio Copy V1.3 from 2. September 2016
EAC extraction logfile from 15. November 2016, 11:02
Lexy & K-Paul / U60311 Compilation CD2
Used drive : TS8XDVDRTranscend Adapter: 1 ID: 1
Read mode : SecureUtilize accurate stream : YesDefeat audio cache : YesMake use of C2 pointers : No
Read offset correction : 6Overread into Lead-In and Lead-Out : NoFill up missing offset samples with silence : YesDelete leading and trailing silent blocks : NoNull samples used in CRC calculations : YesUsed interface : Native Win32 interface for Win NT & 2000Gap handling : Appended to previous track
Used output format : User Defined EncoderSelected bitrate : 896 kBit/sQuality : HighAdd ID3 tag : NoCommand line compressor : C:\Program Files (x86)\Exact Audio Copy\Flac\flac.exeAdditional command line options : -8 -V -T "ARTIST=%artist%" -T "TITLE=%title%" -T "ALBUM=%albumtitle%" -T "DATE=%year%" -T "TRACKNUMBER=%tracknr%" -T "GENRE=%genre%" -T "PERFORMER=%albuminterpret%" -T "COMPOSER=%composer%" %haslyrics%--tag-from-file=LYRICS="%lyricsfile%"%haslyrics% -T "ALBUMARTIST=%albumartist%" -T "DISCNUMBER=%cdnumber%" -T "TOTALDISCS=%totalcds%" -T "TOTALTRACKS=%numtracks%" -T "COMMENT=%comment%" %source% -o %dest%
TOC of the extracted CD
Track | Start | Length | Start sector | End sector --------------------------------------------------------- 1 | 0:00.00 | 6:49.67 | 0 | 30741 2 | 6:49.67 | 4:20.00 | 30742 | 50241 3 | 11:09.67 | 5:17.74 | 50242 | 74090 4 | 16:27.66 | 5:20.74 | 74091 | 98164 5 | 21:48.65 | 5:23.69 | 98165 | 122458 6 | 27:12.59 | 4:11.74 | 122459 | 141357 7 | 31:24.58 | 6:06.09 | 141358 | 168816 8 | 37:30.67 | 5:20.23 | 168817 | 192839 9 | 42:51.15 | 6:05.31 | 192840 | 220245 10 | 48:56.46 | 6:46.45 | 220246 | 250740 11 | 55:43.16 | 4:42.01 | 250741 | 271891 12 | 60:25.17 | 4:41.64 | 271892 | 293030 13 | 65:07.06 | 6:32.69 | 293031 | 322499
Track 1
Filename E:\MUSIC\VA - Lexy & K-Paul - U60311 Compilation (2005) [CD-FLAC]\2-01. Artificial Latvamäki - Mänty.wav
Pre-gap length 0:00:02.00
Peak level 97.9 % Extraction speed 2.2 X Track quality 100.0 % Test CRC 35D3F6B2 Copy CRC 35D3F6B2 Accurately ripped (confidence 2) [24280475] (AR v2) Copy OK
Track 2
Filename E:\MUSIC\VA - Lexy & K-Paul - U60311 Compilation (2005) [CD-FLAC]\2-02. Gui.tar - Homeopathic Delight.wav
Peak level 97.9 % Extraction speed 2.2 X Track quality 100.0 % Test CRC 0A329171 Copy CRC 0A329171 Accurately ripped (confidence 2) [AB56E370] (AR v2) Copy OK
Track 3
Filename E:\MUSIC\VA - Lexy & K-Paul - U60311 Compilation (2005) [CD-FLAC]\2-03. Oliver Hacke - Subject Carrier (Alex Under Remix).wav
Peak level 97.9 % Extraction speed 3.3 X Track quality 100.0 % Test CRC 59B16B03 Copy CRC 59B16B03 Accurately ripped (confidence 2) [32DCEEFB] (AR v2) Copy OK
Track 4
Filename E:\MUSIC\VA - Lexy & K-Paul - U60311 Compilation (2005) [CD-FLAC]\2-04. Chelonis R. Jones - Middle Finger Music (Booka Shade Remix).wav
Peak level 97.9 % Extraction speed 3.5 X Track quality 100.0 % Test CRC 5FF564FF Copy CRC 5FF564FF Accurately ripped (confidence 2) [FE5AD629] (AR v2) Copy OK
Track 5
Filename E:\MUSIC\VA - Lexy & K-Paul - U60311 Compilation (2005) [CD-FLAC]\2-05. Marlow - Quiet (Losoul Rmx).wav
Peak level 97.9 % Extraction speed 3.7 X Track quality 100.0 % Test CRC 06490A39 Copy CRC 06490A39 Accurately ripped (confidence 2) [10234C4E] (AR v2) Copy OK
Track 6
Filename E:\MUSIC\VA - Lexy & K-Paul - U60311 Compilation (2005) [CD-FLAC]\2-06. Argy - Love Dose (Luciano Remix).wav
Peak level 97.9 % Extraction speed 3.4 X Track quality 99.9 % Test CRC ED606889 Copy CRC ED606889 Accurately ripped (confidence 2) [76C7EB37] (AR v2) Copy OK
Track 7
Filename E:\MUSIC\VA - Lexy & K-Paul - U60311 Compilation (2005) [CD-FLAC]\2-07. Phage & Daniel Dreier - Salt And Vinegar.wav
Peak level 97.9 % Extraction speed 4.2 X Track quality 100.0 % Test CRC 3090AD2E Copy CRC 3090AD2E Accurately ripped (confidence 2) [808D928A] (AR v2) Copy OK
Track 8
Filename E:\MUSIC\VA - Lexy & K-Paul - U60311 Compilation (2005) [CD-FLAC]\2-08. Håkan Lidbo - Televinken.wav
Peak level 97.9 % Extraction speed 4.3 X Track quality 100.0 % Test CRC 554223D6 Copy CRC 554223D6 Accurately ripped (confidence 2) [5CDAF40A] (AR v2) Copy OK
Track 9
Filename E:\MUSIC\VA - Lexy & K-Paul - U60311 Compilation (2005) [CD-FLAC]\2-09. Konrad Black & Ghostman - Medusa Smile (Don't Look Back...).wav
Peak level 97.9 % Extraction speed 4.6 X Track quality 100.0 % Test CRC 4E8F70A7 Copy CRC 4E8F70A7 Accurately ripped (confidence 2) [5E62BAFC] (AR v2) Copy OK
Track 10
Filename E:\MUSIC\VA - Lexy & K-Paul - U60311 Compilation (2005) [CD-FLAC]\2-10. Robag Wruhme - Wortkabular (Luciano Remix).wav
Peak level 97.9 % Extraction speed 4.9 X Track quality 100.0 % Test CRC BCEFA45C Copy CRC BCEFA45C Accurately ripped (confidence 2) [39F88C57] (AR v2) Copy OK
Track 11
Filename E:\MUSIC\VA - Lexy & K-Paul - U60311 Compilation (2005) [CD-FLAC]\2-11. Alex Under - Aditah, La Granjerita.wav
Peak level 97.9 % Extraction speed 4.9 X Track quality 100.0 % Test CRC 18E96AF0 Copy CRC 18E96AF0 Accurately ripped (confidence 2) [1BFF01C0] (AR v2) Copy OK
Track 12
Filename E:\MUSIC\VA - Lexy & K-Paul - U60311 Compilation (2005) [CD-FLAC]\2-12. Hello Trouble - Hello Trouble.wav
Peak level 97.9 % Extraction speed 4.5 X Track quality 99.9 % Test CRC 35CAA7DE Copy CRC 35CAA7DE Accurately ripped (confidence 2) [C4B32D61] (AR v2) Copy OK
Track 13
Filename E:\MUSIC\VA - Lexy & K-Paul - U60311 Compilation (2005) [CD-FLAC]\2-13. Metope - M1D1.wav
Peak level 97.9 % Extraction speed 4.4 X Track quality 100.0 % Test CRC C5417C1B Copy CRC C5417C1B Accurately ripped (confidence 2) [894B8DE7] (AR v2) Copy OK
All tracks accurately ripped
No errors occurred
End of status report
---- CUETools DB Plugin V2.1.6
[CTDB TOCID: rELXcFTz6cBpAFMMnTh2aVChp5Q-] foundSubmit result: rELXcFTz6cBpAFMMnTh2aVChp5Q- has been confirmedTrack | CTDB Status 1 | (3/3) Accurately ripped 2 | (3/3) Accurately ripped 3 | (3/3) Accurately ripped 4 | (3/3) Accurately ripped 5 | (3/3) Accurately ripped 6 | (3/3) Accurately ripped 7 | (3/3) Accurately ripped 8 | (3/3) Accurately ripped 9 | (3/3) Accurately ripped 10 | (3/3) Accurately ripped 11 | (3/3) Accurately ripped 12 | (3/3) Accurately ripped 13 | (3/3) Accurately ripped
==== Log checksum 3FFFB8A9BCF452C5A8DB6147E32313381885166CA99F5CB714229A626BD2936C ====

CUE

REM GENRE "Techno, Electro, Tech House, Minimal"REM DATE 2005REM DISCID C210CC0DREM COMMENT "ExactAudioCopy v1.3"PERFORMER "Lexy & K-Paul"TITLE "U60311 Compilation CD2"REM COMPOSER ""FILE "2-01. Artificial Latvamaki - Manty.wav" WAVE TRACK 01 AUDIO TITLE "Manty" PERFORMER "Artificial Latvamaki" REM COMPOSER "" INDEX 01 00:00:00FILE "2-02. Gui.tar - Homeopathic Delight.wav" WAVE TRACK 02 AUDIO TITLE "Homeopathic Delight" PERFORMER "Gui.tar" REM COMPOSER "" INDEX 01 00:00:00FILE "2-03. Oliver Hacke - Subject Carrier (Alex Under Remix).wav" WAVE TRACK 03 AUDIO TITLE "Subject Carrier (Alex Under Remix)" PERFORMER "Oliver Hacke" REM COMPOSER "" INDEX 01 00:00:00FILE "2-04. Chelonis R. Jones - Middle Finger Music (Booka Shade Remix).wav" WAVE TRACK 04 AUDIO TITLE "Middle Finger Music (Booka Shade Remix)" PERFORMER "Chelonis R. Jones" REM COMPOSER "" ISRC DEBE70500132 INDEX 01 00:00:00FILE "2-05. Marlow - Quiet (Losoul Rmx).wav" WAVE TRACK 05 AUDIO TITLE "Quiet (Losoul Rmx)" PERFORMER "Marlow" REM COMPOSER "" ISRC DEX040500002 INDEX 01 00:00:00FILE "2-06. Argy - Love Dose (Luciano Remix).wav" WAVE TRACK 06 AUDIO TITLE "Love Dose (Luciano Remix)" PERFORMER "Argy" REM COMPOSER "" ISRC DEL020520029 INDEX 01 00:00:00FILE "2-07. Phage & Daniel Dreier - Salt And Vinegar.wav" WAVE TRACK 07 AUDIO TITLE "Salt And Vinegar" PERFORMER "Phage & Daniel Dreier" REM COMPOSER "" INDEX 01 00:00:00FILE "2-08. Hakan Lidbo - Televinken.wav" WAVE TRACK 08 AUDIO TITLE "Televinken" PERFORMER "Hakan Lidbo" REM COMPOSER "" ISRC DEL029920004 INDEX 01 00:00:00FILE "2-09. Konrad Black & Ghostman - Medusa Smile (Don't Look Back...).wav" WAVE TRACK 09 AUDIO TITLE "Medusa Smile (Don't Look Back...)" PERFORMER "Konrad Black & Ghostman" REM COMPOSER "" ISRC CAW290500014 INDEX 01 00:00:00FILE "2-10. Robag Wruhme - Wortkabular (Luciano Remix).wav" WAVE TRACK 10 AUDIO TITLE "Wortkabular (Luciano Remix)" PERFORMER "Robag Wruhme" REM COMPOSER "" INDEX 01 00:00:00FILE "2-11. Alex Under - Aditah, La Granjerita.wav" WAVE TRACK 11 AUDIO TITLE "Aditah, La Granjerita" PERFORMER "Alex Under" REM COMPOSER "" INDEX 01 00:00:00FILE "2-12. Hello Trouble - Hello Trouble.wav" WAVE TRACK 12 AUDIO TITLE "Hello Trouble" PERFORMER "Hello Trouble" REM COMPOSER "" INDEX 01 00:00:00FILE "2-13. Metope - M1D1.wav" WAVE TRACK 13 AUDIO TITLE "M1D1" PERFORMER "Metope" REM COMPOSER "" ISRC DEBW60500008 INDEX 01 00:00:00

2007 - Trash Like Us (4250117607807)

Продолжительность: 71:18
01 Lexy & K-Paul - Hallo [03:37]
02 Lexy & K-Paul - Wide Road (feat. Dorian E.) [05:34]
03 Lexy & K-Paul - Trash Like Us [06:27]
04 Lexy & K-Paul - Housearrest [05:08]
05 Lexy & K-Paul - Bullet [04:33]
06 Lexy & K-Paul - The Clap [04:00]
07 Lexy & K-Paul - Ponyboy [05:03]
08 Lexy & K-Paul - Gettin Nasty [04:50]
09 Lexy & K-Paul - Church Of Rave [06:19]
10 Lexy & K-Paul - Hotel Morgentau [03:55]
11 Lexy & K-Paul - Sekunden [04:31]
12 Lexy & K-Paul - Barbara Breeze [03:12]
13 Lexy & K-Paul - Playa Nueva [07:47]
14 Lexy & K-Paul - The Edge [05:32]
15 Lexy & K-Paul - Outro [00:45]

auCDtect

-----------------------
DON'T MODIFY THIS FILE
-----------------------
PERFORMER: auCDtect Task Manager, ver. 1.5.1RC4 build 1.5.1.5Copyright (c) 2008-2010 y-soft. All rights reservedhttp://y-soft.org
ANALYZER: auCDtect: CD records authenticity detector, version 0.8.2Copyright (c) 2004 Oleg Berngardt. All rights reserved.Copyright (c) 2004 Alexander Djourik. All rights reserved.
FILE: 15 - Outro.flac Size: 3095292 Hash: BC73EF06F0D13F02B6B5069821E1D0FB Accuracy: -m0 Conclusion: CDDA 100% Signature: 42F5307973EA8CA7C0242C9C69D33105EA43FACAFILE: 14 - The Edge.flac Size: 33307895 Hash: 6F12C495C171134CE39F2AF96040CE08 Accuracy: -m0 Conclusion: CDDA 100% Signature: D3578496D1597E67BDB3FC4461CBC68F3FA99BD1FILE: 13 - Playa Nueva.flac Size: 43488142 Hash: E826FBC05D08AF4A413220DB1A3AF67D Accuracy: -m0 Conclusion: CDDA 100% Signature: 1139184F87DD6B1D23D27E79E18519EBF8E5465FFILE: 12 - Barbara Breeze.flac Size: 21358077 Hash: 4D6F92FF2170C6D5F226C9C0CDED8643 Accuracy: -m0 Conclusion: CDDA 100% Signature: F528C3D052B9BEEF6678D0E1F7BDD59CBDF8563EFILE: 11 - Sekunden.flac Size: 25925875 Hash: A316F8119EB60F3D20AA33E21141CC2F Accuracy: -m0 Conclusion: CDDA 99% Signature: 69CCE73A305499CA08A25357F029ECAF7459FD60FILE: 10 - Hotel Morgentau.flac Size: 24100018 Hash: 04CC03A4844CAFEFCFB69974F4E79756 Accuracy: -m0 Conclusion: CDDA 100% Signature: DB99FF945BF2A1439BA0C42ABC9628F251C6E7F5FILE: 09 - Church Of Rave.flac Size: 40198628 Hash: 74AE39C4F25C28139072BFA3BCFCB77D Accuracy: -m0 Conclusion: CDDA 100% Signature: D21243525BB01F81A5EEA45E82A8FA648BD52242FILE: 08 - Gettin Nasty.flac Size: 29113896 Hash: 546C217876B2FAF145DBABFF1E3F89E4 Accuracy: -m0 Conclusion: CDDA 100% Signature: 9D1B493EE356C60AA820D28B021DA2F8C9D24DFAFILE: 07 - Ponyboy.flac Size: 30358426 Hash: 0EE43F1F5C41C3E8E9FB4026FE5F6029 Accuracy: -m0 Conclusion: CDDA 100% Signature: 6013DE0D4FBF3D716CF060DADDCE933DE926B7CFFILE: 06 - The Clap.flac Size: 26806950 Hash: CF362CD06A6879A6B05CC4DD031F0521 Accuracy: -m0 Conclusion: CDDA 100% Signature: 19354BD0144575366C757578392B2EBC1811FD0EFILE: 05 - Bullet.flac Size: 27117936 Hash: BDAA6E9D5F9CC4E18FC117D24F7E7BEC Accuracy: -m0 Conclusion: CDDA 100% Signature: 57C2FDB67A87253057EAE5EE34E872E58C139253FILE: 04 - Housearrest.flac Size: 28899846 Hash: F815C28287ABA995D7AF472657E75EFF Accuracy: -m0 Conclusion: CDDA 100% Signature: 54204408F9A5B62CD59817EBB5CE8BB59A57A65EFILE: 03 - Trash Like Us.flac Size: 41848959 Hash: 854CD25E2F07194050B71B68CB40F7C6 Accuracy: -m0 Conclusion: CDDA 99% Signature: 83D36AC6D36EB0C1D9059E2F14DDCDCEB162D131FILE: 02 - Wide Road (feat. Dorian E.).flac Size: 35798218 Hash: 52ED0F6700503F14E2FE806751547B5A Accuracy: -m0 Conclusion: CDDA 100% Signature: 3F78C918807528580982192099B76DE5C9827389FILE: 01 - Hallo.flac Size: 18491577 Hash: E688316E14B6D7563D682F89102496F6 Accuracy: -m0 Conclusion: CDDA 100% Signature: 55CFF810DF06DF1B6E719878B3190BC99919F0FD
2007 - Lexy & K-Paul - Trash Like Us [K607]
Продолжительность: 60:03
01. Lexy & K-Paul - Hallo [3:11]
02. Lexy & K-Paul - Wide Road [4:15]
03. Lexy & K-Paul - Trash Like Us [4:30]
04. Lexy & K-Paul - Housearrest [3:14]
05. Lexy & K-Paul - Bullet [4:56]
06. Lexy & K-Paul - The Clap [2:23]
07. Lexy & K-Paul - Ponyboy [4:00]
08. Lexy & K-Paul - Gettin Nasty [3:46]
09. Lexy & K-Paul - Church Of Rave [3:49]
10. Lexy & K-Paul - Hotel Morgentau [4:05]
11. Lexy & K-Paul - Sekunden [4:27]
12. Lexy & K-Paul - Barbara Breeze [2:19]
13. Lexy & K-Paul - Playa Nueva [7:17]
14. Lexy & K-Paul - The Edge [4:58]
15. Lexy & K-Paul - Outro [2:53]

log and sheetLog

Exact Audio Copy V1.3 from 2. September 2016
EAC extraction logfile from 8. September 2017, 18:59
Lexy & K-Paul / Trash Like Us
Used drive : ASUS DRW-24B5ST Adapter: 6 ID: 0
Read mode : SecureUtilize accurate stream : YesDefeat audio cache : YesMake use of C2 pointers : No
Read offset correction : 6Overread into Lead-In and Lead-Out : NoFill up missing offset samples with silence : YesDelete leading and trailing silent blocks : NoNull samples used in CRC calculations : YesUsed interface : Installed external ASPI interfaceGap handling : Appended to previous track
Used output format : User Defined EncoderSelected bitrate : 128 kBit/sQuality : HighAdd ID3 tag : NoCommand line compressor : D:\flac-1.3.2-win\win64\flac.exeAdditional command line options : -8 -V -T "ARTIST=%artist%" -T "TITLE=%title%" -T "ALBUM=%albumtitle%" -T "DATE=%year%" -T "TRACKNUMBER=%tracknr%" -T "GENRE=%genre%" -T "COMMENT=ripped by Andy aka yetiisyou" %source%
TOC of the extracted CD
Track | Start | Length | Start sector | End sector --------------------------------------------------------- 1 | 0:00.00 | 3:11.00 | 0 | 14324 2 | 3:11.00 | 4:15.00 | 14325 | 33449 3 | 7:26.00 | 4:30.00 | 33450 | 53699 4 | 11:56.00 | 3:14.00 | 53700 | 68249 5 | 15:10.00 | 4:56.00 | 68250 | 90449 6 | 20:06.00 | 2:23.00 | 90450 | 101174 7 | 22:29.00 | 4:00.00 | 101175 | 119174 8 | 26:29.00 | 3:46.00 | 119175 | 136124 9 | 30:15.00 | 3:49.00 | 136125 | 153299 10 | 34:04.00 | 4:05.00 | 153300 | 171674 11 | 38:09.00 | 4:27.00 | 171675 | 191699 12 | 42:36.00 | 2:19.00 | 191700 | 202124 13 | 44:55.00 | 7:17.00 | 202125 | 234899 14 | 52:12.00 | 4:58.00 | 234900 | 257249 15 | 57:10.00 | 2:52.74 | 257250 | 270223 16 | 62:34.74 | 4:39.70 | 281624 | 302618
Track 1
Filename E:\!Ripped by Andy aka yetiisyou\2007 - Lexy & K-Paul - Trash Like Us [K607]\01. Lexy & K-Paul - Hallo.wav
Pre-gap length 0:00:02.00
Peak level 100.0 % Extraction speed 1.9 X Track quality 100.0 % Test CRC 6F9650B0 Copy CRC 6F9650B0 Track not present in AccurateRip database Copy OK
Track 2
Filename E:\!Ripped by Andy aka yetiisyou\2007 - Lexy & K-Paul - Trash Like Us [K607]\02. Lexy & K-Paul - Wide Road.wav
Peak level 100.0 % Extraction speed 2.0 X Track quality 100.0 % Test CRC 3BA0F152 Copy CRC 3BA0F152 Track not present in AccurateRip database Copy OK
Track 3
Filename E:\!Ripped by Andy aka yetiisyou\2007 - Lexy & K-Paul - Trash Like Us [K607]\03. Lexy & K-Paul - Trash Like Us.wav
Peak level 100.0 % Extraction speed 2.4 X Track quality 100.0 % Test CRC F43B7D33 Copy CRC F43B7D33 Track not present in AccurateRip database Copy OK
Track 4
Filename E:\!Ripped by Andy aka yetiisyou\2007 - Lexy & K-Paul - Trash Like Us [K607]\04. Lexy & K-Paul - Housearrest.wav
Peak level 100.0 % Extraction speed 2.4 X Track quality 100.0 % Test CRC 80C168B1 Copy CRC 80C168B1 Track not present in AccurateRip database Copy OK
Track 5
Filename E:\!Ripped by Andy aka yetiisyou\2007 - Lexy & K-Paul - Trash Like Us [K607]\05. Lexy & K-Paul - Bullet.wav
Peak level 100.0 % Extraction speed 2.8 X Track quality 100.0 % Test CRC 107FF72E Copy CRC 107FF72E Track not present in AccurateRip database Copy OK
Track 6
Filename E:\!Ripped by Andy aka yetiisyou\2007 - Lexy & K-Paul - Trash Like Us [K607]\06. Lexy & K-Paul - The Clap.wav
Peak level 100.0 % Extraction speed 2.6 X Track quality 100.0 % Test CRC 792D86C3 Copy CRC 792D86C3 Track not present in AccurateRip database Copy OK
Track 7
Filename E:\!Ripped by Andy aka yetiisyou\2007 - Lexy & K-Paul - Trash Like Us [K607]\07. Lexy & K-Paul - Ponyboy.wav
Peak level 100.0 % Extraction speed 2.1 X Track quality 99.9 % Test CRC 70A1236C Copy CRC 70A1236C Track not present in AccurateRip database Copy OK
Track 8
Filename E:\!Ripped by Andy aka yetiisyou\2007 - Lexy & K-Paul - Trash Like Us [K607]\08. Lexy & K-Paul - Gettin Nasty.wav
Peak level 100.0 % Extraction speed 3.0 X Track quality 100.0 % Test CRC CCB0838F Copy CRC CCB0838F Track not present in AccurateRip database Copy OK
Track 9
Filename E:\!Ripped by Andy aka yetiisyou\2007 - Lexy & K-Paul - Trash Like Us [K607]\09. Lexy & K-Paul - Church Of Rave.wav
Peak level 100.0 % Extraction speed 3.2 X Track quality 100.0 % Test CRC 1FB0F428 Copy CRC 1FB0F428 Track not present in AccurateRip database Copy OK
Track 10
Filename E:\!Ripped by Andy aka yetiisyou\2007 - Lexy & K-Paul - Trash Like Us [K607]\10. Lexy & K-Paul - Hotel Morgentau.wav
Peak level 100.0 % Extraction speed 2.5 X Track quality 99.9 % Test CRC B73984D6 Copy CRC B73984D6 Track not present in AccurateRip database Copy OK
Track 11
Filename E:\!Ripped by Andy aka yetiisyou\2007 - Lexy & K-Paul - Trash Like Us [K607]\11. Lexy & K-Paul - Sekunden.wav
Peak level 100.0 % Extraction speed 3.5 X Track quality 100.0 % Test CRC D3845F2F Copy CRC D3845F2F Track not present in AccurateRip database Copy OK
Track 12
Filename E:\!Ripped by Andy aka yetiisyou\2007 - Lexy & K-Paul - Trash Like Us [K607]\12. Lexy & K-Paul - Barbara Breeze.wav
Peak level 100.0 % Extraction speed 3.2 X Track quality 100.0 % Test CRC 4AA12787 Copy CRC 4AA12787 Track not present in AccurateRip database Copy OK
Track 13
Filename E:\!Ripped by Andy aka yetiisyou\2007 - Lexy & K-Paul - Trash Like Us [K607]\13. Lexy & K-Paul - Playa Nueva.wav
Peak level 100.0 % Extraction speed 3.9 X Track quality 100.0 % Test CRC 6AF2BD24 Copy CRC 6AF2BD24 Track not present in AccurateRip database Copy OK
Track 14
Filename E:\!Ripped by Andy aka yetiisyou\2007 - Lexy & K-Paul - Trash Like Us [K607]\14. Lexy & K-Paul - The Edge.wav
Peak level 100.0 % Extraction speed 3.9 X Track quality 100.0 % Test CRC 88DFE27B Copy CRC 88DFE27B Track not present in AccurateRip database Copy OK
Track 15
Filename E:\!Ripped by Andy aka yetiisyou\2007 - Lexy & K-Paul - Trash Like Us [K607]\15. Lexy & K-Paul - Outro.wav
Peak level 95.6 % Extraction speed 2.5 X Track quality 99.9 % Test CRC 2EFDCDD6 Copy CRC 2EFDCDD6 Track not present in AccurateRip database Copy OK
None of the tracks are present in the AccurateRip database
No errors occurred
End of status report
---- CUETools DB Plugin V2.1.6
[CTDB TOCID: WKt_2WpVgsGcBCrzzkYPU2WlXcU-] disk not present in databaseSubmit result: WKt_2WpVgsGcBCrzzkYPU2WlXcU- has been uploaded
==== Log checksum F1782910F041A9D2C97BEFE50D9F47C7D42F7D7A412EB60361433B607F90AEA0 ====

CUE

REM DATE 2007REM DISCID E30FC210REM COMMENT "ExactAudioCopy v1.3"PERFORMER "Lexy & K-Paul"TITLE "Trash Like Us"REM COMPOSER ""FILE "01. Lexy & K-Paul - Hallo.wav" WAVE TRACK 01 AUDIO TITLE "Hallo" PERFORMER "Lexy & K-Paul" REM COMPOSER "" FLAGS DCP INDEX 01 00:00:00FILE "02. Lexy & K-Paul - Wide Road.wav" WAVE TRACK 02 AUDIO TITLE "Wide Road" PERFORMER "Lexy & K-Paul" REM COMPOSER "" FLAGS DCP INDEX 01 00:00:00FILE "03. Lexy & K-Paul - Trash Like Us.wav" WAVE TRACK 03 AUDIO TITLE "Trash Like Us" PERFORMER "Lexy & K-Paul" REM COMPOSER "" FLAGS DCP INDEX 01 00:00:00FILE "04. Lexy & K-Paul - Housearrest.wav" WAVE TRACK 04 AUDIO TITLE "Housearrest" PERFORMER "Lexy & K-Paul" REM COMPOSER "" FLAGS DCP INDEX 01 00:00:00FILE "05. Lexy & K-Paul - Bullet.wav" WAVE TRACK 05 AUDIO TITLE "Bullet" PERFORMER "Lexy & K-Paul" REM COMPOSER "" FLAGS DCP INDEX 01 00:00:00FILE "06. Lexy & K-Paul - The Clap.wav" WAVE TRACK 06 AUDIO TITLE "The Clap" PERFORMER "Lexy & K-Paul" REM COMPOSER "" FLAGS DCP INDEX 01 00:00:00FILE "07. Lexy & K-Paul - Ponyboy.wav" WAVE TRACK 07 AUDIO TITLE "Ponyboy" PERFORMER "Lexy & K-Paul" REM COMPOSER "" FLAGS DCP INDEX 01 00:00:00FILE "08. Lexy & K-Paul - Gettin Nasty.wav" WAVE TRACK 08 AUDIO TITLE "Gettin Nasty" PERFORMER "Lexy & K-Paul" REM COMPOSER "" FLAGS DCP INDEX 01 00:00:00FILE "09. Lexy & K-Paul - Church Of Rave.wav" WAVE TRACK 09 AUDIO TITLE "Church Of Rave" PERFORMER "Lexy & K-Paul" REM COMPOSER "" FLAGS DCP INDEX 01 00:00:00FILE "10. Lexy & K-Paul - Hotel Morgentau.wav" WAVE TRACK 10 AUDIO TITLE "Hotel Morgentau" PERFORMER "Lexy & K-Paul" REM COMPOSER "" FLAGS DCP INDEX 01 00:00:00FILE "11. Lexy & K-Paul - Sekunden.wav" WAVE TRACK 11 AUDIO TITLE "Sekunden" PERFORMER "Lexy & K-Paul" REM COMPOSER "" FLAGS DCP INDEX 01 00:00:00FILE "12. Lexy & K-Paul - Barbara Breeze.wav" WAVE TRACK 12 AUDIO TITLE "Barbara Breeze" PERFORMER "Lexy & K-Paul" REM COMPOSER "" FLAGS DCP INDEX 01 00:00:00FILE "13. Lexy & K-Paul - Playa Nueva.wav" WAVE TRACK 13 AUDIO TITLE "Playa Nueva" PERFORMER "Lexy & K-Paul" REM COMPOSER "" FLAGS DCP INDEX 01 00:00:00FILE "14. Lexy & K-Paul - The Edge.wav" WAVE TRACK 14 AUDIO TITLE "The Edge" PERFORMER "Lexy & K-Paul" REM COMPOSER "" FLAGS DCP INDEX 01 00:00:00FILE "15. Lexy & K-Paul - Outro.wav" WAVE TRACK 15 AUDIO TITLE "Outro" PERFORMER "Lexy & K-Paul" REM COMPOSER "" FLAGS DCP INDEX 01 00:00:00 TRACK 16 MODEx/2xxx TITLE "Track16" PERFORMER "Lexy & K-Paul" REM COMPOSER "" INDEX 00 02:52:74
2007 - Trash Like Us (Limited Edition) [0181912KON]
Продолжительность: 01:48:01
CD 1
01. Lexy & K-Paul - Hallo [03:33]
02. Lexy & K-Paul - Wide road [05:29]
03. Lexy & K-Paul - Trash like us [06:26]
04. Lexy & K-Paul - Housearrest [05:07]
05. Lexy & K-Paul - Bullet [04:35]
06. Lexy & K-Paul - The clap [03:59]
07. Lexy & K-Paul - Ponyboy [05:04]
08. Lexy & K-Paul - Gettin nasty [04:51]
09. Lexy & K-Paul - Church of rave [06:11]
10. Lexy & K-Paul - Hotel Morgentau [03:53]
11. Lexy & K-Paul - Sekunden [04:29]
12. Lexy & K-Paul - Barbara Breeze [03:12]
13. Lexy & K-Paul - Playa Nueva [07:45]
14. Lexy & K-Paul - The edge [05:25]
15. Lexy & K-Paul - Outro [00:44]
CD 2
01. Lexy & K-Paul - Lost In You [04:26]
02. Lexy & K-Paul - Fly [07:21]
03. Lexy & K-Paul - Happy Zombies [06:39]
04. Lexy & K-Paul - Das Fröhliche Lied [05:08]
05. Lexy & K-Paul - Unbelievable [04:14]
06. Lexy & K-Paul - Ponyboy (Remix) [06:40]
07. Lexy & K-Paul - Obst Und Karate [02:59]

log and sheetLog

Exact Audio Copy V1.1 from 23. June 2015
EAC extraction logfile from 5. December 2015, 14:33
Lexy & K-Paul / Trash Like Us
Used drive : HL-DT-STDVDRAM GT60N Adapter: 1 ID: 2
Read mode : SecureUtilize accurate stream : YesDefeat audio cache : YesMake use of C2 pointers : No
Read offset correction : 103Overread into Lead-In and Lead-Out : NoFill up missing offset samples with silence : YesDelete leading and trailing silent blocks : NoNull samples used in CRC calculations : YesUsed interface : Native Win32 interface for Win NT & 2000Gap handling : Appended to previous track
Used output format : User Defined EncoderSelected bitrate : 320 kBit/sQuality : HighAdd ID3 tag : YesCommand line compressor : C:\Program Files (x86)\Exact Audio Copy\Flac\flac.exeAdditional command line options : -8 -V -T "ARTIST=%artist%" -T "TITLE=%title%" -T "ALBUM=%albumtitle%" -T "DATE=%year%" -T "TRACKNUMBER=%tracknr%" -T "GENRE=%genre%" -T "PERFORMER=%albuminterpret%" -T "COMPOSER=%composer%" %haslyrics%--tag-from-file=LYRICS="%lyricsfile%"%haslyrics% -T "ALBUMARTIST=%albumartist%" -T "DISCNUMBER=%cdnumber%" -T "TOTALDISCS=%totalcds%" -T "TOTALTRACKS=%numtracks%" -T "COMMENT=%comment%" %source% -o %dest%
TOC of the extracted CD
Track | Start | Length | Start sector | End sector --------------------------------------------------------- 1 | 0:00.00 | 3:32.71 | 0 | 15970 2 | 3:32.71 | 5:28.61 | 15971 | 40631 3 | 9:01.57 | 6:25.37 | 40632 | 69543 4 | 15:27.19 | 5:06.52 | 69544 | 92545 5 | 20:33.71 | 4:34.61 | 92546 | 113156 6 | 25:08.57 | 3:58.62 | 113157 | 131068 7 | 29:07.44 | 5:03.04 | 131069 | 153797 8 | 34:10.48 | 4:50.54 | 153798 | 175601 9 | 39:01.27 | 6:10.73 | 175602 | 203424 10 | 45:12.25 | 3:52.32 | 203425 | 220856 11 | 49:04.57 | 4:29.00 | 220857 | 241031 12 | 53:33.57 | 3:11.14 | 241032 | 255370 13 | 56:44.71 | 7:44.15 | 255371 | 290185 14 | 64:29.11 | 5:24.68 | 290186 | 314553 15 | 69:54.04 | 0:43.06 | 314554 | 317784
Track 1
Filename J:\EAC Rips\Lexy & K-Paul - Trash Like Us (2007)\01 - Hallo.wav
Pre-gap length 0:00:02.00
Peak level 93.3 % Extraction speed 1.2 X Track quality 100.0 % Test CRC CB9D1E8A Copy CRC CB9D1E8A Accurately ripped (confidence 6) [3389B7AD] (AR v2) Copy OK
Track 2
Filename J:\EAC Rips\Lexy & K-Paul - Trash Like Us (2007)\02 - Wide road.wav
Peak level 93.3 % Extraction speed 1.4 X Track quality 100.0 % Test CRC 7F36BB0E Copy CRC 7F36BB0E Accurately ripped (confidence 6) [67C68755] (AR v2) Copy OK
Track 3
Filename J:\EAC Rips\Lexy & K-Paul - Trash Like Us (2007)\03 - Trash like us.wav
Pre-gap length 0:00:00.01
Peak level 93.3 % Extraction speed 1.6 X Track quality 100.0 % Test CRC A340B85D Copy CRC A340B85D Accurately ripped (confidence 6) [2A3FC545] (AR v2) Copy OK
Track 4
Filename J:\EAC Rips\Lexy & K-Paul - Trash Like Us (2007)\04 - Housearrest.wav
Peak level 93.3 % Extraction speed 1.7 X Track quality 100.0 % Test CRC 14666848 Copy CRC 14666848 Accurately ripped (confidence 6) [A55CA45F] (AR v2) Copy OK
Track 5
Filename J:\EAC Rips\Lexy & K-Paul - Trash Like Us (2007)\05 - Bullet.wav
Peak level 93.3 % Extraction speed 1.8 X Track quality 100.0 % Test CRC 566EE794 Copy CRC 566EE794 Accurately ripped (confidence 6) [3983A02A] (AR v2) Copy OK
Track 6
Filename J:\EAC Rips\Lexy & K-Paul - Trash Like Us (2007)\06 - The clap.wav
Pre-gap length 0:00:01.10
Peak level 93.3 % Extraction speed 1.9 X Track quality 100.0 % Test CRC 04137C6A Copy CRC 04137C6A Accurately ripped (confidence 6) [2224B8CD] (AR v2) Copy OK
Track 7
Filename J:\EAC Rips\Lexy & K-Paul - Trash Like Us (2007)\07 - Ponyboy.wav
Peak level 93.3 % Extraction speed 2.0 X Track quality 100.0 % Test CRC 5EEE9233 Copy CRC 5EEE9233 Accurately ripped (confidence 6) [CF39B41F] (AR v2) Copy OK
Track 8
Filename J:\EAC Rips\Lexy & K-Paul - Trash Like Us (2007)\08 - Gettin nasty.wav
Peak level 93.3 % Extraction speed 2.1 X Track quality 100.0 % Test CRC 4A62421B Copy CRC 4A62421B Accurately ripped (confidence 6) [336AD97D] (AR v2) Copy OK
Track 9
Filename J:\EAC Rips\Lexy & K-Paul - Trash Like Us (2007)\09 - Church of rave.wav
Peak level 93.3 % Extraction speed 2.3 X Track quality 100.0 % Test CRC 51834CA9 Copy CRC 51834CA9 Accurately ripped (confidence 6) [B99D42F4] (AR v2) Copy OK
Track 10
Filename J:\EAC Rips\Lexy & K-Paul - Trash Like Us (2007)\10 - Hotel Morgentau.wav
Peak level 93.3 % Extraction speed 2.3 X Track quality 100.0 % Test CRC F9625838 Copy CRC F9625838 Accurately ripped (confidence 6) [9B464A4C] (AR v2) Copy OK
Track 11
Filename J:\EAC Rips\Lexy & K-Paul - Trash Like Us (2007)\11 - Sekunden.wav
Peak level 93.3 % Extraction speed 2.4 X Track quality 100.0 % Test CRC E7E36FCC Copy CRC E7E36FCC Accurately ripped (confidence 6) [3113F7A8] (AR v2) Copy OK
Track 12
Filename J:\EAC Rips\Lexy & K-Paul - Trash Like Us (2007)\12 - Barbara Breeze.wav
Peak level 93.3 % Extraction speed 2.3 X Track quality 100.0 % Test CRC 867D360F Copy CRC 867D360F Accurately ripped (confidence 5) [2F07319D] (AR v2) Copy OK
Track 13
Filename J:\EAC Rips\Lexy & K-Paul - Trash Like Us (2007)\13 - Playa Nueva.wav
Pre-gap length 0:00:00.05
Peak level 93.3 % Extraction speed 2.7 X Track quality 100.0 % Test CRC 2088CCBC Copy CRC 2088CCBC Accurately ripped (confidence 5) [4F2FDABC] (AR v2) Copy OK
Track 14
Filename J:\EAC Rips\Lexy & K-Paul - Trash Like Us (2007)\14 - The edge.wav
Pre-gap length 0:00:00.13
Peak level 93.3 % Extraction speed 2.6 X Track quality 100.0 % Test CRC 1B41F13D Copy CRC 1B41F13D Accurately ripped (confidence 7) [5AB43BAE] (AR v2) Copy OK
Track 15
Filename J:\EAC Rips\Lexy & K-Paul - Trash Like Us (2007)\15 - Outro.wav
Peak level 68.4 % Extraction speed 1.6 X Track quality 100.0 % Test CRC 6492E8EC Copy CRC 6492E8EC Accurately ripped (confidence 7) [C2678F76] (AR v2) Copy OK
All tracks accurately ripped
No errors occurred
End of status report
---- CUETools DB Plugin V2.1.6
[CTDB TOCID: DG_NsExDECswjqPxyIiG8zAjHOk-] foundSubmit result: DG_NsExDECswjqPxyIiG8zAjHOk- has been confirmedTrack | CTDB Status 1 | (7/7) Accurately ripped 2 | (7/7) Accurately ripped 3 | (7/7) Accurately ripped 4 | (7/7) Accurately ripped 5 | (7/7) Accurately ripped 6 | (7/7) Accurately ripped 7 | (7/7) Accurately ripped 8 | (7/7) Accurately ripped 9 | (7/7) Accurately ripped 10 | (7/7) Accurately ripped 11 | (7/7) Accurately ripped 12 | (6/7) Accurately ripped 13 | (6/7) Accurately ripped 14 | (7/7) Accurately ripped 15 | (7/7) Accurately ripped
==== Log checksum 46637EE337A9D161F4E2C20BCF914AB3AACFF98D339AEEB9C97FC2B2113F4CD0 ====

CUE

REM GENRE ElectronicREM DATE 2007REM DISCID C7108D0FREM COMMENT "ExactAudioCopy v1.1"PERFORMER "Lexy & K-Paul"TITLE "Trash Like Us"FILE "01 - Hallo.wav" WAVE TRACK 01 AUDIO TITLE "Hallo" PERFORMER "Lexy & K-Paul" ISRC DEN607000403 INDEX 01 00:00:00FILE "02 - Wide road.wav" WAVE TRACK 02 AUDIO TITLE "Wide road" PERFORMER "Lexy & K-Paul" ISRC DEN607000211 INDEX 01 00:00:00 TRACK 03 AUDIO TITLE "Trash like us" PERFORMER "Lexy & K-Paul" ISRC DEN607000412 INDEX 00 05:28:60FILE "03 - Trash like us.wav" WAVE INDEX 01 00:00:00FILE "04 - Housearrest.wav" WAVE TRACK 04 AUDIO TITLE "Housearrest" PERFORMER "Lexy & K-Paul" ISRC DEN607000413 INDEX 01 00:00:00FILE "05 - Bullet.wav" WAVE TRACK 05 AUDIO TITLE "Bullet" PERFORMER "Lexy & K-Paul" ISRC DEN607000414 INDEX 01 00:00:00 TRACK 06 AUDIO TITLE "The clap" PERFORMER "Lexy & K-Paul" ISRC DEN607000415 INDEX 00 04:33:53FILE "06 - The clap.wav" WAVE INDEX 01 00:00:00FILE "07 - Ponyboy.wav" WAVE TRACK 07 AUDIO TITLE "Ponyboy" PERFORMER "Lexy & K-Paul" ISRC DEN607000416 INDEX 01 00:00:00FILE "08 - Gettin nasty.wav" WAVE TRACK 08 AUDIO TITLE "Gettin nasty" PERFORMER "Lexy & K-Paul" ISRC DEN607000417 INDEX 01 00:00:00FILE "09 - Church of rave.wav" WAVE TRACK 09 AUDIO TITLE "Church of rave" PERFORMER "Lexy & K-Paul" ISRC DEN607000418 INDEX 01 00:00:00FILE "10 - Hotel Morgentau.wav" WAVE TRACK 10 AUDIO TITLE "Hotel Morgentau" PERFORMER "Lexy & K-Paul" ISRC DEN607000419 INDEX 01 00:00:00FILE "11 - Sekunden.wav" WAVE TRACK 11 AUDIO TITLE "Sekunden" PERFORMER "Lexy & K-Paul" ISRC DEN607000420 INDEX 01 00:00:00FILE "12 - Barbara Breeze.wav" WAVE TRACK 12 AUDIO TITLE "Barbara Breeze" PERFORMER "Lexy & K-Paul" ISRC DEN607000421 INDEX 01 00:00:00 TRACK 13 AUDIO TITLE "Playa Nueva" PERFORMER "Lexy & K-Paul" ISRC DEN607000422 INDEX 00 03:11:10FILE "13 - Playa Nueva.wav" WAVE INDEX 01 00:00:00 TRACK 14 AUDIO TITLE "The edge" PERFORMER "Lexy & K-Paul" ISRC DEN607000423 INDEX 00 07:44:05FILE "14 - The edge.wav" WAVE INDEX 01 00:00:00FILE "15 - Outro.wav" WAVE TRACK 15 AUDIO TITLE "Outro" PERFORMER "Lexy & K-Paul" ISRC DEN607000424 INDEX 01 00:00:00

Log 2

Exact Audio Copy V1.1 from 23. June 2015
EAC extraction logfile from 5. December 2015, 15:33
Lexy & K-Paul / Trash Like Us
Used drive : HL-DT-STDVDRAM GT60N Adapter: 1 ID: 2
Read mode : SecureUtilize accurate stream : YesDefeat audio cache : YesMake use of C2 pointers : No
Read offset correction : 103Overread into Lead-In and Lead-Out : NoFill up missing offset samples with silence : YesDelete leading and trailing silent blocks : NoNull samples used in CRC calculations : YesUsed interface : Native Win32 interface for Win NT & 2000Gap handling : Appended to previous track
Used output format : User Defined EncoderSelected bitrate : 320 kBit/sQuality : HighAdd ID3 tag : YesCommand line compressor : C:\Program Files (x86)\Exact Audio Copy\Flac\flac.exeAdditional command line options : -8 -V -T "ARTIST=%artist%" -T "TITLE=%title%" -T "ALBUM=%albumtitle%" -T "DATE=%year%" -T "TRACKNUMBER=%tracknr%" -T "GENRE=%genre%" -T "PERFORMER=%albuminterpret%" -T "COMPOSER=%composer%" %haslyrics%--tag-from-file=LYRICS="%lyricsfile%"%haslyrics% -T "ALBUMARTIST=%albumartist%" -T "DISCNUMBER=%cdnumber%" -T "TOTALDISCS=%totalcds%" -T "TOTALTRACKS=%numtracks%" -T "COMMENT=%comment%" %source% -o %dest%
TOC of the extracted CD
Track | Start | Length | Start sector | End sector --------------------------------------------------------- 1 | 0:00.00 | 4:25.13 | 0 | 19887 2 | 4:25.13 | 7:20.25 | 19888 | 52912 3 | 11:45.38 | 6:38.34 | 52913 | 82796 4 | 18:23.72 | 5:07.52 | 82797 | 105873 5 | 23:31.49 | 4:13.30 | 105874 | 124878 6 | 27:45.04 | 6:39.73 | 124879 | 154876 7 | 34:25.02 | 2:58.02 | 154877 | 168228
Track 1
Filename J:\EAC Rips\Lexy & K-Paul - Trash Like Us (2007)\01 - Lost In You.wav
Pre-gap length 0:00:02.00
Peak level 93.3 % Extraction speed 1.2 X Track quality 100.0 % Test CRC 7A82CCF2 Copy CRC 7A82CCF2 Track not present in AccurateRip database Copy OK
Track 2
Filename J:\EAC Rips\Lexy & K-Paul - Trash Like Us (2007)\02 - Fly.wav
Peak level 93.3 % Extraction speed 1.5 X Track quality 100.0 % Test CRC 17D743AD Copy CRC 17D743AD Track not present in AccurateRip database Copy OK
Track 3
Filename J:\EAC Rips\Lexy & K-Paul - Trash Like Us (2007)\03 - Happy Zombies.wav
Peak level 93.3 % Extraction speed 1.7 X Track quality 100.0 % Test CRC 06B007E0 Copy CRC 06B007E0 Track not present in AccurateRip database Copy OK
Track 4
Filename J:\EAC Rips\Lexy & K-Paul - Trash Like Us (2007)\04 - Das Fröhliche Lied.wav
Peak level 100.0 % Extraction speed 1.8 X Track quality 100.0 % Test CRC 1C30323F Copy CRC 1C30323F Track not present in AccurateRip database Copy OK
Track 5
Filename J:\EAC Rips\Lexy & K-Paul - Trash Like Us (2007)\05 - Unbelievable.wav
Peak level 93.3 % Extraction speed 1.9 X Track quality 100.0 % Test CRC D842ED46 Copy CRC D842ED46 Track not present in AccurateRip database Copy OK
Track 6
Filename J:\EAC Rips\Lexy & K-Paul - Trash Like Us (2007)\06 - Ponyboy (Remix).wav
Peak level 88.5 % Extraction speed 2.1 X Track quality 100.0 % Test CRC 79900B01 Copy CRC 79900B01 Track not present in AccurateRip database Copy OK
Track 7
Filename J:\EAC Rips\Lexy & K-Paul - Trash Like Us (2007)\07 - Obst Und Karate.wav
Pre-gap length 0:00:01.05
Peak level 93.3 % Extraction speed 2.0 X Track quality 100.0 % Test CRC BA9A1AAD Copy CRC BA9A1AAD Track not present in AccurateRip database Copy OK
None of the tracks are present in the AccurateRip database
No errors occurred
End of status report
---- CUETools DB Plugin V2.1.6
[CTDB TOCID: Bm5uGbL1Dn35_8OvgZgJHueoqYI-] foundSubmit result: Bm5uGbL1Dn35_8OvgZgJHueoqYI- has been uploadedTrack | CTDB Status 1 | (5/5) Accurately ripped 2 | (5/5) Accurately ripped 3 | (5/5) Accurately ripped 4 | (5/5) Accurately ripped 5 | (5/5) Accurately ripped 6 | (5/5) Accurately ripped 7 | (5/5) Accurately ripped
==== Log checksum 56FDAF7092DB0DE1CDC5C5379F60574BAB74C65E604030DCA91FF688A75B9C4F ====

CUE 2

REM GENRE HouseREM DATE 2007REM DISCID 5208C307REM COMMENT "ExactAudioCopy v1.1"PERFORMER "Lexy & K-Paul"TITLE "Trash Like Us"FILE "01 - Lost In You.wav" WAVE TRACK 01 AUDIO TITLE "Lost In You" PERFORMER "Lexy & K-Paul" ISRC DEN060700424 INDEX 01 00:00:00FILE "02 - Fly.wav" WAVE TRACK 02 AUDIO TITLE "Fly" PERFORMER "Lexy & K-Paul" ISRC DEN060700425 INDEX 01 00:00:00FILE "03 - Happy Zombies.wav" WAVE TRACK 03 AUDIO TITLE "Happy Zombies" PERFORMER "Lexy & K-Paul" ISRC DEN060700426 INDEX 01 00:00:00FILE "04 - Das Frohliche Lied.wav" WAVE TRACK 04 AUDIO TITLE "Das Frohliche Lied" PERFORMER "Lexy & K-Paul" ISRC DEN060700427 INDEX 01 00:00:00FILE "05 - Unbelievable.wav" WAVE TRACK 05 AUDIO TITLE "Unbelievable" PERFORMER "Lexy & K-Paul" ISRC DEN060700428 INDEX 01 00:00:00FILE "06 - Ponyboy (Remix).wav" WAVE TRACK 06 AUDIO TITLE "Ponyboy (Remix)" PERFORMER "Lexy & K-Paul" ISRC DEN060700429 INDEX 01 00:00:00 TRACK 07 AUDIO TITLE "Obst Und Karate" PERFORMER "Lexy & K-Paul" ISRC DEN060700430 INDEX 00 06:38:69FILE "07 - Obst Und Karate.wav" WAVE INDEX 01 00:00:00
2008 - Komisch Elektronisch The Mix Compilation (0188522KON) Продолжительность:02:20:19
CD 1 - Saturday
1. Lexy & K-Paul - Intro (0:17)
2. Jan Driver - Kardamoon (7:04)
3. Bukaddor & Fischbeck - Less (6:00)
4. Siobhan Donaghy - Don't Give Up (Carl Craig Remix) (6:49)
5. Turek - Timeless (5:37)
6. Man-D.A. - Goldseries 2 (4:48)
7. Lexy & K-Paul - Ponyboy (Ponybabe Remix) (5:08)
8. Azzido Da Bass - Dooms Night (Lexy & K-Paul Remix) (5:38)
9. Lexy - Katzenburo (6:16)
10. Maxime Dangles - Agujas (7:15)
11. Lexy & K-Paul feat. Das Bo - The Clap (L & K Remix) (4:41)
12. Kaosklub - La Musique Chaotique (4:56)
13. Bora - Bleedin Soul (4:44)
14. Deichkind - Remmidemmi (Lexy & K-Paul Remix) (3:02)
CD 2 - Sunday
1. End Of Tape - Data Store (5:48)
2. Superfreund - Welcome 3000 (3:35)
3. Heinrichs & Hirtenfellner - You Are I (4:32)
4. Format B - Vivian Wheeler (5:24)
5. Martinez - Land-Crab (6:56)
6. DJ Koze - Mariposa (6:18)
7. Nicone - Habbibi (5:19)
8. Rejected - Lost (5:44)
9. Mia - Canґt Find You (Kiki Remix) (8:14)
10. Dubfire - Ribcage (8:53)
11. Marcus Worgull - Spellbound (7:21)

2008 - Komisch Elektronisch The Mix Compilation (0188522KON)Log EAC CD 1

Exact Audio Copy V0.99 prebeta 4 from 23. January 2008
EAC extraction logfile from 4. March 2010, 19:32
Various / Lexy & K-Paul - Komisch Elektronisch The Mix Compilation - Saturday CD1
Used drive : Optiarc DVD RW AD-7201A Adapter: 0 ID: 0
Read mode : SecureUtilize accurate stream : YesDefeat audio cache : YesMake use of C2 pointers : No
Read offset correction : 48Overread into Lead-In and Lead-Out : NoFill up missing offset samples with silence : YesDelete leading and trailing silent blocks : NoNull samples used in CRC calculations : YesUsed interface : Native Win32 interface for Win NT & 2000Gap handling : Appended to previous track
Used output format : User Defined EncoderSelected bitrate : 128 kBit/sQuality : HighAdd ID3 tag : NoCommand line compressor : C:\Program Files\Exact Audio Copy\Flac\flac.exeAdditional command line options : -8 -V -T "ARTIST=%a" -T "TITLE=%t" -T "ALBUM=%g" -T "DATE=%y" -T "TRACKNUMBER=%n" -T "GENRE=%m" -T "COMMENT=EAC FLAC -8" %s
TOC of the extracted CD
Track | Start | Length | Start sector | End sector --------------------------------------------------------- 1 | 0:00.00 | 0:17.46 | 0 | 1320 2 | 0:17.46 | 7:04.24 | 1321 | 33144 3 | 7:21.70 | 6:00.06 | 33145 | 60150 4 | 13:22.01 | 6:49.70 | 60151 | 90895 5 | 20:11.71 | 5:37.62 | 90896 | 116232 6 | 25:49.58 | 4:48.26 | 116233 | 137858 7 | 30:38.09 | 5:08.39 | 137859 | 160997 8 | 35:46.48 | 5:38.74 | 160998 | 186421 9 | 41:25.47 | 6:16.70 | 186422 | 214691 10 | 47:42.42 | 7:15.61 | 214692 | 247377 11 | 54:58.28 | 4:41.57 | 247378 | 268509 12 | 59:40.10 | 4:56.09 | 268510 | 290718 13 | 64:36.19 | 4:44.12 | 290719 | 312030 14 | 69:20.31 | 3:02.26 | 312031 | 325706
Track 1
Filename F:\Torrents\VA - Lexy & K-Paul - Komisch Elektronisch The Mix Compilation\01. Lexy & K-Paul - Intro.wav
Pre-gap length 0:00:02.00
Peak level 56.6 % Track quality 99.3 % Test CRC 2C4FC5F3 Copy CRC 2C4FC5F3 Accurately ripped (confidence 1) [B0465ADC] Copy OK
Track 2
Filename F:\Torrents\VA - Lexy & K-Paul - Komisch Elektronisch The Mix Compilation\02. Jan Driver - Kardamoon.wav
Peak level 99.9 % Track quality 99.9 % Test CRC 3347917E Copy CRC 3347917E Accurately ripped (confidence 1) [7A634FA5] Copy OK
Track 3
Filename F:\Torrents\VA - Lexy & K-Paul - Komisch Elektronisch The Mix Compilation\03. Bukaddor & Fischbeck - Less.wav
Peak level 99.7 % Track quality 99.9 % Test CRC C2A49A4E Copy CRC C2A49A4E Accurately ripped (confidence 1) [EC38893F] Copy OK
Track 4
Filename F:\Torrents\VA - Lexy & K-Paul - Komisch Elektronisch The Mix Compilation\04. Siobhan Donaghy - Don't Give Up (Carl Craig Remix).wav
Peak level 99.9 % Track quality 99.9 % Test CRC 817DE528 Copy CRC 817DE528 Accurately ripped (confidence 1) [BB3309C6] Copy OK
Track 5
Filename F:\Torrents\VA - Lexy & K-Paul - Komisch Elektronisch The Mix Compilation\05. Turek - Timeless.wav
Peak level 98.4 % Track quality 100.0 % Test CRC 7D63EE38 Copy CRC 7D63EE38 Accurately ripped (confidence 1) [D3481CC0] Copy OK
Track 6
Filename F:\Torrents\VA - Lexy & K-Paul - Komisch Elektronisch The Mix Compilation\06. Man-D.A. - Goldseries 2.wav
Peak level 100.0 % Track quality 100.0 % Test CRC 70E43A6B Copy CRC 70E43A6B Accurately ripped (confidence 1) [CD4F2BF7] Copy OK
Track 7
Filename F:\Torrents\VA - Lexy & K-Paul - Komisch Elektronisch The Mix Compilation\07. Lexy & K-Paul - Ponyboy (Ponybabe Remix).wav
Peak level 100.0 % Track quality 100.0 % Test CRC B9DE12F3 Copy CRC B9DE12F3 Accurately ripped (confidence 1) [DC23578C] Copy OK
Track 8
Filename F:\Torrents\VA - Lexy & K-Paul - Komisch Elektronisch The Mix Compilation\08. Azzido Da Bass - Dooms Night (Lexy & K-Paul Remix).wav
Peak level 99.7 % Track quality 100.0 % Test CRC 28C3A2E2 Copy CRC 28C3A2E2 Accurately ripped (confidence 1) [CFB092C1] Copy OK
Track 9
Filename F:\Torrents\VA - Lexy & K-Paul - Komisch Elektronisch The Mix Compilation\09. Lexy - Katzenburo.wav
Peak level 99.8 % Track quality 100.0 % Test CRC 073D0AB4 Copy CRC 073D0AB4 Accurately ripped (confidence 1) [93C2A778] Copy OK
Track 10
Filename F:\Torrents\VA - Lexy & K-Paul - Komisch Elektronisch The Mix Compilation\10. Maxime Dangles - Agujas.wav
Peak level 99.5 % Track quality 100.0 % Test CRC C4671D52 Copy CRC C4671D52 Accurately ripped (confidence 1) [9B6B44B7] Copy OK
Track 11
Filename F:\Torrents\VA - Lexy & K-Paul - Komisch Elektronisch The Mix Compilation\11. Lexy & K-Paul feat. Das Bo - The Clap (L & K Remix).wav
Peak level 99.9 % Track quality 100.0 % Test CRC CBCC4C9A Copy CRC CBCC4C9A Accurately ripped (confidence 1) [1F318B2D] Copy OK
Track 12
Filename F:\Torrents\VA - Lexy & K-Paul - Komisch Elektronisch The Mix Compilation\12. Kaosklub - La Musique Chaotique.wav
Peak level 98.9 % Track quality 100.0 % Test CRC 63EF5220 Copy CRC 63EF5220 Accurately ripped (confidence 1) [24BDDADB] Copy OK
Track 13
Filename F:\Torrents\VA - Lexy & K-Paul - Komisch Elektronisch The Mix Compilation\13. Bora - Bleedin Soul.wav
Peak level 99.6 % Track quality 100.0 % Test CRC 40BF641C Copy CRC 40BF641C Accurately ripped (confidence 1) [9B27E81E] Copy OK
Track 14
Filename F:\Torrents\VA - Lexy & K-Paul - Komisch Elektronisch The Mix Compilation\14. Deichkind - Remmidemmi (Lexy & K-Paul Remix).wav
Peak level 100.0 % Track quality 100.0 % Test CRC 7B5C3E15 Copy CRC 7B5C3E15 Accurately ripped (confidence 1) [864E2DC9] Copy OK
All tracks accurately ripped
No errors occurred
End of status report

CUE

REM GENRE "House, Minimal, Tech House, Electro"REM DATE 2008REM DISCID BA10F60EREM COMMENT "ExactAudioCopy v0.99pb4"PERFORMER "Various"TITLE "Lexy & K-Paul - Komisch Elektronisch The Mix Compilation - Saturday CD1"FILE "01. Lexy & K-Paul - Intro.wav" WAVE TRACK 01 AUDIO TITLE "Intro" PERFORMER "Lexy & K-Paul" INDEX 01 00:00:00FILE "02. Jan Driver - Kardamoon.wav" WAVE TRACK 02 AUDIO TITLE "Kardamoon" PERFORMER "Jan Driver" INDEX 01 00:00:00FILE "03. Bukaddor & Fischbeck - Less.wav" WAVE TRACK 03 AUDIO TITLE "Less" PERFORMER "Bukaddor & Fischbeck" INDEX 01 00:00:00FILE "04. Siobhan Donaghy - Don't Give Up (Carl Craig Remix).wav" WAVE TRACK 04 AUDIO TITLE "Don't Give Up (Carl Craig Remix)" PERFORMER "Siobhan Donaghy" INDEX 01 00:00:00FILE "05. Turek - Timeless.wav" WAVE TRACK 05 AUDIO TITLE "Timeless" PERFORMER "Turek" INDEX 01 00:00:00FILE "06. Man-D.A. - Goldseries 2.wav" WAVE TRACK 06 AUDIO TITLE "Goldseries 2" PERFORMER "Man-D.A." INDEX 01 00:00:00FILE "07. Lexy & K-Paul - Ponyboy (Ponybabe Remix).wav" WAVE TRACK 07 AUDIO TITLE "Ponyboy (Ponybabe Remix)" PERFORMER "Lexy & K-Paul" INDEX 01 00:00:00FILE "08. Azzido Da Bass - Dooms Night (Lexy & K-Paul Remix).wav" WAVE TRACK 08 AUDIO TITLE "Dooms Night (Lexy & K-Paul Remix)" PERFORMER "Azzido Da Bass" INDEX 01 00:00:00FILE "09. Lexy - Katzenburo.wav" WAVE TRACK 09 AUDIO TITLE "Katzenburo" PERFORMER "Lexy" INDEX 01 00:00:00FILE "10. Maxime Dangles - Agujas.wav" WAVE TRACK 10 AUDIO TITLE "Agujas" PERFORMER "Maxime Dangles" INDEX 01 00:00:00FILE "11. Lexy & K-Paul feat. Das Bo - The Clap (L & K Remix).wav" WAVE TRACK 11 AUDIO TITLE "The Clap (L & K Remix)" PERFORMER "Lexy & K-Paul feat. Das Bo" INDEX 01 00:00:00FILE "12. Kaosklub - La Musique Chaotique.wav" WAVE TRACK 12 AUDIO TITLE "La Musique Chaotique" PERFORMER "Kaosklub" INDEX 01 00:00:00FILE "13. Bora - Bleedin Soul.wav" WAVE TRACK 13 AUDIO TITLE "Bleedin Soul" PERFORMER "Bora" INDEX 01 00:00:00FILE "14. Deichkind - Remmidemmi (Lexy & K-Paul Remix).wav" WAVE TRACK 14 AUDIO TITLE "Remmidemmi (Lexy & K-Paul Remix)" PERFORMER "Deichkind" INDEX 01 00:00:00

Log EAC CD 2

Exact Audio Copy V0.99 prebeta 4 from 23. January 2008
EAC extraction logfile from 4. March 2010, 20:26
Various / Lexy & K-Paul - Komisch Elektronisch The Mix Compilation - CD2 - Sunday
Used drive : Optiarc DVD RW AD-7201A Adapter: 0 ID: 0
Read mode : SecureUtilize accurate stream : YesDefeat audio cache : YesMake use of C2 pointers : No
Read offset correction : 48Overread into Lead-In and Lead-Out : NoFill up missing offset samples with silence : YesDelete leading and trailing silent blocks : NoNull samples used in CRC calculations : YesUsed interface : Native Win32 interface for Win NT & 2000Gap handling : Appended to previous track
Used output format : User Defined EncoderSelected bitrate : 128 kBit/sQuality : HighAdd ID3 tag : NoCommand line compressor : C:\Program Files\Exact Audio Copy\Flac\flac.exeAdditional command line options : -8 -V -T "ARTIST=%a" -T "TITLE=%t" -T "ALBUM=%g" -T "DATE=%y" -T "TRACKNUMBER=%n" -T "GENRE=%m" -T "COMMENT=EAC FLAC -8" %s
TOC of the extracted CD
Track | Start | Length | Start sector | End sector --------------------------------------------------------- 1 | 0:00.00 | 5:48.53 | 0 | 26152 2 | 5:48.53 | 3:35.13 | 26153 | 42290 3 | 9:23.66 | 4:32.71 | 42291 | 62761 4 | 13:56.62 | 5:24.16 | 62762 | 87077 5 | 19:21.03 | 6:56.71 | 87078 | 118348 6 | 26:17.74 | 6:18.42 | 118349 | 146740 7 | 32:36.41 | 5:19.23 | 146741 | 170688 8 | 37:55.64 | 4:25.37 | 170689 | 190600 9 | 42:21.26 | 5:44.31 | 190601 | 216431 10 | 48:05.57 | 8:14.46 | 216432 | 253527 11 | 56:20.28 | 8:53.34 | 253528 | 293536 12 | 65:13.62 | 7:21.10 | 293537 | 326621
Track 1
Filename F:\Torrents\VA - Lexy & K-Paul - Komisch Elektronisch The Mix Compilation\01. End Of Tape - Data Store.wav
Pre-gap length 0:00:02.00
Peak level 98.7 % Track quality 99.9 % Test CRC 996B2430 Copy CRC 996B2430 Accurately ripped (confidence 1) [11CAFD97] Copy OK
Track 2
Filename F:\Torrents\VA - Lexy & K-Paul - Komisch Elektronisch The Mix Compilation\02. Superfreund - Welcome 3000.wav
Peak level 99.8 % Track quality 99.9 % Test CRC 02076761 Copy CRC 02076761 Accurately ripped (confidence 1) [B4658602] Copy OK
Track 3
Filename F:\Torrents\VA - Lexy & K-Paul - Komisch Elektronisch The Mix Compilation\03. Heinrichs & Hirtenfellner - You Are I.wav
Peak level 99.0 % Track quality 99.9 % Test CRC 6970B18B Copy CRC 6970B18B Accurately ripped (confidence 1) [2B2A18AF] Copy OK
Track 4
Filename F:\Torrents\VA - Lexy & K-Paul - Komisch Elektronisch The Mix Compilation\04. Format B - Vivian Wheeler.wav
Peak level 99.9 % Track quality 100.0 % Test CRC 6D41DDF2 Copy CRC 6D41DDF2 Accurately ripped (confidence 1) [FF6672C7] Copy OK
Track 5
Filename F:\Torrents\VA - Lexy & K-Paul - Komisch Elektronisch The Mix Compilation\05. Martinez - Land-Crab.wav
Peak level 99.6 % Track quality 100.0 % Test CRC A2DB4BB6 Copy CRC A2DB4BB6 Accurately ripped (confidence 1) [2AF6CD5A] Copy OK
Track 6
Filename F:\Torrents\VA - Lexy & K-Paul - Komisch Elektronisch The Mix Compilation\06. DJ Koze - Mariposa.wav
Peak level 98.0 % Track quality 99.9 % Test CRC FC968540 Copy CRC FC968540 Accurately ripped (confidence 1) [0B3C97D6] Copy OK
Track 7
Filename F:\Torrents\VA - Lexy & K-Paul - Komisch Elektronisch The Mix Compilation\07. Nicone - Habbibi.wav
Peak level 99.2 % Track quality 100.0 % Test CRC E1004389 Copy CRC E1004389 Accurately ripped (confidence 1) [E53B6592] Copy OK
Track 8
Filename F:\Torrents\VA - Lexy & K-Paul - Komisch Elektronisch The Mix Compilation\08. Raz Ohara & The Odd Orchestra - Kisses (Philip Bader Remix).wav
Peak level 99.4 % Track quality 100.0 % Test CRC 7493DE17 Copy CRC 7493DE17 Accurately ripped (confidence 1) [7ADA464B] Copy OK
Track 9
Filename F:\Torrents\VA - Lexy & K-Paul - Komisch Elektronisch The Mix Compilation\09. Rejected - Lost.wav
Peak level 99.5 % Track quality 100.0 % Test CRC CE420D05 Copy CRC CE420D05 Accurately ripped (confidence 1) [270488E8] Copy OK
Track 10
Filename F:\Torrents\VA - Lexy & K-Paul - Komisch Elektronisch The Mix Compilation\10. Mia - Canґt Find You (Kiki Remix).wav
Peak level 99.7 % Track quality 100.0 % Test CRC 6586B8ED Copy CRC 6586B8ED Accurately ripped (confidence 1) [92B40C63] Copy OK
Track 11
Filename F:\Torrents\VA - Lexy & K-Paul - Komisch Elektronisch The Mix Compilation\11. Dubfire - Ribcage.wav
Peak level 100.0 % Track quality 100.0 % Test CRC 1B8ABC9A Copy CRC 1B8ABC9A Accurately ripped (confidence 1) [E68CF99D] Copy OK
Track 12
Filename F:\Torrents\VA - Lexy & K-Paul - Komisch Elektronisch The Mix Compilation\12. Marcus Worgull - Spellbound.wav
Peak level 99.7 % Track quality 100.0 % Test CRC 3D8969EF Copy CRC 3D8969EF Accurately ripped (confidence 1) [741C9C39] Copy OK
All tracks accurately ripped
No errors occurred
End of status report

CUE

REM GENRE "House, Minimal, Tech House, Electro"REM DATE 2008REM DISCID C011020CREM COMMENT "ExactAudioCopy v0.99pb4"PERFORMER "Various"TITLE "Lexy & K-Paul - Komisch Elektronisch The Mix Compilation - CD2 - Sunday"FILE "01. End Of Tape - Data Store.wav" WAVE TRACK 01 AUDIO TITLE "Data Store" PERFORMER "End Of Tape" INDEX 01 00:00:00FILE "02. Superfreund - Welcome 3000.wav" WAVE TRACK 02 AUDIO TITLE "Welcome 3000" PERFORMER "Superfreund" INDEX 01 00:00:00FILE "03. Heinrichs & Hirtenfellner - You Are I.wav" WAVE TRACK 03 AUDIO TITLE "You Are I" PERFORMER "Heinrichs & Hirtenfellner" INDEX 01 00:00:00FILE "04. Format B - Vivian Wheeler.wav" WAVE TRACK 04 AUDIO TITLE "Vivian Wheeler" PERFORMER "Format B" INDEX 01 00:00:00FILE "05. Martinez - Land-Crab.wav" WAVE TRACK 05 AUDIO TITLE "Land-Crab" PERFORMER "Martinez" INDEX 01 00:00:00FILE "06. DJ Koze - Mariposa.wav" WAVE TRACK 06 AUDIO TITLE "Mariposa" PERFORMER "DJ Koze" INDEX 01 00:00:00FILE "07. Nicone - Habbibi.wav" WAVE TRACK 07 AUDIO TITLE "Habbibi" PERFORMER "Nicone" INDEX 01 00:00:00FILE "08. Raz Ohara & The Odd Orchestra - Kisses (Philip Bader Remix).wav" WAVE TRACK 08 AUDIO TITLE "Kisses (Philip Bader Remix)" PERFORMER "Raz Ohara & The Odd Orchestra" INDEX 01 00:00:00FILE "09. Rejected - Lost.wav" WAVE TRACK 09 AUDIO TITLE "Lost" PERFORMER "Rejected" INDEX 01 00:00:00FILE "10. Mia - Canґt Find You (Kiki Remix).wav" WAVE TRACK 10 AUDIO TITLE "Canґt Find You (Kiki Remix)" PERFORMER "Mia" INDEX 01 00:00:00FILE "11. Dubfire - Ribcage.wav" WAVE TRACK 11 AUDIO TITLE "Ribcage" PERFORMER "Dubfire" INDEX 01 00:00:00FILE "12. Marcus Worgull - Spellbound.wav" WAVE TRACK 12 AUDIO TITLE "Spellbound" PERFORMER "Marcus Worgull" INDEX 01 00:00:00
Maximillian Lenz (Westbam, Members of Mayday) \ Electric Kingdom & Low spirit Recordings


[islamvillage.com]_t_2807464.torrent
Торрент: Зарегистрирован ·  [ 2019-01-07 11:59 ] ·  76676956463f38fff4bcd7c436a2ccfc622085c0

187 KB

Статус: проверено
Скачан: 0 раз
Размер: 16.37 GB
Оценка: 
(Голосов: 0)
Сказали спасибо: 0  Спасибо
Похожие темы
[Профиль]    [ЛС]
Показать сообщения:    
Ответить на тему

Текущее время: Сегодня 06:41

Часовой пояс: GMT + 7



Вы не можете начинать темы
Вы не можете отвечать на сообщения
Вы не можете редактировать свои сообщения
Вы не можете удалять свои сообщения
Вы не можете голосовать в опросах
Вы не можете прикреплять файлы к сообщениям
Вы можете скачивать файлы


Hot Sale Plain Bowknot Casual Pants | Victory (1981) | True Detective - Sai