Искатели - "Мистический Даргавс" [2016, документальный, DVB-AVC]

Ответить на тему
Статистика раздачи [Обновить пиров]
Размер:  949 MB   |    Зарегистрирован:  1 год 10 месяцев   |    Скачан:  0 раз

Полного источника не было: Никогда

 
   
 
 
 
Автор Сообщение

islamvillage.com

Создавать темы 18-Фев-2017 22:26

[Цитировать]

Искатели - "Мистический Даргавс".
Год выхода: 2016
Страна: Россия
Жанр: Документальный
Продолжительность: 00:44:03
Перевод: Не требуется
Русские субтитры: телетекст

Описание

Цикл познавательно-приключенческих программ, посвященный общественно значимым событиям истории России и зарубежья, а также частным историям известных людей, которые оставили потомкам много вопросов и тайн. Жанр цикла – историческое расследование, "телевизионные приключения для взрослых". Чтобы разгадать очередную тайну, "Искатели" исследуют как летописные источники, так и находки, обнаруженные непосредственно на месте исторических событий.
В выпуске: В 1967 году во время раскопок на знаменитом древнем кладбище в селении Даргавс в Северной Осетии была обнаружена старинная лодка с человеческими останками. Более того, рядом с ладьёй лежало самое настоящее весло! Находка озадачила археологов, ведь ни о каком подобном культе в этих местах известно не было. Они предположили, что в склепе был похоронен лодочник, поэтому рядом и было положено весло. Но когда в других склепах были найдены ещё несколько лодок с захоронениями, археологи поняли, что сделали сенсационную находку. Учёные до сих пор продолжают спорить о происхождении даргавского некрополя, а местные жители, как и прежде, не рискуют приближаться к древним захоронениям после захода солнца. Старожилы из поколения в поколение передают поверье, что ладья и весло как-то помогают душам мёртвых охранять свой покой от живых. Но что в действительности означает наличие этих предметов в древнем захоронении? ...
Качество видео: DVB
Формат файла: MPEG-TS
Видео: MPEG4 Video (H264), 720x576@785x576 (4:3), анаморф, 25 fps, 2700 kbps
Аудио: MPEG Audio, 2 сh, 48 kHz, 192 kbps
Трансляция спутникового канала:

MediaInfo

D:\Искатели. Мистический Даргавс. (2016)_DVB by SLuMeP.ts
General #1
ID : 1 (0x1)
Complete name : D:\Искатели. Мистический Даргавс. (2016)_DVB by SLuMeP.ts
Format : MPEG-TS
File size : 949 MiB
Duration : 44mn 3s
Overall bit rate mode : Variable
Overall bit rate : 3 013 Kbps
Video #2506
ID : 2506 (0x9CA)
Menu ID : 506 (0x1FA)
Format : AVC
Format/Info : Advanced Video Codec
Format profile : Main@L3.0
Format settings, CABAC : Yes
Format settings, ReFrames : 3 frames
Format settings, GOP : M=4, N=28
Codec ID : 27
Duration : 44mn 2s
Bit rate : 2 670 Kbps
Width : 720 pixels
Height : 576 pixels
Display aspect ratio : 4:3
Frame rate : 25.000 fps
Standard : Component
Color space : YUV
Chroma subsampling : 4:2:0
Bit depth : 8 bits
Scan type : Interlaced
Scan order : Top Field First
Bits/(Pixel*Frame) : 0.258
Stream size : 841 MiB (89%)
Color primaries : BT.601 PAL
Transfer characteristics : BT.470 System B, BT.470 System G
Matrix coefficients : BT.601
Audio #3506
ID : 3506 (0xDB2)
Menu ID : 506 (0x1FA)
Format : MPEG Audio
Format version : Version 1
Format profile : Layer 2
Codec ID : 3
Duration : 44mn 2s
Bit rate mode : Constant
Bit rate : 192 Kbps
Channel(s) : 2 channels
Sampling rate : 48.0 KHz
Compression mode : Lossy
Delay relative to video : -120ms
Stream size : 60.5 MiB (6%)
Language : English
Text #3507-100
ID : 3507 (0xDB3)-100
Menu ID : 506 (0x1FA)
Format : Teletext Subtitle
Language : Russian
Menu #1506
ID : 1506 (0x5E2)
Menu ID : 506 (0x1FA)
Duration : 44mn 3s
List : 2506 (0x9CA) (AVC) / 3506 (0xDB2) (MPEG Audio, English) / 3507 (0xDB3) ()
Language : / English

Скриншоты



[islamvillage.com]_t_5236393.torrent
Торрент: Зарегистрирован ·  [ 2017-02-18 22:18 ] ·  17c043c6b70b5a9f4eedb69c990fb99423cee7ef

19 KB

Статус: проверено
Скачан: 0 раз
Размер: 949 MB
Оценка: 
(Голосов: 0)
Сказали спасибо: 0  Спасибо
Похожие темы
[Профиль]    [ЛС]
Показать сообщения:    
Ответить на тему

Текущее время: Сегодня 05:59

Часовой пояс: GMT + 7



Вы не можете начинать темы
Вы не можете отвечать на сообщения
Вы не можете редактировать свои сообщения
Вы не можете удалять свои сообщения
Вы не можете голосовать в опросах
Вы не можете прикреплять файлы к сообщениям
Вы можете скачивать файлы


Persuasive Speech: Why You Should Join the Equestrian Team | Communication in Teamwork - 1283 Words | Villeroy Boch Wildrose 3 Teebecher Mit Unterteller Handbemalt