Искатели - "Непобедимые аланы" [2016, документальный, DVB-AVC]

Ответить на тему
Статистика раздачи [Обновить пиров]
Размер:  987 MB   |    Зарегистрирован:  2 года   |    Скачан:  0 раз

Полного источника не было: Никогда

 
   
 
 
 
Автор Сообщение

islamvillage.com

Создавать темы 18-Фев-2017 22:26

[Цитировать]

Искатели - "Непобедимые аланы".
Год выхода: 2016
Страна: Россия
Жанр: Документальный
Продолжительность: 00:45:46
Перевод: Не требуется
Русские субтитры: телетекст

Описание

Цикл познавательно-приключенческих программ, посвященный общественно значимым событиям истории России и зарубежья, а также частным историям известных людей, которые оставили потомкам много вопросов и тайн. Жанр цикла – историческое расследование, "телевизионные приключения для взрослых". Чтобы разгадать очередную тайну, "Искатели" исследуют как летописные источники, так и находки, обнаруженные непосредственно на месте исторических событий.
В выпуске: Отправившись в поход на Северный Кавказ, Тамерлан подверг горные области между Казбеком и Эльбрусом жестокому разорению, большинство местных жителей было взято в плен и убито, лишь некоторым из них удалось укрыться высоко в горах. Это были аланы - представители некогда могущественного сарматского племени. Тамерлан был уверен, что взять непокорных будет просто, ведь аланов было не больше сотни. Но горстка храбрецов отражала одну атаку за другой, осада продолжалась почти полгода. И в тот момент, когда у алан должно было закончиться продовольствие, случилось чудо, и Тамерлан неожиданно отступил! О мужестве тех аланских воинов и их необъяснимой победе по сей день ходят легенды, говорят, что помогло некое волшебное оружие… Но что же всё-таки тогда произошло? Каким образом совсем небольшой группе людей удалось противостоять армии Тамерлана ...
Качество видео: DVB
Формат файла: MPEG-TS
Видео: MPEG4 Video (H264), 720x576@785x576 (4:3), анаморф, 25 fps, 2700 kbps
Аудио: MPEG Audio, 2 сh, 48 kHz, 192 kbps
Трансляция спутникового канала:

MediaInfo

D:\Искатели. Непобедимые аланы. (2016)_DVB by SLuMeP.ts
General #1
ID : 1 (0x1)
Complete name : D:\Искатели. Непобедимые аланы. (2016)_DVB by SLuMeP.ts
Format : MPEG-TS
File size : 987 MiB
Duration : 45mn 46s
Overall bit rate mode : Variable
Overall bit rate : 3 015 Kbps
Video #2506
ID : 2506 (0x9CA)
Menu ID : 506 (0x1FA)
Format : AVC
Format/Info : Advanced Video Codec
Format profile : Main@L3.0
Format settings, CABAC : Yes
Format settings, ReFrames : 3 frames
Format settings, GOP : M=4, N=28
Codec ID : 27
Duration : 45mn 46s
Bit rate : 2 672 Kbps
Width : 720 pixels
Height : 576 pixels
Display aspect ratio : 4:3
Frame rate : 25.000 fps
Standard : Component
Color space : YUV
Chroma subsampling : 4:2:0
Bit depth : 8 bits
Scan type : Interlaced
Scan order : Top Field First
Bits/(Pixel*Frame) : 0.258
Stream size : 875 MiB (89%)
Color primaries : BT.601 PAL
Transfer characteristics : BT.470 System B, BT.470 System G
Matrix coefficients : BT.601
Audio #3506
ID : 3506 (0xDB2)
Menu ID : 506 (0x1FA)
Format : MPEG Audio
Format version : Version 1
Format profile : Layer 2
Codec ID : 3
Duration : 45mn 46s
Bit rate mode : Constant
Bit rate : 192 Kbps
Channel(s) : 2 channels
Sampling rate : 48.0 KHz
Compression mode : Lossy
Delay relative to video : -120ms
Stream size : 62.9 MiB (6%)
Language : English
Text #3507-100
ID : 3507 (0xDB3)-100
Menu ID : 506 (0x1FA)
Format : Teletext Subtitle
Language : Russian
Menu #1506
ID : 1506 (0x5E2)
Menu ID : 506 (0x1FA)
Duration : 45mn 46s
List : 2506 (0x9CA) (AVC) / 3506 (0xDB2) (MPEG Audio, English) / 3507 (0xDB3) ()
Language : / English

Скриншоты



[islamvillage.com]_t_5232613.torrent
Торрент: Зарегистрирован ·  [ 2017-02-18 22:18 ] ·  6324d50ed4fc63908eb2e772bf5e37dbf8823962

20 KB

Статус: проверено
Скачан: 0 раз
Размер: 987 MB
Оценка: 
(Голосов: 0)
Сказали спасибо: 0  Спасибо
Похожие темы
[Профиль]    [ЛС]
Показать сообщения:    
Ответить на тему

Текущее время: Сегодня 19:36

Часовой пояс: GMT + 7



Вы не можете начинать темы
Вы не можете отвечать на сообщения
Вы не можете редактировать свои сообщения
Вы не можете удалять свои сообщения
Вы не можете голосовать в опросах
Вы не можете прикреплять файлы к сообщениям
Вы можете скачивать файлы


Emily Erdbeer | User-Area | Upcoming american-football