Искатели - "Кто ты, Иван Болотников?" [2016, документальный, DVB-AVC]

Ответить на тему
Статистика раздачи [Обновить пиров]
Размер:  948 MB   |    Зарегистрирован:  2 года   |    Скачан:  0 раз

Полного источника не было: 1 месяц 11 дней

 
   
 
 
 
Автор Сообщение

islamvillage.com

Создавать темы 18-Фев-2017 22:26

[Цитировать]

Искатели - "Кто ты, Иван Болотников?".
Год выхода: 2016
Страна: Россия
Жанр: Документальный
Продолжительность: 00:43:58
Перевод: Не требуется
Русские субтитры: телетекст

Описание

Цикл познавательно-приключенческих программ, посвященный общественно значимым событиям истории России и зарубежья, а также частным историям известных людей, которые оставили потомкам много вопросов и тайн. Жанр цикла – историческое расследование, "телевизионные приключения для взрослых". Чтобы разгадать очередную тайну, "Искатели" исследуют как летописные источники, так и находки, обнаруженные непосредственно на месте исторических событий.
В выпуске: До сих пор в учебниках и в научной литературе утверждается, что Иван Болотников - это бывший бесправный холоп князя Андрея Андреевича Телятевского-Хрипуна; он возглавил поход народных масс на Москву против царя Василия Шуйского, то есть - крестьянское восстание. Однако при таком подходе совершенно непонятно, как объяснить тот факт, что в восстании также участвовали целые полки дворян и аристократов. Есть ряд обстоятельств, благодаря которым движение под предводительством Болотникова многие сегодня оценивают совершенно иначе, чем мы привыкли. Более того, существует мнение, что и сам Иван Болотников вовсе не был простым холопом - возможно, это был прославленный воин, а то и вовсе - представитель династии Рюриковичей. Так что при ином исходе этого восстания история России могла пойти совершенно иначе. У власти мог оказаться не просто другой человек, но и - другая династия. Мы решили разгадать загадку Ивана Болотникова ...
Качество видео: DVB
Формат файла: MPEG-TS
Видео: MPEG4 Video (H264), 720x576@785x576 (4:3), анаморф, 25 fps, 2700 kbps
Аудио: MPEG Audio, 2 сh, 48 kHz, 192 kbps
Трансляция спутникового канала:

MediaInfo

D:\Искатели. Кто ты Иван Болотников. (2016)_DVB by SLuMeP.ts
General #1
ID : 1 (0x1)
Complete name : D:\Искатели. Кто ты Иван Болотников. (2016)_DVB by SLuMeP.ts
Format : MPEG-TS
File size : 948 MiB
Duration : 43mn 58s
Overall bit rate mode : Variable
Overall bit rate : 3 014 Kbps
Video #2506
ID : 2506 (0x9CA)
Menu ID : 506 (0x1FA)
Format : AVC
Format/Info : Advanced Video Codec
Format profile : Main@L3.0
Format settings, CABAC : Yes
Format settings, ReFrames : 3 frames
Format settings, GOP : M=4, N=28
Codec ID : 27
Duration : 43mn 58s
Bit rate : 2 672 Kbps
Width : 720 pixels
Height : 576 pixels
Display aspect ratio : 4:3
Frame rate : 25.000 fps
Standard : Component
Color space : YUV
Chroma subsampling : 4:2:0
Bit depth : 8 bits
Scan type : Interlaced
Scan order : Top Field First
Bits/(Pixel*Frame) : 0.258
Stream size : 840 MiB (89%)
Color primaries : BT.601 PAL
Transfer characteristics : BT.470 System B, BT.470 System G
Matrix coefficients : BT.601
Audio #3506
ID : 3506 (0xDB2)
Menu ID : 506 (0x1FA)
Format : MPEG Audio
Format version : Version 1
Format profile : Layer 2
Codec ID : 3
Duration : 43mn 58s
Bit rate mode : Constant
Bit rate : 192 Kbps
Channel(s) : 2 channels
Sampling rate : 48.0 KHz
Compression mode : Lossy
Delay relative to video : -80ms
Stream size : 60.4 MiB (6%)
Language : English
Text #3507-100
ID : 3507 (0xDB3)-100
Menu ID : 506 (0x1FA)
Format : Teletext Subtitle
Language : Russian
Menu #1506
ID : 1506 (0x5E2)
Menu ID : 506 (0x1FA)
Duration : 43mn 58s
List : 2506 (0x9CA) (AVC) / 3506 (0xDB2) (MPEG Audio, English) / 3507 (0xDB3) ()
Language : / English

Скриншоты



[islamvillage.com]_t_5224962.torrent
Торрент: Зарегистрирован ·  [ 2017-02-18 22:18 ] ·  e72c4af78a618e8d0e498cc2ebf23afc80e965e0

19 KB

Статус: проверено
Скачан: 0 раз
Размер: 948 MB
Оценка: 
(Голосов: 0)
Сказали спасибо: 0  Спасибо
Похожие темы
[Профиль]    [ЛС]
Показать сообщения:    
Ответить на тему

Текущее время: Сегодня 18:53

Часовой пояс: GMT + 7



Вы не можете начинать темы
Вы не можете отвечать на сообщения
Вы не можете редактировать свои сообщения
Вы не можете удалять свои сообщения
Вы не можете голосовать в опросах
Вы не можете прикреплять файлы к сообщениям
Вы можете скачивать файлы


Bella and the Bulldogs | Jeux vidéo consoles | [BadTeensPunished] Megan Winters - Redhead Step Daughter (20 08