Искатели - "Несостоявшийся диктатор" [2016, документальный, DVB-AVC]

Ответить на тему
Статистика раздачи [Обновить пиров]
Размер:  948 MB   |    Зарегистрирован:  2 года   |    Скачан:  0 раз

Полного источника не было: Никогда

 
   
 
 
 
Автор Сообщение

islamvillage.com

Создавать темы 18-Фев-2017 22:26

[Цитировать]

Искатели - "Несостоявшийся диктатор".
Год выхода: 2016
Страна: Россия
Жанр: Документальный
Продолжительность: 00:43:53
Перевод: Не требуется
Русские субтитры: телетекст

Описание

Цикл познавательно-приключенческих программ, посвященный общественно значимым событиям истории России и зарубежья, а также частным историям известных людей, которые оставили потомкам много вопросов и тайн. Жанр цикла – историческое расследование, "телевизионные приключения для взрослых". Чтобы разгадать очередную тайну, "Искатели" исследуют как летописные источники, так и находки, обнаруженные непосредственно на месте исторических событий.
В выпуске: Утром 14 декабря 1825 года 3000 солдат вышли на Сенатскую площадь и замерли на морозе в тревожном "каре" - так началось восстание декабристов. Однако руководитель восстания (заговорщики называли его "диктатором") князь Трубецкой на площадь просто не пришел! И даже не предупредил о своем демарше никого из товарищей. Пока восставшие решали, кто займет место Трубецкого, стемнело, а по собравшимся на площади был открыт огонь - погибло около тысячи человек. На следующий день начались аресты. Так бесславно закончилось восстание декабристов. Трудно сказать, могло ли все сложиться иначе, если бы Трубецкой вышел на площадь - многие винили в провале именно его. Кто-то говорил, что князь просто испугался, другие - что переметнулся на сторону властей ...
Качество видео: DVB
Формат файла: MPEG-TS
Видео: MPEG4 Video (H264), 720x576@785x576 (4:3), анаморф, 25 fps, 2700 kbps
Аудио: MPEG Audio, 2 сh, 48 kHz, 192 kbps
Трансляция спутникового канала:

MediaInfo

D:\Искатели. Несостоявшийся диктатор. (2016)_DVB by SLuMeP.ts
General #1
ID : 1 (0x1)
Complete name : D:\Искатели. Несостоявшийся диктатор. (2016)_DVB by SLuMeP.ts
Format : MPEG-TS
File size : 948 MiB
Duration : 43mn 53s
Overall bit rate mode : Variable
Overall bit rate : 3 020 Kbps
Video #2506
ID : 2506 (0x9CA)
Menu ID : 506 (0x1FA)
Format : AVC
Format/Info : Advanced Video Codec
Format profile : Main@L3.0
Format settings, CABAC : Yes
Format settings, ReFrames : 3 frames
Format settings, GOP : M=4, N=28
Codec ID : 27
Duration : 43mn 53s
Bit rate : 2 676 Kbps
Width : 720 pixels
Height : 576 pixels
Display aspect ratio : 4:3
Frame rate : 25.000 fps
Standard : Component
Color space : YUV
Chroma subsampling : 4:2:0
Bit depth : 8 bits
Scan type : Interlaced
Scan order : Top Field First
Bits/(Pixel*Frame) : 0.258
Stream size : 840 MiB (89%)
Color primaries : BT.601 PAL
Transfer characteristics : BT.470 System B, BT.470 System G
Matrix coefficients : BT.601
Audio #3506
ID : 3506 (0xDB2)
Menu ID : 506 (0x1FA)
Format : MPEG Audio
Format version : Version 1
Format profile : Layer 2
Codec ID : 3
Duration : 43mn 53s
Bit rate mode : Constant
Bit rate : 192 Kbps
Channel(s) : 2 channels
Sampling rate : 48.0 KHz
Compression mode : Lossy
Stream size : 60.3 MiB (6%)
Language : English
Text #3507-100
ID : 3507 (0xDB3)-100
Menu ID : 506 (0x1FA)
Format : Teletext Subtitle
Language : Russian
Menu #1506
ID : 1506 (0x5E2)
Menu ID : 506 (0x1FA)
Duration : 43mn 53s
List : 2506 (0x9CA) (AVC) / 3506 (0xDB2) (MPEG Audio, English) / 3507 (0xDB3) ()
Language : / English

Скриншоты



[islamvillage.com]_t_5209115.torrent
Торрент: Зарегистрирован ·  [ 2017-02-18 22:18 ] ·  9f7791d47c4f58203ccbff943c8f6af7e0f8d0fc

19 KB

Статус: проверено
Скачан: 0 раз
Размер: 948 MB
Оценка: 
(Голосов: 0)
Сказали спасибо: 0  Спасибо
Похожие темы
[Профиль]    [ЛС]
Показать сообщения:    
Ответить на тему

Текущее время: Сегодня 18:34

Часовой пояс: GMT + 7



Вы не можете начинать темы
Вы не можете отвечать на сообщения
Вы не можете редактировать свои сообщения
Вы не можете удалять свои сообщения
Вы не можете голосовать в опросах
Вы не можете прикреплять файлы к сообщениям
Вы можете скачивать файлы


4 more uploadgig, nitroflare links | Eligiendo Mama | AVID Media Composer 5.0.3 Keygen [Mac OSX]