Искатели - "Александр Керенский. Побег, которого не было" [2016, документальный, DVB]

Ответить на тему
Статистика раздачи [Обновить пиров]
Размер:  954 MB   |    Зарегистрирован:  2 года   |    Скачан:  0 раз

Полного источника не было: 6 дней

 
   
 
 
 
Автор Сообщение

islamvillage.com

Создавать темы 18-Фев-2017 22:26

[Цитировать]

Искатели - "Александр Керенский. Побег, которого не было".
Год выхода: 2016
Страна: Россия
Жанр: Документальный
Продолжительность: 00:44:10
Перевод: Не требуется
Русские субтитры: телетекст

Описание

Цикл познавательно-приключенческих программ, посвященный общественно значимым событиям истории России и зарубежья, а также частным историям известных людей, которые оставили потомкам много вопросов и тайн. Жанр цикла – историческое расследование, "телевизионные приключения для взрослых". Чтобы разгадать очередную тайну, "Искатели" исследуют как летописные источники, так и находки, обнаруженные непосредственно на месте исторических событий.
В выпуске: В октябре 1917 года большевики взяли Зимний дворец и провозгласили начало новой эры. Лишь одно обстоятельство омрачило их триумф: среди арестованных министров Временного правительства не было главного - Александра Федоровича Керенского. Говорили, что он бежал в женском платье. И не просто говорили - об этом написал в стихах сам Маяковский, а позднее сюжет эффектно изобразили в нескольких фильмах и даже поместили в школьные учебники. Большевики явно хотели выставить Керенского в нелепом и жалком виде, однако факт остается фактом - кумир Февральской революции смог каким-то образом исчезнуть и уйти от расправы! Мы решили выяснить, как ему это удалось на самом деле.
Качество видео: DVB
Формат файла: MPEG-PS
Видео: MPEG2 Video, 720x576 (4:3), 25 fps, 2700 kbps
Аудио: MPEG Audiо, 2 сh, 48 kHz, 192 kbps
Трансляция спутникового канала:

MediaInfo

D:\Искатели. Александр Керенский. Побег, которого не было. (2016)_DVB by SLuMeP.ts
General #1
ID : 1 (0x1)
Complete name : D:\Искатели. Александр Керенский. Побег, которого не было. (2016)_DVB by SLuMeP.ts
Format : MPEG-TS
File size : 954 MiB
Duration : 44mn 10s
Overall bit rate mode : Variable
Overall bit rate : 3 019 Kbps
Video #2506
ID : 2506 (0x9CA)
Menu ID : 506 (0x1FA)
Format : AVC
Format/Info : Advanced Video Codec
Format profile : Main@L3.0
Format settings, CABAC : Yes
Format settings, ReFrames : 3 frames
Format settings, GOP : M=4, N=28
Codec ID : 27
Duration : 44mn 9s
Bit rate : 2 676 Kbps
Width : 720 pixels
Height : 576 pixels
Display aspect ratio : 4:3
Frame rate : 25.000 fps
Standard : Component
Color space : YUV
Chroma subsampling : 4:2:0
Bit depth : 8 bits
Scan type : Interlaced
Scan order : Top Field First
Bits/(Pixel*Frame) : 0.258
Stream size : 845 MiB (89%)
Color primaries : BT.601 PAL
Transfer characteristics : BT.470 System B, BT.470 System G
Matrix coefficients : BT.601
Audio #3506
ID : 3506 (0xDB2)
Menu ID : 506 (0x1FA)
Format : MPEG Audio
Format version : Version 1
Format profile : Layer 2
Codec ID : 3
Duration : 44mn 9s
Bit rate mode : Constant
Bit rate : 192 Kbps
Channel(s) : 2 channels
Sampling rate : 48.0 KHz
Compression mode : Lossy
Delay relative to video : -120ms
Stream size : 60.7 MiB (6%)
Language : English
Text #3507-100
ID : 3507 (0xDB3)-100
Menu ID : 506 (0x1FA)
Format : Teletext Subtitle
Language : Russian
Menu #1506
ID : 1506 (0x5E2)
Menu ID : 506 (0x1FA)
Duration : 44mn 10s
List : 2506 (0x9CA) (AVC) / 3506 (0xDB2) (MPEG Audio, English) / 3507 (0xDB3) ()
Language : / English

Скриншоты



[islamvillage.com]_t_5206287.torrent
Торрент: Зарегистрирован ·  [ 2017-02-18 22:18 ] ·  64ec76c66ba6a43e5898f8a2f75a180015d2e314

19 KB

Статус: проверено
Скачан: 0 раз
Размер: 954 MB
Оценка: 
(Голосов: 0)
Сказали спасибо: 0  Спасибо
Похожие темы
[Профиль]    [ЛС]
Показать сообщения:    
Ответить на тему

Текущее время: Сегодня 19:38

Часовой пояс: GMT + 7



Вы не можете начинать темы
Вы не можете отвечать на сообщения
Вы не можете редактировать свои сообщения
Вы не можете удалять свои сообщения
Вы не можете голосовать в опросах
Вы не можете прикреплять файлы к сообщениям
Вы можете скачивать файлы


Chicago Med S4 E4 | Фердинанд | Descargar