Искатели - "Загадка "танцующего" дипломата" [2015, документальный, DVB-AVC]

Ответить на тему
Статистика раздачи [Обновить пиров]
Размер:  944 MB   |    Зарегистрирован:  2 года   |    Скачан:  1 раз

Полного источника не было: 1 месяц 11 дней

 
   
 
 
 
Автор Сообщение

islamvillage.com

Создавать темы 18-Фев-2017 22:26

[Цитировать]

Искатели - "Загадка "танцующего" дипломата".
Год выхода: 2015
Страна: Россия
Жанр: Документальный
Продолжительность: 00:44:01
Субтитры: русские (Teletext)
Перевод: Не требуется

Описание

Цикл познавательно-приключенческих программ, посвященный общественно значимым событиям истории России и зарубежья, а также частным историям известных людей, которые оставили потомкам много вопросов и тайн. Жанр цикла – историческое расследование, "телевизионные приключения для взрослых". Чтобы разгадать очередную тайну, "Искатели" исследуют как летописные источники, так и находки, обнаруженные непосредственно на месте исторических событий .
В выпуске: В самом центре Москвы, на пересечении улиц Кузнецкий Мост и Большая Лубянка притаился крайне необычный монумент. Москвичи дали ему множество остроумных прозвищ - "памятник радикулиту", "да не брал я ваш кошелек!", "танцующий дипломат", "пьяный хромой"... На самом деле это памятник революционеру и одному из первых советских дипломатов Вацлаву Воровскому. Он стоит весь искривившись, на полусогнутых, голова вздернута, смотрит куда-то вбок… Одна рука засунута в карман, другая растопырена в каком-то нелепом жесте. Почему прославленный революционер и дипломат изображен в такой странной позе? Связано ли это как-то с его богатой биографией? ...
Качество видео: DVB
Формат файла: MPEG-TS
Видео: MPEG4 Video (H264), 720x576@785x576 (4:3), анаморф, 25 fps, 2700 kbps
Аудио: MPEG Audio, 2 сh, 48 kHz, 192 kbps
Трансляция спутникового канала:

MediaInfo

General
ID : 1 (0x1)
Complete name : D:\Искатели. Загадка танцующего дипломата. (2015)_DVB by SLuMeP.ts
Format : MPEG-TS
File size : 944 MiB
Duration : 44mn 1s
Overall bit rate mode : Variable
Overall bit rate : 2 996 Kbps
Video
ID : 2506 (0x9CA)
Menu ID : 506 (0x1FA)
Format : AVC
Format/Info : Advanced Video Codec
Format profile : Main@L3
Format settings, CABAC : Yes
Format settings, ReFrames : 3 frames
Format settings, GOP : M=4, N=28
Codec ID : 27
Duration : 44mn 1s
Bit rate : 2 654 Kbps
Width : 720 pixels
Height : 576 pixels
Display aspect ratio : 4:3
Frame rate : 25.000 fps
Standard : Component
Color space : YUV
Chroma subsampling : 4:2:0
Bit depth : 8 bits
Scan type : Interlaced
Scan order : Top Field First
Bits/(Pixel*Frame) : 0.256
Stream size : 836 MiB (89%)
Color range : Limited
Color primaries : BT.601 PAL
Transfer characteristics : BT.470 System B, BT.470 System G
Matrix coefficients : BT.601
Audio
ID : 3506 (0xDB2)
Menu ID : 506 (0x1FA)
Format : MPEG Audio
Format version : Version 1
Format profile : Layer 2
Codec ID : 3
Duration : 44mn 1s
Bit rate mode : Constant
Bit rate : 192 Kbps
Channel(s) : 2 channels
Sampling rate : 48.0 KHz
Compression mode : Lossy
Stream size : 60.5 MiB (6%)
Language : English
Text
ID : 3507 (0xDB3)-100
Menu ID : 506 (0x1FA)
Format : Teletext Subtitle
Language : Russian
Language, more info : For hearing impaired people

Скриншоты




[islamvillage.com]_t_5133021.torrent
Торрент: Зарегистрирован ·  [ 2017-02-18 22:18 ] ·  d8dfba8053f22b200b6d603883b46103ce56b0a7

19 KB

Статус: проверено
Скачан: 1 раз
Размер: 944 MB
Оценка: 
(Голосов: 0)
Сказали спасибо: 1  Спасибо   (список)
Похожие темы
[Профиль]    [ЛС]
Показать сообщения:    
Ответить на тему

Текущее время: Сегодня 19:10

Часовой пояс: GMT + 7



Вы не можете начинать темы
Вы не можете отвечать на сообщения
Вы не можете редактировать свои сообщения
Вы не можете удалять свои сообщения
Вы не можете голосовать в опросах
Вы не можете прикреплять файлы к сообщениям
Вы можете скачивать файлы


Leah Remini: Scientology and the Aftermath | August Falls | Notruf Hafenkante