Искатели - "Обречённый на заговор" [2015, документальный, DVB]

Ответить на тему
Статистика раздачи [Обновить пиров]
Размер:  982 MB   |    Зарегистрирован:  2 года   |    Скачан:  0 раз

Полного источника не было: Никогда

 
   
 
 
 
Автор Сообщение

islamvillage.com

Создавать темы 18-Фев-2017 22:26

[Цитировать]

Искатели - "Обречённый на заговор".
Год выхода: 2015
Страна: Россия
Жанр: Документальный
Продолжительность: 00:44:24
Перевод: Не требуется

Описание

Цикл познавательно-приключенческих программ, посвященный общественно значимым событиям истории России и зарубежья, а также частным историям известных людей, которые оставили потомкам много вопросов и тайн. Жанр цикла – историческое расследование, "телевизионные приключения для взрослых". Чтобы разгадать очередную тайну, "Искатели" исследуют как летописные источники, так и находки, обнаруженные непосредственно на месте исторических событий.
В выпуске: 24 августа 1921 года Петроградская Чрезвычайная Комиссия выносит постановление о расстреле 61 человека, среди осужденных - поэт Николай Гумилев. Обвинение - участие в заговоре Петроградской боевой организации. Убийство Гумилева - далеко не первый случай, когда поэт был уничтожен государством. Однако дело Гумилева - особое. О его гибели практически ничего не известно до сих пор. Даже о месте расстрела продолжают спорить. Не вполне понятно и самое главное - участвовал ли Гумилев в антибольшевистском заговоре, был ли виновен в том, в чем его обвиняли? К сегодняшнему дню скопилось много разных точек зрения и интерпретаций тех событий, мы постараемся сопоставить их. ...
Качество видео: DVB
Формат файла: MPEG-PS
Видео: MPEG2 Video, 720x576 (4:3), 25 fps, 2800 kbps
Аудио: MPEG Audiо, 2 сh, 48 kHz, 192 kbps
Трансляция спутникового канала:

MediaInfo

General
Complete name : G:\Искатели. Обречённый на заговор. (2015)_DVB by SLuMeP.mpg
Format : MPEG-PS
File size : 982 MiB
Duration : 44mn 24s
Overall bit rate mode : Variable
Overall bit rate : 3 092 Kbps
Video
ID : 224 (0xE0)
Format : MPEG Video
Format version : Version 2
Format profile : Main@Main
Format settings, BVOP : No
Format settings, Matrix : Custom
Format settings, GOP : Variable
Duration : 44mn 24s
Bit rate mode : Variable
Bit rate : 2 838 Kbps
Maximum bit rate : 15.0 Mbps
Width : 720 pixels
Height : 576 pixels
Display aspect ratio : 4:3
Frame rate : 25.000 fps
Standard : PAL
Color space : YUV
Chroma subsampling : 4:2:0
Bit depth : 8 bits
Scan type : Interlaced
Scan order : Top Field First
Compression mode : Lossy
Bits/(Pixel*Frame) : 0.274
Time code of first frame : 00:00:00:00
Time code source : Group of pictures header
Stream size : 902 MiB (92%)
Audio
ID : 192 (0xC0)
Format : MPEG Audio
Format version : Version 1
Format profile : Layer 2
Duration : 44mn 24s
Bit rate mode : Constant
Bit rate : 192 Kbps
Channel(s) : 2 channels
Sampling rate : 48.0 KHz
Compression mode : Lossy
Stream size : 61.0 MiB (6%)

Скриншоты




[islamvillage.com]_t_5121232.torrent
Торрент: Зарегистрирован ·  [ 2017-02-18 22:18 ] ·  ad511233d9ff536f8d9d58bb436b809a8d816050

20 KB

Статус: проверено
Скачан: 0 раз
Размер: 982 MB
Оценка: 
(Голосов: 0)
Сказали спасибо: 0  Спасибо
Похожие темы
[Профиль]    [ЛС]
Показать сообщения:    
Ответить на тему

Текущее время: Сегодня 19:32

Часовой пояс: GMT + 7



Вы не можете начинать темы
Вы не можете отвечать на сообщения
Вы не можете редактировать свои сообщения
Вы не можете удалять свои сообщения
Вы не можете голосовать в опросах
Вы не можете прикреплять файлы к сообщениям
Вы можете скачивать файлы


x264 2hd | jorgel1223 | The Punisher Veteran der US-Streitkräft