Искатели (2 фильмa) [Культура 28.12.2014-17.05.2015] (Роман Ганган) [2014-2015, Документальный цикл, DVB]

Ответить на тему
Статистика раздачи [Обновить пиров]
Размер:  6.4 GB   |    Зарегистрирован:  1 год 10 месяцев   |    Скачан:  0 раз

Полного источника не было: Никогда

 
   
 
 
 
Автор Сообщение

islamvillage.com

Создавать темы 18-Фев-2017 22:26

[Цитировать]

ИСКАТЕЛИ
Дата эфира: 28.12.2014-17.05.2015
Год выхода: 2014-2015 г.
Страна: Россия
Жанр: Документальный цикл
Продолжительность: по ~44 мин.
Режиссер: Роман Ганган
Перевод: Не требуется
Русские субтитры: нет
Производство: ООО "ЦИВИЛИЗАЦИЯ"
Описание: Цикл познавательно-приключенческих программ, посвященный общественно значимым событиям истории России и зарубежья, а также частным историям известных людей, которые оставили потомкам много вопросов и тайн. Жанр цикла – историческое расследование, "телевизионные приключения для взрослых". Чтобы разгадать очередную тайну, "Искатели" исследуют как летописные источники, так и находки, обнаруженные непосредственно на месте исторических событий.

[url=viewforum.php?f=790] [/url]
Качество: DVB
Формат файла: MPEG-PS
Видео: MPEG2 Video, 720x576 (4:3), 25 fps, 9900 kbps
Аудио: MPEG Audiо, 2 сh, 48 kHz, 224 kbps

MediaInfo 1-го фильма:

Общее
Полное имя : D:\Torrents\Iskateli_(Kul'tura)_[Torrentc.org]\01_Isk-Zagadka_Mednogo_vsadnika-28.12.2014.mpg
Формат файла : MPEG-PS
Размер файла : 3,20 Гбайт
Продолжительность : 44 м.
Общий поток : 10,4 Мбит/сек
Библиотека кодирования : (c) 1998-2009 Womble Multimedia, Inc. / MPEG Video Wizard (03/2009) / Dec 24 2009
Видео
Идентификатор : 224 (0xE0)
Формат файла : MPEG Video
Версия формата : Version 2
Профиль формата : Main@Main
Параметр BVOP формата : Да
Параметр матрицы формата : По умолчанию
Параметр GOP формата : M=3, N=15
Продолжительность : 44 м.
Битрейт : 10,0 Мбит/сек
Ширина : 720 пикселей
Высота : 576 пикселей
Соотношение сторон : 16:9
Частота кадров : 25,000 кадров/сек
Стандарт вещания : PAL
Цветовое пространство : YUV
Субдискретизация насыщенности : 4:2:0
Битовая глубина : 8 бит
Тип развёртки : Прогрессивная
Метод сжатия : С потерями
Бит/(Пиксели*Кадры) : 0.968
Размер потока : 3,07 Гбайт (96%)
Выравнивание : (c) 1998-2009 Womble Multimedia, Inc. / MPEG Video Wizard (03/2009) / Dec 24 2009
Заголовок : (c) 1998-2009 Womble Multimedia, Inc. / MPEG Video Wizard (03/2009) / Dec 24 2009
Библиотека кодирования : (c) 1998-2009 Womble Multimedia, Inc. / MPEG Video Wizard (03/2009) / Dec 24 2009
Основные цвета : BT.601 PAL
Характеристики трансфера : BT.470 System B, BT.470 System G
Коэффициенты матрицы : BT.601
Аудио
Идентификатор : 192 (0xC0)
Формат файла : MPEG Audio
Версия формата : Version 1
Профиль формата : Layer 2
Продолжительность : 44 м.
Вид битрейта : Постоянный
Битрейт : 224 Кбит/сек
Каналы : 2 канала
Частота : 48,0 КГц
Метод сжатия : С потерями
Размер потока : 70,8 Мбайт (2%)
Список фильмов:Фильм 1-й. "Загадка Медного всадника". (эфир_28.12.2014):">

Скриншоты (превью, увеличение по клику): Список фильмов:Фильм 1-й. "Загадка Медного всадника". (эфир_28.12.2014):


В этом фильме: 1812 год. Петербург - столица империи - в опасности: к ней стремительно приближается армия Наполеона. Александр I приказывает срочно эвакуировать особо ценные произведения искусства. Первым в списке значится Медный всадник. На операцию выделено несколько тысяч рублей - огромные по тем временам деньги! Однако неожиданно Александр принимает решение - памятник не эвакуировать! Впоследствии монумент оставался на своем месте и в Первую Мировую, и в Великую Отечественную… Почему же Медного всадника не эвакуировали ни в одну из войн? Может быть, статуя Петра мистическим образом "хранит" основанный им город? Или просто вывезти памятник было невозможно физически? А может тут кроется что-то еще?
Через 20 лет после победы над Наполеоном Пушкин пишет поэму "Медный всадник", которая почему-то была запрещена к печати самим императором и увидела свет лишь после смерти поэта и то в неполном виде! Что - Пушкин тронул "запретную тему"? Приоткрыл завесу государственной тайны? Что же скрывается за несостоявшейся эвакуацией Медного всадника?
Имя файла: 01_Isk-Zagadka_Mednogo_vsadnika-28.12.2014.avi

Фильм 2-й. "Тайны воздушного боя". (эфир_17.05.2015):

В этом фильме: В июне 2014 года в Домодедовском районе Подмосковья были обнаружены обломки военного самолета, на котором во время Второй мировой войны совершил таран сам Виктор Талалихин. Подвиг Талалихина вошёл в историю и принес ему славу и звание Героя Советского Союза, но находка добавила неожиданную информацию. Среди обломков поисковики обнаружили несколько гильз с непробитым капсюлем, то есть они были еще не расстреляны. Это означало, что летчик решился на таран, еще не израсходовав боезапас, что противоречит официальной версии о том, что Талалихин совершил столь рискованный поступок, лишь когда таран стал последней возможностью нанести урон врагу. И, как оказалось, этот случай был не единственным. Германская сторона давно выдвинула версию об особых советских "эскадрильях смертников". "Искатели" постараются разобраться: что если секретные подразделения лётчиков-смертников действительно существовали?
Имя файла: 02_Isk-Tajny_vozdushnogo_boja-17.05.2015.avi
Заменил: Фильм 2-й. "Тайны воздушного боя". (эфир_17.05.2015). Пожалуйста, обновите торрент-файл.
Раздача разовая. Регулярно раздает с хорошим качеством мой коллега SLuMeP.


[islamvillage.com]_t_4905269.torrent
Торрент: Зарегистрирован ·  [ 2017-02-18 22:18 ] ·  c79ec36b2b546a425b1721e2695eb082260c6bff

33 KB

Статус: проверено
Скачан: 0 раз
Размер: 6.4 GB
Оценка: 
(Голосов: 0)
Сказали спасибо: 0  Спасибо
Похожие темы
[Профиль]    [ЛС]
Показать сообщения:    
Ответить на тему

Текущее время: Сегодня 06:11

Часовой пояс: GMT + 7



Вы не можете начинать темы
Вы не можете отвечать на сообщения
Вы не можете редактировать свои сообщения
Вы не можете удалять свои сообщения
Вы не можете голосовать в опросах
Вы не можете прикреплять файлы к сообщениям
Вы можете скачивать файлы


Merry Christmas and Happy New Year 142925 | Watch Movie | Secret Santa