Искатели - "Сокровища атамана Кудеяра" [2014, документальный, DVB]

Ответить на тему
Статистика раздачи [Обновить пиров]
Размер:  1006 MB   |    Зарегистрирован:  2 года   |    Скачан:  0 раз

Полного источника не было: Никогда

 
   
 
 
 
Автор Сообщение

islamvillage.com

Создавать темы 18-Фев-2017 22:26

[Цитировать]

Искатели - "Сокровища атамана Кудеяра".
Год выхода: 2014
Страна: Россия
Жанр: Документальный
Продолжительность: 00:43:52
Перевод: Не требуется

Описание

Цикл познавательно-приключенческих программ, посвященный общественно значимым событиям истории России и зарубежья, а также частным историям известных людей, которые оставили потомкам много вопросов и тайн. Жанр цикла – историческое расследование, "телевизионные приключения для взрослых". Чтобы разгадать очередную тайну, "Искатели" исследуют как летописные источники, так и находки, обнаруженные непосредственно на месте исторических событий .
В выпуске: Образ разбойника Кудеяра известен по песням, легендам, а также по названиям разных мест в европейской части России. От Пскова до Воронежа находятся овраги, схроны, курганы, камни и урочища Кудеяра, в которых якобы спрятаны сокровища атамана. Существовал ли когда-нибудь этот клад? Прежде чем отправиться на его поиски, следует убедиться в существовании самого атамана. По одной из версий Кудеяр - старший брат Ивана Грозного, незаконно отстраненный от престола, по другой - завоеватель Сибири Ермак
Авторы программы пытаются найти подтверждение мифов в исторических документах и разобраться, кем же был разбойник Кудеяр на самом деле ...
Качество видео: DVB
Формат файла: MPEG-PS
Видео: MPEG2 Video, 720x576 (4:3), 25 fps, 2900 kbps
Аудио: MPEG Audiо, 2 сh, 48 kHz, 192 kbps
Трансляция спутникового канала:

MediaInfo

General
Complete name : D:\Искатели. Сокровища атамана Кудеяра. (2014)_DVB by SLuMeP.mpg
Format : MPEG-PS
File size : 1 006 MiB
Duration : 43mn 52s
Overall bit rate mode : Variable
Overall bit rate : 3 205 Kbps
Video
ID : 224 (0xE0)
Format : MPEG Video
Format version : Version 2
Format profile : Main@Main
Format settings, BVOP : No
Format settings, Matrix : Custom
Format settings, GOP : Variable
Duration : 43mn 52s
Bit rate mode : Variable
Bit rate : 2 949 Kbps
Maximum bit rate : 15.0 Mbps
Width : 720 pixels
Height : 576 pixels
Display aspect ratio : 4:3
Frame rate : 25.000 fps
Standard : PAL
Color space : YUV
Chroma subsampling : 4:2:0
Bit depth : 8 bits
Scan type : Interlaced
Scan order : Top Field First
Compression mode : Lossy
Bits/(Pixel*Frame) : 0.284
Time code of first frame : 00:00:00:00
Time code source : Group of pictures header
Stream size : 925 MiB (92%)
Audio
ID : 192 (0xC0)
Format : MPEG Audio
Format version : Version 1
Format profile : Layer 2
Duration : 43mn 52s
Bit rate mode : Constant
Bit rate : 192 Kbps
Channel(s) : 2 channels
Sampling rate : 48.0 KHz
Compression mode : Lossy
Stream size : 60.2 MiB (6%)

Скриншоты



[islamvillage.com]_t_4900341.torrent
Торрент: Зарегистрирован ·  [ 2017-02-18 22:18 ] ·  a34853d45fa2ae1509f78f53c3b00963b073e190

20 KB

Статус: проверено
Скачан: 0 раз
Размер: 1006 MB
Оценка: 
(Голосов: 0)
Сказали спасибо: 0  Спасибо
Похожие темы
[Профиль]    [ЛС]
Показать сообщения:    
Ответить на тему

Текущее время: Сегодня 19:09

Часовой пояс: GMT + 7



Вы не можете начинать темы
Вы не можете отвечать на сообщения
Вы не можете редактировать свои сообщения
Вы не можете удалять свои сообщения
Вы не можете голосовать в опросах
Вы не можете прикреплять файлы к сообщениям
Вы можете скачивать файлы


The Faces of (2018) | Мыло | Girls’ Talk - Friday - Girls’ Talk - 呃Like 派出所 - Episode 94