Искатели - "Сокровища коломенских подземелий" [2014, документальный, DVB]

Ответить на тему
Статистика раздачи [Обновить пиров]
Размер:  1.08 GB   |    Зарегистрирован:  2 года   |    Скачан:  0 раз

Полного источника не было: Никогда

 
   
 
 
 
Автор Сообщение

islamvillage.com

Создавать темы 18-Фев-2017 22:26

[Цитировать]

Искатели - "Сокровища коломенских подземелий".
Год выхода: 2014
Страна: Россия
Жанр: Документальный
Продолжительность: 00:43:57
Перевод: Не требуется

Описание

Цикл познавательно-приключенческих программ, посвященный общественно значимым событиям истории России и зарубежья, а также частным историям известных людей, которые оставили потомкам много вопросов и тайн. Жанр цикла – историческое расследование, "телевизионные приключения для взрослых". Чтобы разгадать очередную тайну, "Искатели" исследуют как летописные источники, так и находки, обнаруженные непосредственно на месте исторических событий .
В выпуске: В селе Бобренево, что под Коломной, расположен древний монастырь, основанный ещё Дмитрием Донским. В 2005 году, во время реставрационных работ, здесь были обнаружены подземные ходы. По окрестностям тут же поползли слухи: там спрятаны несметные сокровища! После того, как двое кладоискателей погибли под обломками обрушившихся на них старых балок, ходы были закрыты для посещений, однако это лишь усилило ажиотаж вокруг них. Искатели решили разобраться, куда ведут подземелья Бобренева монастыря и что за сокровища там могут быть спрятаны. Есть предположение, что это знаменитый Пояс Власти - свадебный подарок Дмитрия Донского, мистический артефакт, столетиями не дававший покоя претендентам на русский трон.
Качество видео: DVB
Формат файла: MPEG-PS
Видео: MPEG2 Video, 720x576 (4:3), 25 fps, 3300 kbps
Аудио: MPEG Audiо, 2 сh, 48 kHz, 192 kbps
Трансляция спутникового канала:

MediaInfo

General
Complete name : D:\Искатели. Сокровища коломенских подземелий. (2014)_DVB by SLuMeP.mpg
Format : MPEG-PS
File size : 1.08 GiB
Duration : 43mn 57s
Overall bit rate mode : Variable
Overall bit rate : 3 522 Kbps
Video
ID : 224 (0xE0)
Format : MPEG Video
Format version : Version 2
Format profile : Main@Main
Format settings, BVOP : No
Format settings, Matrix : Custom
Format settings, GOP : Variable
Duration : 43mn 57s
Bit rate mode : Variable
Bit rate : 3 260 Kbps
Maximum bit rate : 15.0 Mbps
Width : 720 pixels
Height : 576 pixels
Display aspect ratio : 4:3
Frame rate : 25.000 fps
Standard : PAL
Color space : YUV
Chroma subsampling : 4:2:0
Bit depth : 8 bits
Scan type : Interlaced
Scan order : Top Field First
Compression mode : Lossy
Bits/(Pixel*Frame) : 0.314
Time code of first frame : 00:00:00:00
Time code source : Group of pictures header
Stream size : 1.00 GiB (93%)
Audio
ID : 192 (0xC0)
Format : MPEG Audio
Format version : Version 1
Format profile : Layer 2
Duration : 43mn 57s
Bit rate mode : Constant
Bit rate : 192 Kbps
Channel(s) : 2 channels
Sampling rate : 48.0 KHz
Compression mode : Lossy
Stream size : 60.4 MiB (5%)

Скриншоты



[islamvillage.com]_t_4859374.torrent
Торрент: Зарегистрирован ·  [ 2017-02-18 22:18 ] ·  8427f66259883a4ef6b7371b7f2b2a34ddd0af94

11 KB

Статус: проверено
Скачан: 0 раз
Размер: 1.08 GB
Оценка: 
(Голосов: 0)
Сказали спасибо: 0  Спасибо
Похожие темы
[Профиль]    [ЛС]
Показать сообщения:    
Ответить на тему

Текущее время: Сегодня 18:42

Часовой пояс: GMT + 7



Вы не можете начинать темы
Вы не можете отвечать на сообщения
Вы не можете редактировать свои сообщения
Вы не можете удалять свои сообщения
Вы не можете голосовать в опросах
Вы не можете прикреплять файлы к сообщениям
Вы можете скачивать файлы


Documentary | Mood Relaxing Sounds | More Details