Искатели - "Тайна монастырской звонницы" [2014, документальный, DVB]

Ответить на тему
Статистика раздачи [Обновить пиров]
Размер:  909 MB   |    Зарегистрирован:  2 года   |    Скачан:  0 раз

Полного источника не было: Никогда

 
   
 
 
 
Автор Сообщение

islamvillage.com

Создавать темы 18-Фев-2017 22:26

[Цитировать]

Искатели - "Тайна монастырской звонницы".
Год выхода: 2014
Страна: Россия
Жанр: Документальный
Продолжительность: 00:44:01
Перевод: Не требуется

Описание

Цикл познавательно-приключенческих программ, посвященный общественно значимым событиям истории России и зарубежья, а также частным историям известных людей, которые оставили потомкам много вопросов и тайн. Жанр цикла – историческое расследование, "телевизионные приключения для взрослых". Чтобы разгадать очередную тайну, "Искатели" исследуют как летописные источники, так и находки, обнаруженные непосредственно на месте исторических событий .
В выпуске: 6 мая 1923 года в Соловецком кремле случился такой сильный пожар, что расплавились даже малые колокола звонницы. И хотя сохранились свидетельства, что не все колокола пострадали во время пожара, в 1920 годы они пропали, и с тех пор звон на архипелаге не раздавался почти полвека. Кто-то говорит, что колокола были отправлены на материк на переплавку, но по дороге баржа затонула, другие - что они были затоплены монахами, чтобы спасти их от поругания. Все последние годы историки пытаются найти следы пропавших колоколов, но пока безрезультатно. Искатели отправляются в Соловецкий монастырь, чтобы расследовать все детали этой истории и попытаться узнать, куда пропали колокола, которые звонили несколько веков.
Качество видео: DVB
Формат файла: MPEG-PS
Видео: MPEG2 Video, 720x576 (4:3), 25 fps, 2700 kbps
Аудио: MPEG Audiо, 2 сh, 48 kHz, 192 kbps
Трансляция спутникового канала:

MediaInfo

General
Complete name : D:\Искатели. Тайна монастырской звонницы. (2014)_DVB by SLuMeP.mpg
Format : MPEG-PS
File size : 909 MiB
Duration : 44mn 1s
Overall bit rate mode : Variable
Overall bit rate : 2 888 Kbps
Video
ID : 224 (0xE0)
Format : MPEG Video
Format version : Version 2
Format profile : Main@Main
Format settings, BVOP : No
Format settings, Matrix : Custom
Format settings, GOP : Variable
Duration : 44mn 1s
Bit rate mode : Variable
Bit rate : 2 638 Kbps
Maximum bit rate : 15.0 Mbps
Width : 720 pixels
Height : 576 pixels
Display aspect ratio : 4:3
Frame rate : 25.000 fps
Standard : PAL
Color space : YUV
Chroma subsampling : 4:2:0
Bit depth : 8 bits
Scan type : Interlaced
Scan order : Top Field First
Compression mode : Lossy
Bits/(Pixel*Frame) : 0.254
Time code of first frame : 00:00:00:00
Time code source : Group of pictures header
Stream size : 831 MiB (91%)
Audio
ID : 192 (0xC0)
Format : MPEG Audio
Format version : Version 1
Format profile : Layer 2
Duration : 44mn 1s
Bit rate mode : Constant
Bit rate : 192 Kbps
Channel(s) : 2 channels
Sampling rate : 48.0 KHz
Compression mode : Lossy
Stream size : 60.5 MiB (7%)

Скриншоты



[islamvillage.com]_t_4857873.torrent
Торрент: Зарегистрирован ·  [ 2017-02-18 22:18 ] ·  c5df40eacf374c1c42e17171ae235ad974eb775e

18 KB

Статус: проверено
Скачан: 0 раз
Размер: 909 MB
Оценка: 
(Голосов: 0)
Сказали спасибо: 0  Спасибо
Похожие темы
[Профиль]    [ЛС]
Показать сообщения:    
Ответить на тему

Текущее время: Сегодня 19:46

Часовой пояс: GMT + 7



Вы не можете начинать темы
Вы не можете отвечать на сообщения
Вы не можете редактировать свои сообщения
Вы не можете удалять свои сообщения
Вы не можете голосовать в опросах
Вы не можете прикреплять файлы к сообщениям
Вы можете скачивать файлы


Детектив | Faroeste | Donna: accessori