Искатели - "Медвежья берлога" фюрера" [2014, документальный, DVB]

Ответить на тему
Статистика раздачи [Обновить пиров]
Размер:  1019 MB   |    Зарегистрирован:  1 год 10 месяцев   |    Скачан:  0 раз

Полного источника не было: Никогда

 
   
 
 
 
Автор Сообщение

islamvillage.com

Создавать темы 18-Фев-2017 22:26

[Цитировать]

Искатели - "Медвежья берлога" фюрера".
Год выхода: 2014
Страна: Россия
Жанр: Документальный
Продолжительность: 00:44:02
Перевод: Не требуется

Описание

Цикл познавательно-приключенческих программ, посвященный общественно значимым событиям истории России и зарубежья, а также частным историям известных людей, которые оставили потомкам много вопросов и тайн. Жанр цикла – историческое расследование, "телевизионные приключения для взрослых". Чтобы разгадать очередную тайну, "Искатели" исследуют как летописные источники, так и находки, обнаруженные непосредственно на месте исторических событий .
В выпуске: Сразу после окончания Второй мировой войны по Смоленску поползли слухи, что в поселке Красный Бор немцы оставили после себя огромный подземный комплекс "Беренхалле", что в переводе означает "Медвежья берлога". Комплекс якобы состоял из стратегического узла связи "Винтовая лестница", 4-х подземных этажей, конференц-зала на 250 мест и многокилометровых тоннелей, ведущих к Днепру и небольшому аэродрому. Однако, несмотря на такие подробные сведения, даже вход в бункер до сих пор не найден. Искатели отправляются в Смоленск, чтобы попытаться найти ключи к тайне "Медвежьей берлоги" фюрера..
Качество видео: DVB
Формат файла: MPEG-PS
Видео: MPEG2 Video, 720x576 (4:3), 25 fps, 3000 kbps
Аудио: MPEG Audiо, 2 сh, 48 kHz, 192 kbps
Трансляция спутникового канала:

MediaInfo

General
Complete name : D:\Искатели. Медвежья берлога фюрера. (2014)_DVB by SLuMeP.mpg
Format : MPEG-PS
File size : 1 019 MiB
Duration : 44mn 2s
Overall bit rate mode : Variable
Overall bit rate : 3 234 Kbps
Video
ID : 224 (0xE0)
Format : MPEG Video
Format version : Version 2
Format profile : Main@Main
Format settings, BVOP : No
Format settings, Matrix : Custom
Format settings, GOP : Variable
Duration : 44mn 2s
Bit rate mode : Variable
Bit rate : 2 978 Kbps
Maximum bit rate : 15.0 Mbps
Width : 720 pixels
Height : 576 pixels
Display aspect ratio : 4:3
Frame rate : 25.000 fps
Standard : PAL
Color space : YUV
Chroma subsampling : 4:2:0
Bit depth : 8 bits
Scan type : Interlaced
Scan order : Top Field First
Compression mode : Lossy
Bits/(Pixel*Frame) : 0.287
Time code of first frame : 00:00:00:00
Time code source : Group of pictures header
Stream size : 938 MiB (92%)
Audio
ID : 192 (0xC0)
Format : MPEG Audio
Format version : Version 1
Format profile : Layer 2
Duration : 44mn 2s
Bit rate mode : Constant
Bit rate : 192 Kbps
Channel(s) : 2 channels
Sampling rate : 48.0 KHz
Compression mode : Lossy
Stream size : 60.5 MiB (6%)

Скриншоты



[islamvillage.com]_t_4852492.torrent
Торрент: Зарегистрирован ·  [ 2017-02-18 22:18 ] ·  97f1d579cbd3c94c2080716c9219b29cc152880e

20 KB

Статус: проверено
Скачан: 0 раз
Размер: 1019 MB
Оценка: 
(Голосов: 0)
Сказали спасибо: 0  Спасибо
Похожие темы
[Профиль]    [ЛС]
Показать сообщения:    
Ответить на тему

Текущее время: Сегодня 05:53

Часовой пояс: GMT + 7



Вы не можете начинать темы
Вы не можете отвечать на сообщения
Вы не можете редактировать свои сообщения
Вы не можете удалять свои сообщения
Вы не можете голосовать в опросах
Вы не можете прикреплять файлы к сообщениям
Вы можете скачивать файлы


Pasta montaggio pneumatici BIANCA 5 kG per gomme auto e moto MADE IN GERMANY | Great Sardaar.2018.Punjabi.1080p.AmazonDl.AVC.DDP.2.0.Telly | Instagram APK