Искатели - "Незатерянный мир" [2012, документальный, DVB-AVC]

Ответить на тему
Статистика раздачи [Обновить пиров]
Размер:  1.09 GB   |    Зарегистрирован:  2 года   |    Скачан:  0 раз

Полного источника не было: Никогда

 
   
 
 
 
Автор Сообщение

islamvillage.com

Создавать темы 18-Фев-2017 22:26

[Цитировать]

Искатели - "Незатерянный мир".
Год выхода: 2012
Страна: Россия
Жанр: Документальный
Продолжительность: 00:44:11
Перевод: Не требуется

Описание

Цикл познавательно-приключенческих программ, посвященный общественно значимым событиям истории России и зарубежья, а также частным историям известных людей, которые оставили потомкам много вопросов и тайн. Жанр цикла – историческое расследование, "телевизионные приключения для взрослых". Чтобы разгадать очередную тайну, "Искатели" исследуют как летописные источники, так и находки, обнаруженные непосредственно на месте исторических событий .
В выпуске: Русский ученый Н.М. Альбов, исходивший вдоль и поперек горы Западного Кавказа, в 1893 году первым обратил внимание на древние каменные сооружения под названием "ацангуары" (ограды карликов), находимые в зоне альпийских лугов. Ученые до сих пор спорят о происхождении этих построек. В 70-х годах ХХ века к ацангурам была направлена археологическая экспедиция. Но она не внесла ясности, и единого мнения о происхождении этих странных сооружений у научного мира нет и по сей день. Но в одном исследователи сходятся наверняка: ацангуары хранят тайны, сравнимые с загадками знаменитых племен инков и майя, цивилизаций, которые по неизвестным причинам когда-то также исчезли из своих древних городов.
Качество видео: DVB
Формат файла: MPEG-TS
Видео: MPEG4 Video (H264), 720x576@785x576 (4:3), анаморф, 25 fps, 3200 kbps
Аудио: MPEG Audio, 2 сh, 48 kHz, 192 kbps
Трансляция спутникового канала:

MediaInfo

General
ID : 1 (0x1)
Complete name : C:\Искатели. Незатерянный мир. (2012)_DVB by SLuMeP.ts
Format : MPEG-TS
File size : 1.09 GiB
Duration : 44mn 11s
Overall bit rate mode : Variable
Overall bit rate : 3 534 Kbps
Video
ID : 230 (0xE6)
Menu ID : 1 (0x1)
Format : AVC
Format/Info : Advanced Video Codec
Format profile : High@L3.0
Format settings, CABAC : Yes
Format settings, ReFrames : 4 frames
Codec ID : 27
Duration : 44mn 11s
Bit rate : 3 165 Kbps
Width : 720 pixels
Height : 576 pixels
Display aspect ratio : 4:3
Frame rate : 25.000 fps
Standard : PAL
Color space : YUV
Chroma subsampling : 4:2:0
Bit depth : 8 bits
Scan type : MBAFF
Bits/(Pixel*Frame) : 0.305
Stream size : 1 001 MiB (90%)
Audio
ID : 330 (0x14A)
Menu ID : 1 (0x1)
Format : MPEG Audio
Format version : Version 1
Format profile : Layer 2
Codec ID : 3
Duration : 44mn 11s
Bit rate mode : Constant
Bit rate : 192 Kbps
Channel(s) : 2 channels
Sampling rate : 48.0 KHz
Compression mode : Lossy
Stream size : 60.7 MiB (5%)
Language : English

Скриншоты




[islamvillage.com]_t_4800137.torrent
Торрент: Зарегистрирован ·  [ 2017-02-18 22:18 ] ·  ef4b7360afd43bc675200ebd2f75e5b7e13d1c81

11 KB

Статус: проверено
Скачан: 0 раз
Размер: 1.09 GB
Оценка: 
(Голосов: 0)
Сказали спасибо: 0  Спасибо
Похожие темы
[Профиль]    [ЛС]
Показать сообщения:    
Ответить на тему

Текущее время: Сегодня 19:26

Часовой пояс: GMT + 7



Вы не можете начинать темы
Вы не можете отвечать на сообщения
Вы не можете редактировать свои сообщения
Вы не можете удалять свои сообщения
Вы не можете голосовать в опросах
Вы не можете прикреплять файлы к сообщениям
Вы можете скачивать файлы


2x T10 168 W5W COB 8 SMD LED Coche Silica Super Bright License Light Bulb W A7V5 191466260975 | Instant Family (2018) | Ведро Укропа