Искатели - "Тайна русских пирамид" [2014, документальный, DVB]

Ответить на тему
Статистика раздачи [Обновить пиров]
Размер:  621 MB   |    Зарегистрирован:  2 года   |    Скачан:  0 раз

Полного источника не было: Никогда

 
   
 
 
 
Автор Сообщение

islamvillage.com

Создавать темы 18-Фев-2017 22:26

[Цитировать]

Искатели - "Тайна русских пирамид".
Год выхода: 2014
Страна: Россия
Жанр: Документальный
Продолжительность: 00:44:02
Перевод: Не требуется

Описание

Цикл познавательно-приключенческих программ, посвященный общественно значимым событиям истории России и зарубежья, а также частным историям известных людей, которые оставили потомкам много вопросов и тайн. Жанр цикла – историческое расследование, "телевизионные приключения для взрослых". Чтобы разгадать очередную тайну, "Искатели" исследуют как летописные источники, так и находки, обнаруженные непосредственно на месте исторических событий .
В выпуске: В начале XIX века по Тверской губернии прокатились слухи, что в усадьбе Николая Львова под Торжком происходит что-то невероятное… Даже в засушливые годы там собирали богатый урожай, а крестьяне выращивали промышленный сорт винограда. Поговаривали, что все это стало возможным благодаря неким пирамидам, которые Львов построил у себя в поместье и в двух ближайших имениях. Искатели решили разобраться, для чего Николай Львов возвел эти таинственные сооружения.
Качество видео: DVB
Формат файла: MPEG-PS
Видео: MPEG2 Video, 720x576 (4:3), 25 fps, 1700 kbps
Аудио: MPEG Audiо, 2 сh, 48 kHz, 192 kbps
Трансляция спутникового канала:

MediaInfo

General
Complete name : D:\Искатели. Тайна русских пирамид. (2014)_DVB by SLuMeP.mpg
Format : MPEG-PS
File size : 621 MiB
Duration : 44mn 2s
Overall bit rate mode : Variable
Overall bit rate : 1 970 Kbps
Video
ID : 224 (0xE0)
Format : MPEG Video
Format version : Version 2
Format profile : Main@Main
Format settings, BVOP : No
Format settings, Matrix : Custom
Format settings, GOP : Variable
Duration : 44mn 2s
Bit rate mode : Variable
Bit rate : 1 738 Kbps
Maximum bit rate : 15.0 Mbps
Width : 720 pixels
Height : 576 pixels
Display aspect ratio : 4:3
Frame rate : 25.000 fps
Standard : PAL
Color space : YUV
Chroma subsampling : 4:2:0
Bit depth : 8 bits
Scan type : Interlaced
Scan order : Top Field First
Compression mode : Lossy
Bits/(Pixel*Frame) : 0.168
Time code of first frame : 00:00:00:00
Time code source : Group of pictures header
Stream size : 548 MiB (88%)
Audio
ID : 192 (0xC0)
Format : MPEG Audio
Format version : Version 1
Format profile : Layer 2
Duration : 44mn 2s
Bit rate mode : Constant
Bit rate : 192 Kbps
Channel(s) : 2 channels
Sampling rate : 48.0 KHz
Compression mode : Lossy
Stream size : 60.5 MiB (10%)

Скриншоты



[islamvillage.com]_t_4772789.torrent
Торрент: Зарегистрирован ·  [ 2017-02-18 22:18 ] ·  c0b482f1e494c5cd92aa7d4f4928deb5d243e9b8

13 KB

Статус: проверено
Скачан: 0 раз
Размер: 621 MB
Оценка: 
(Голосов: 0)
Сказали спасибо: 0  Спасибо
Похожие темы
[Профиль]    [ЛС]
Показать сообщения:    
Ответить на тему

Текущее время: Сегодня 18:44

Часовой пояс: GMT + 7



Вы не можете начинать темы
Вы не можете отвечать на сообщения
Вы не можете редактировать свои сообщения
Вы не можете удалять свои сообщения
Вы не можете голосовать в опросах
Вы не можете прикреплять файлы к сообщениям
Вы можете скачивать файлы


ozzy bajka 2017 | Nurse Witch Komugi-chan Magikarte Episode 2.5 English Subbed | Princess Tutu