(Drone Doom, Ambient) Sunn O))) - 00 Void (2CD) (2008 Reissue, Daymare Recordings, Japan) - 2000, FLAC (tracks+.cue), lossless

Ответить на тему
Статистика раздачи [Обновить пиров]
Размер:  546 MB   |    Зарегистрирован:  1 год 7 месяцев   |    Скачан:  0 раз

Полного источника не было: Никогда

 
   
 
 
 
Автор Сообщение

islamvillage.com

Создавать темы 13-Июн-2017 23:45

[Цитировать]

Sunn O))) - ØØ Void
Label: Daymare Recordings
Catalog#: DYMC-024
Format: CD, Album, Reissue
CD, Album
Country: Japan
Released: 08 Feb 2008
Genre: Electronic, Rock
Style: Drone, Doom Metal, Experimental
Credits: Arranged By - Sunn O))) (tracks: 1-3)
Mastered By - Philip Easter
Producer - Scott Reeder , Sunn O)))
Remix - Colin Potter (tracks: 2-1 to 2-3) , Steven Stapleton (tracks: 2-1 to 2-3)
Written-By - Melvins (tracks: 1-3)
Written-By, Arranged By - Duke, The (5) (tracks: 1-2) , G:Subharmonia (tracks: 1-1) , MK Ultra Blizzard (tracks: 1-4)
Notes: Re-release of HH666-94 including a second bonus disc "The Iron Soul Of Nothing" credited to "SUNN 0))) MEETS NURSE WITH WOUND". Released in a hard gatefold slip-case with metallic obi-strip.
Recorded by Scott Reeder at Grandmaster Studio/Hollywood January 2000.
Produced by SUNN O))) & Scott Reeder.
Mastered by Phil Easter.
SUNN O))): G:Subharmonia . The Duke . MK Ultra Blizzard
Guests: Pete Stahl, Petra Haden, The Melvins (1985), Sarin (1997)
All songs written/arranged by SUNN O))) as noted except Rabbits' Revenge originally written by The Melvins/re-arranged by SUNN O))).
SUNN O))) meets Nurse With Wound "The Iron Soul Of Nothing"
ØØ VOID remixed by Nurse With Wound.
Alchemical dialysis at IC Studio November & December 2007.
Procedures executed by Steven Stapleton & Colin Potter.
Previously unreleased.
Thanks to everyone involved in this documentation and to Aaron Turner, Lee Dorrian, Tadashi Hamada, Steve Pittis, Stephen Kasner for helping it happen.
Special thanks to Steven Stapleton, Colin Potter & David Tibet to midwifery in this beasts' resurrection.
Продолжительность: 58:35 + 1:01:34
Tracklisting:
ØØ Void
1-1 Sunn O))) - Richard (14:32)
1-2 Sunn O))) - NN O))) (15:15)
1-3 Sunn O))) - Rabbits' Revenge (14:01)
1-4 Sunn O))) - Ra At Dusk (Invokation 274 SPDR) (14:43)
The Iron Soul Of Nothing
2-1 Sunn O))) Meets Nurse With Wound - Dysnystaxis (19:01)
2-2 Sunn O))) Meets Nurse With Wound - Ash On The Trees (17:08)
2-3 Sunn O))) Meets Nurse With Wound - Ra At Dawn (25:25)

CD1: EAC Log

Exact Audio Copy V0.99 prebeta 3 from 28. July 2007
EAC extraction logfile from 3. September 2008, 2:13
Sunn O))) / 00 Void (2CD Reissue) (Disc 1)
Used drive : HL-DT-STCD-RW GCE-8481B Adapter: 1 ID: 0
Read mode : SecureUtilize accurate stream : YesDefeat audio cache : YesMake use of C2 pointers : No
Read offset correction : 6Overread into Lead-In and Lead-Out : NoFill up missing offset samples with silence : YesDelete leading and trailing silent blocks : NoNull samples used in CRC calculations : YesUsed interface : Installed external ASPI interfaceGap handling : Appended to previous track
Used output format : User Defined EncoderSelected bitrate : 192 kBit/sQuality : HighAdd ID3 tag : NoCommand line compressor : C:\Program Files\Exact Audio Copy\flac.exeAdditional command line options : -8 -A tukey(0.25) -A gauss(0.1875) -b 4096 -V -T "artist=%a" -T "title=%t" -T "album=%g" -T "date=%y" -T "tracknumber=%n" -T "genre=%m" %s --sector-align
TOC of the extracted CD
Track | Start | Length | Start sector | End sector --------------------------------------------------------- 1 | 0:00.00 | 14:33.02 | 0 | 65476 2 | 14:33.02 | 15:15.68 | 65477 | 134169 3 | 29:48.70 | 14:01.22 | 134170 | 197266 4 | 43:50.17 | 14:44.35 | 197267 | 263601
Track 1
Filename G:\Music\Sunn O)))\Sunn O))) - (2000) 00 Void (2CD Daymare Reissue) (FLAC)\Disc 1 - 00 Void\01. Richard.wav
Pre-gap length 0:00:02.00
Peak level 100.0 % Track quality 100.0 % Test CRC 5E2247B3 Copy CRC 5E2247B3 Track not present in AccurateRip database Copy OK
Track 2
Filename G:\Music\Sunn O)))\Sunn O))) - (2000) 00 Void (2CD Daymare Reissue) (FLAC)\Disc 1 - 00 Void\02. NN O))).wav
Pre-gap length 0:00:04.58
Peak level 100.0 % Track quality 100.0 % Test CRC 55974441 Copy CRC 55974441 Track not present in AccurateRip database Copy OK
Track 3
Filename G:\Music\Sunn O)))\Sunn O))) - (2000) 00 Void (2CD Daymare Reissue) (FLAC)\Disc 1 - 00 Void\03. Rabbits' Revenge.wav
Pre-gap length 0:00:07.62
Peak level 100.0 % Track quality 100.0 % Test CRC BE0A7C92 Copy CRC BE0A7C92 Track not present in AccurateRip database Copy OK
Track 4
Filename G:\Music\Sunn O)))\Sunn O))) - (2000) 00 Void (2CD Daymare Reissue) (FLAC)\Disc 1\04. Ra at Dusk.wav
Pre-gap length 0:00:10.61
Peak level 100.0 % Track quality 99.9 % Test CRC 235AE901 Copy CRC 235AE901 Track not present in AccurateRip database Copy OK
None of the tracks are present in the AccurateRip database
No errors occurred
End of status report

CD2: EAC Log

Exact Audio Copy V0.99 prebeta 3 from 28. July 2007
EAC extraction logfile from 3. September 2008, 4:29
Sunn O))) / 00 Void (2CD Reissue) (Disc 2 - The Iron Soul of Nothing)
Used drive : HL-DT-STCD-RW GCE-8481B Adapter: 1 ID: 0
Read mode : SecureUtilize accurate stream : YesDefeat audio cache : YesMake use of C2 pointers : No
Read offset correction : 6Overread into Lead-In and Lead-Out : NoFill up missing offset samples with silence : YesDelete leading and trailing silent blocks : NoNull samples used in CRC calculations : YesUsed interface : Installed external ASPI interfaceGap handling : Appended to previous track
Used output format : User Defined EncoderSelected bitrate : 192 kBit/sQuality : HighAdd ID3 tag : NoCommand line compressor : C:\Program Files\Exact Audio Copy\flac.exeAdditional command line options : -8 -A tukey(0.25) -A gauss(0.1875) -b 4096 -V -T "artist=%a" -T "title=%t" -T "album=%g" -T "date=%y" -T "tracknumber=%n" -T "genre=%m" %s --sector-align
TOC of the extracted CD
Track | Start | Length | Start sector | End sector --------------------------------------------------------- 1 | 0:00.00 | 19:00.70 | 0 | 85569 2 | 19:00.70 | 17:07.68 | 85570 | 162662 3 | 36:08.63 | 25:25.19 | 162663 | 277056
Track 1
Filename G:\Music\Sunn O)))\Sunn O))) - (2000) 00 Void (2CD Daymare Reissue) (FLAC)\Disc 2 - The Iron Soul of Nothing\01. Dysnystaxis (Nurse With Wound remix).wav
Pre-gap length 0:00:02.00
Peak level 83.6 % Track quality 100.0 % Test CRC 9FDBF4B0 Copy CRC 9FDBF4B0 Track not present in AccurateRip database Copy OK
Track 2
Filename G:\Music\Sunn O)))\Sunn O))) - (2000) 00 Void (2CD Daymare Reissue) (FLAC)\Disc 2 - The Iron Soul of Nothing\02. Ash On The Trees (Nurse With Wound remix).wav
Peak level 97.7 % Track quality 100.0 % Test CRC B6717A30 Copy CRC B6717A30 Track not present in AccurateRip database Copy OK
Track 3
Filename G:\Music\Sunn O)))\Sunn O))) - (2000) 00 Void (2CD Daymare Reissue) (FLAC)\Disc 2 - The Iron Soul of Nothing\03. Ra At Dawn (Nurse With Wound remix).wav
Peak level 88.0 % Track quality 100.0 % Test CRC 0FE8B376 Copy CRC 0FE8B376 Track not present in AccurateRip database Copy OK
None of the tracks are present in the AccurateRip database
No errors occurred
End of status report
-----------------------------
музыка для расслабления и медитации


[islamvillage.com]_t_1181819.torrent
Торрент: Зарегистрирован ·  [ 2017-06-13 23:36 ] ·  ea0c22319c7913855106edcc41e6a1d499cff0fc

13 KB

Статус: проверено
Скачан: 0 раз
Размер: 546 MB
Оценка: 
(Голосов: 0)
Сказали спасибо: 0  Спасибо
Похожие темы
[Профиль]    [ЛС]
Показать сообщения:    
Ответить на тему

Текущее время: Сегодня 03:48

Часовой пояс: GMT + 7



Вы не можете начинать темы
Вы не можете отвечать на сообщения
Вы не можете редактировать свои сообщения
Вы не можете удалять свои сообщения
Вы не можете голосовать в опросах
Вы не можете прикреплять файлы к сообщениям
Вы можете скачивать файлы


2 Genuine Parker Medium Ball Point Ball Pen or Rollerball Refill BLUE or BLACK | Greg Kinnear | Bontel Little lover L2-1.54-0.3MP-800mAh (Dual Sim) Black -36% KSh 3,199 KSh 5,000 (5 Offers from KSh 3,199 ) (1) Buy now