(Avant-Garde Metal, Noisecore, Mathcore, Drone Metal, Math Metal, Grindcore, Post-Hardcore) Cleric - The Underling (2003); Regressions (2010) [2CD], FLAC (tracks+.cue, tracks), lossless

Ответить на тему
Статистика раздачи [Обновить пиров]
Размер:  695 MB   |    Зарегистрирован:  1 год 5 месяцев   |    Скачан:  0 раз

Полного источника не было: Никогда

 
   
 
 
 
Автор Сообщение

islamvillage.com

Создавать темы 20-Июл-2017 22:53

[Цитировать]

ClericДискография Жанр: Experimental
Год издания: 2003 – Present
Носитель: CD, WEB
Издатель (лейбл): Web of Mimicry
Страна: United States of America
Аудиокодек: FLAC (*.flac)
Тип рипа: tracks+.cue, tracks
Битрейт аудио: lossless
Продолжительность: 01:46:34
Источник (релизер): What.CD
Наличие сканов в содержимом раздачи: нет
-

2003 - The Underling

Источник: Torrentc Bandcamp
Продолжительность: 00:30:15
Трэклист:
1. "Truth" (7:27)
2. "El Camaron" (6:54)
3. "Eris, Engulfed" (3:55)
4. "Draw [a] Robot./Island of Lost Souls, Pt. 1" (11:59)-

Лог проверки качества

AUDIOCHECKER v2.0 beta (build 457) - by Dester - opdester@freemail.hu
~~~~~~~~~~~~~~~~~~~~~~~~~~~~~~~~~~
Started at: Sunday, 16. 07. 2017. - 0:45.57
4 files found
1 -===- C:\Cleric Discography\2003 - The Underling\01 Truth.flac
Extracted successfully
Conclusion: this track is MPEG with probability 95%
Tempfile successfully deleted.
2 -===- C:\Cleric Discography\2003 - The Underling\02 El Camaron.flac
Extracted successfully
Conclusion: this track is MPEG with probability 95%
Tempfile successfully deleted.
3 -===- C:\Cleric Discography\2003 - The Underling\03 Eris, Engulfed.flac
Extracted successfully
Conclusion: this track is CDDA with probability 100%
Tempfile successfully deleted.
4 -===- C:\Cleric Discography\2003 - The Underling\04 Draw [a] Robot.-Island of Lost Souls.flac
Extracted successfully
Conclusion: this track is MPEG with probability 95%
Tempfile successfully deleted.
Finished at: Sunday, 16. 07. 2017. - 0:47.03 (operation time: 0:01.05)

2010 - Regressions

Label: Web of Mimicry
Catalog#: WoM038
Продолжительность: 01:16:13
Трэклист:
1. "Allotriophagy" (19:23)
2. "-----" (1:52)
3. "A Rush of Blood" (10:17)
4. "-----" (2:08)
5. "The Boon" (6:22)
6. "-----" (2:12)
7. "Cumberbund" (12:06)
8. "Poisonberry Pie" (9:54)
9. "&" (0:31)
10. "The Fiberglass Cheesecake" (11:28)-

Лог создания рипа

Exact Audio Copy V1.1 from 23. June 2015
EAC extraction logfile from 6. December 2016, 12:29
Cleric / Regressions
Used drive : Optiarc DVD RW AD-7220S Adapter: 1 ID: 0
Read mode : SecureUtilize accurate stream : YesDefeat audio cache : YesMake use of C2 pointers : No
Read offset correction : 6Overread into Lead-In and Lead-Out : NoFill up missing offset samples with silence : YesDelete leading and trailing silent blocks : NoNull samples used in CRC calculations : YesUsed interface : Native Win32 interface for Win NT & 2000Gap handling : Appended to previous track
Used output format : User Defined EncoderSelected bitrate : 1024 kBit/sQuality : HighAdd ID3 tag : NoCommand line compressor : C:\Program Files (x86)\Exact Audio Copy\Flac\flac.exeAdditional command line options : -8 -e -V -T "ARTIST=%artist%" -T "TITLE=%title%" -T "ALBUM=%albumtitle%" -T "DATE=%year%" -T "TRACKNUMBER=%tracknr%" -T "GENRE=%genre%" -T "PERFORMER=%albuminterpret%" -T "COMPOSER=%composer%" %haslyrics%--tag-from-file=LYRICS="%lyricsfile%"%haslyrics% -T "ALBUMARTIST=%albumartist%" -T "DISCNUMBER=%cdnumber%" -T "TOTALDISCS=%totalcds%" -T "TOTALTRACKS=%numtracks%" -T "COMMENT=%comment%" %source% -o %dest%
TOC of the extracted CD
Track | Start | Length | Start sector | End sector --------------------------------------------------------- 1 | 0:00.00 | 19:23.25 | 0 | 87249 2 | 19:23.25 | 1:52.20 | 87250 | 95669 3 | 21:15.45 | 10:17.33 | 95670 | 141977 4 | 31:33.03 | 2:08.27 | 141978 | 151604 5 | 33:41.30 | 6:22.30 | 151605 | 180284 6 | 40:03.60 | 2:12.73 | 180285 | 190257 7 | 42:16.58 | 12:06.42 | 190258 | 244749 8 | 54:23.25 | 9:54.18 | 244750 | 289317 9 | 64:17.43 | 0:31.14 | 289318 | 291656 10 | 64:48.57 | 11:27.72 | 291657 | 343253
Track 1
Filename C:\Users\LocDocWin7\Music\FLAC\28\Cleric - Regressions\01 - Allotriophagy.wav
Pre-gap length 0:00:02.00
Peak level 99.9 % Extraction speed 5.6 X Track quality 99.9 % Test CRC 9B976B7B Copy CRC 9B976B7B Accurately ripped (confidence 1) [B61E332E] (AR v1) Copy OK
Track 2
Filename C:\Users\LocDocWin7\Music\FLAC\28\Cleric - Regressions\02 - [untitled 1].wav
Peak level 85.4 % Extraction speed 4.7 X Track quality 100.0 % Test CRC 71F274FA Copy CRC 71F274FA Accurately ripped (confidence 1) [5BE4A5B5] (AR v1) Copy OK
Track 3
Filename C:\Users\LocDocWin7\Music\FLAC\28\Cleric - Regressions\03 - A Rush of Blood.wav
Peak level 99.9 % Extraction speed 7.2 X Track quality 100.0 % Test CRC C0608718 Copy CRC C0608718 Accurately ripped (confidence 1) [3067938A] (AR v1) Copy OK
Track 4
Filename C:\Users\LocDocWin7\Music\FLAC\28\Cleric - Regressions\04 - [untitled 2].wav
Peak level 99.9 % Extraction speed 6.2 X Track quality 100.0 % Test CRC 2A74CDCF Copy CRC 2A74CDCF Accurately ripped (confidence 1) [C79F177A] (AR v1) Copy OK
Track 5
Filename C:\Users\LocDocWin7\Music\FLAC\28\Cleric - Regressions\05 - The Boon.wav
Peak level 99.9 % Extraction speed 7.7 X Track quality 100.0 % Test CRC F6AE735C Copy CRC F6AE735C Accurately ripped (confidence 1) [6AF5235D] (AR v1) Copy OK
Track 6
Filename C:\Users\LocDocWin7\Music\FLAC\28\Cleric - Regressions\06 - [untitled 3].wav
Peak level 99.8 % Extraction speed 6.8 X Track quality 100.0 % Test CRC 92A1DCEF Copy CRC 92A1DCEF Accurately ripped (confidence 1) [07DB1089] (AR v1) Copy OK
Track 7
Filename C:\Users\LocDocWin7\Music\FLAC\28\Cleric - Regressions\07 - Cumberbund.wav
Peak level 99.9 % Extraction speed 8.7 X Track quality 100.0 % Test CRC 2761FB5E Copy CRC 2761FB5E Accurately ripped (confidence 1) [224DCF62] (AR v1) Copy OK
Track 8
Filename C:\Users\LocDocWin7\Music\FLAC\28\Cleric - Regressions\08 - Poisonberry Pie.wav
Peak level 99.9 % Extraction speed 8.5 X Track quality 99.9 % Test CRC 24EB2B2A Copy CRC 24EB2B2A Accurately ripped (confidence 1) [842183BD] (AR v1) Copy OK
Track 9
Filename C:\Users\LocDocWin7\Music\FLAC\28\Cleric - Regressions\09 - &.wav
Peak level 99.9 % Extraction speed 2.4 X Track quality 99.6 % Test CRC 65E48521 Copy CRC 65E48521 Accurately ripped (confidence 1) [76AD9DF8] (AR v1) Copy OK
Track 10
Filename C:\Users\LocDocWin7\Music\FLAC\28\Cleric - Regressions\10 - The Fiberglass Cheesecake.wav
Peak level 99.9 % Extraction speed 10.0 X Track quality 100.0 % Test CRC 44EC7AE4 Copy CRC 44EC7AE4 Accurately ripped (confidence 1) [5F2F1119] (AR v1) Copy OK
All tracks accurately ripped
No errors occurred
End of status report
---- CUETools DB Plugin V2.1.6
[CTDB TOCID: 6qz1672DbbI7eR1T_X_BiH8LBX4-] foundSubmit result: 6qz1672DbbI7eR1T_X_BiH8LBX4- has been confirmedTrack | CTDB Status 1 | (3/3) Accurately ripped 2 | (3/3) Accurately ripped 3 | (3/3) Accurately ripped 4 | (3/3) Accurately ripped 5 | (3/3) Accurately ripped 6 | (3/3) Accurately ripped 7 | (3/3) Accurately ripped 8 | (3/3) Accurately ripped 9 | (3/3) Accurately ripped 10 | (3/3) Accurately ripped
==== Log checksum 65E1286CAF03741217302F9F65D4250D8751F6AEDE669A4FC4713E5BC1EE2A01 ====

Содержание индексной карты (.CUE)

REM GENRE MetalREM DATE 2010REM DISCID 9811E00AREM COMMENT "ExactAudioCopy v1.1"PERFORMER "Cleric"TITLE "Regressions"FILE "01 Allotriophagy.flac" WAVE TRACK 01 AUDIO TITLE "Allotriophagy" PERFORMER "Cleric" INDEX 01 00:00:00FILE "02 -----.flac" WAVE TRACK 02 AUDIO TITLE "-----" PERFORMER "Cleric" INDEX 01 00:00:00FILE "03 A Rush of Blood.flac" WAVE TRACK 03 AUDIO TITLE "A Rush of Blood" PERFORMER "Cleric" INDEX 01 00:00:00FILE "04 -----.flac" WAVE TRACK 04 AUDIO TITLE "-----" PERFORMER "Cleric" INDEX 01 00:00:00FILE "05 The Boon.flac" WAVE TRACK 05 AUDIO TITLE "The Boon" PERFORMER "Cleric" INDEX 01 00:00:00FILE "06 -----.flac" WAVE TRACK 06 AUDIO TITLE "-----" PERFORMER "Cleric" INDEX 01 00:00:00FILE "07 Cumberbund.flac" WAVE TRACK 07 AUDIO TITLE "Cumberbund" PERFORMER "Cleric" INDEX 01 00:00:00FILE "08 Poisonberry Pie.flac" WAVE TRACK 08 AUDIO TITLE "Poisonberry Pie" PERFORMER "Cleric" INDEX 01 00:00:00FILE "09 &.flac" WAVE TRACK 09 AUDIO TITLE "&" PERFORMER "Cleric" INDEX 01 00:00:00FILE "10 The Fiberglass Cheesecake.flac" WAVE TRACK 10 AUDIO TITLE "The Fiberglass Cheesecake" PERFORMER "Cleric" INDEX 01 00:00:00


[islamvillage.com]_t_5429251.torrent
Торрент: Зарегистрирован ·  [ 2017-07-20 22:48 ] ·  1ff3b4f16263f8c8c6861975da79959a69da4d78

15 KB

Статус: проверено
Скачан: 0 раз
Размер: 695 MB
Оценка: 
(Голосов: 0)
Сказали спасибо: 0  Спасибо
Похожие темы
[Профиль]    [ЛС]
Показать сообщения:    
Ответить на тему

Текущее время: Сегодня 04:01

Часовой пояс: GMT + 7



Вы не можете начинать темы
Вы не можете отвечать на сообщения
Вы не можете редактировать свои сообщения
Вы не можете удалять свои сообщения
Вы не можете голосовать в опросах
Вы не можете прикреплять файлы к сообщениям
Вы можете скачивать файлы


01.05 2 짠내투어 57회 190105 | 10Pack Premium Microfiber Cleaning Cloths for Lens Glasses Screen New | Winkelsteckverschraubung Steckverbinder Druckluft Pneumatik wie IQS Druckluft