Army of Lovers - Hurrah Hurrah Apocalypse [2005, Pop, DVD9]

Ответить на тему
Статистика раздачи [Обновить пиров]
Размер:  4.68 GB   |    Зарегистрирован:  1 год 11 месяцев   |    Скачан:  0 раз

Полного источника не было: Никогда

 
   
 
 
 
Автор Сообщение

islamvillage.com

Создавать темы 15-Фев-2017 22:30

[Цитировать]

Army of Lovers - Hurrah Hurrah Apocalypse
Страна: Швеция
Жанр: Pop
Продолжительность: 02:15:43
Год выхода: 2005 г.
Треклист:
Le Grand Docu-Soap (01:06:02)
01 - Ride The Bullet (First Version)
02 - My Army Of Lovers
03 - Crucified
04 - Obsession (First Version)
05 - Candiman Messiash
06 - Ride The Bullet (Second Version)
07 - Israelism
08 - Judgment Day
09 - La Plage De Saint Tropez
10 - Sons Of Lucy
11 - I Am
12 - Lit De Parade
13 - Sexual Revolution
14 - Give My Life
15 - King Midas
16 - Let The Sunshine In
Videovaganza (56:24)
17 - Ride The Bullet (First Version)
18 - My Army Of Lovers
19 - Crucified
20 - Ride The Bullet (Second Version)
21 - Obsession (Second Version)
22 - Judgment Day
23 - Israelism
24 - La Plage De Saint Tropez
25 - Sons Of Lucy
Bonus clip (03:17)
26 - Hands Up
Доп. информация: Оригинальный диск из Швеции.
Огромная благодарность - Schloss76 за предоставленный материал.
Разбивка на главы по трекам: есть
Качество : DVD9
Формат файла: DVD video
Видео кодек: MPEG2
Аудио кодек: AC3
Видео: MPEG Video (PAL) (Version 2), 720x576 (4:3), at 25.000 fps, 5 006 Kbps,
Аудио: AC-3 (DVD-Video), 192 Kbps, 48 KHz, 16 bits, 2 channels

DVDinfo

Title: Army of Lovers - Hurrah Hurrah Apocalypse (2005)Size: 4.67 Gb ( 4 895 110,00 KBytes ) - DVD-9Enabled regions: 1, 2, 3, 4, 5, 6, 7, 8
VTS_01 : Play Length: 01:06:01+{00:03:34} Video: PAL 4:3 (720x576) VBR Audio: Not specified (Dolby AC3, 2 ch)
VTS_02 : Play Length: 00:56:23+{00:36:19} Video: PAL 4:3 (720x576) VBR Audio: Not specified (Dolby AC3, 2 ch)
VTS_03 : Play Length: 00:00:11 Video: PAL 4:3 (704x576) VBR
VTS_04 : Play Length: 00:03:15 Video: PAL 4:3 (720x576) VBR Audio: Svenska (Dolby AC3, 2 ch)
VTS_05 : Play Length: 00:00:01 Video: PAL 4:3 (720x576) VBR
* Menus Information *
VIDEO_TS MenuVideo: PAL 4:3 (720x576) VBRSvenska Language Unit : Title Menu
VTS_01 MenuVideo: PAL 4:3 (720x576) VBRSvenska Language Unit : Root Menu
VTS_02 MenuVideo: PAL 4:3 (720x576) VBRSvenska Language Unit : Root Menu
VTS_03 MenuVideo: PAL 4:3 (720x576) VBRSvenska Language Unit : Root Menu
VTS_04 MenuVideo: PAL 4:3 (720x576) VBRSvenska Language Unit : Root Menu
VTS_05 MenuVideo: PAL 4:3 (720x576) VBRSvenska Language Unit : Root Menu

MediaInfo

General
Complete name : D:\Army of Lovers - Hurrah Hurrah Apocalypse (2005)\VIDEO_TS\VIDEO_TS.BUP
Format : DVD Video
Format profile : Menu
File size : 18.0 KiB
Overall bit rate mode : Variable
Video
ID : 224 (0xE0)
Format : MPEG Video
Format version : Version 2
Bit rate mode : Variable
Width : 720 pixels
Height : 576 pixels
Display aspect ratio : 4:3
Frame rate : 25.000 fps
Standard : PAL
Compression mode : Lossy
Text
Format : RLE
Format/Info : Run-length encoding
Bit depth : 2 bits
General
Complete name : D:\Army of Lovers - Hurrah Hurrah Apocalypse (2005)\VIDEO_TS\VIDEO_TS.IFO
Format : DVD Video
Format profile : Menu
File size : 18.0 KiB
Overall bit rate mode : Variable
Video
ID : 224 (0xE0)
Format : MPEG Video
Format version : Version 2
Bit rate mode : Variable
Width : 720 pixels
Height : 576 pixels
Display aspect ratio : 4:3
Frame rate : 25.000 fps
Standard : PAL
Compression mode : Lossy
Text
Format : RLE
Format/Info : Run-length encoding
Bit depth : 2 bits
General
Complete name : D:\Army of Lovers - Hurrah Hurrah Apocalypse (2005)\VIDEO_TS\VTS_01_0.BUP
Format : DVD Video
Format profile : Program
File size : 74.0 KiB
Duration : 1h 6mn
Overall bit rate mode : Variable
Overall bit rate : 153 bps
Video
ID : 224 (0xE0)
Format : MPEG Video
Format version : Version 2
Duration : 1h 6mn
Bit rate mode : Variable
Width : 720 pixels
Height : 576 pixels
Display aspect ratio : 4:3
Frame rate : 25.000 fps
Standard : PAL
Compression mode : Lossy
Audio
ID : 128 (0x80)
Format : AC-3
Format/Info : Audio Coding 3
Duration : 1h 6mn
Channel(s) : 2 channels
Sampling rate : 48.0 KHz
Compression mode : Lossy
Menu #1
Duration : 1h 6mn
00:00:00.000 : Chapter 1
00:00:44.400 : Chapter 2
00:04:27.120 : Chapter 3
00:04:42.920 : Chapter 4
00:08:13.320 : Chapter 5
00:08:53.240 : Chapter 6
00:12:27.680 : Chapter 7
00:12:44.360 : Chapter 8
00:16:33.000 : Chapter 9
00:17:08.120 : Chapter 10
00:20:15.760 : Chapter 11
00:20:33.880 : Chapter 12
00:24:01.800 : Chapter 13
00:24:25.440 : Chapter 14
00:27:51.600 : Chapter 15
00:28:01.640 : Chapter 16
00:32:06.200 : Chapter 17
00:32:32.400 : Chapter 18
00:36:04.640 : Chapter 19
00:36:28.200 : Chapter 20
00:39:30.400 : Chapter 21
00:39:56.560 : Chapter 22
00:43:53.160 : Chapter 23
00:44:08.040 : Chapter 24
00:47:29.280 : Chapter 25
00:47:48.360 : Chapter 26
00:51:48.760 : Chapter 27
00:52:03.880 : Chapter 28
00:56:13.680 : Chapter 29
00:56:53.480 : Chapter 30
01:00:52.720 : Chapter 31
01:01:49.560 : Chapter 32
01:05:52.720 : Chapter 33
List (Audio) : 0
Menu #2
Duration : 3mn 34s
00:00:00.000 : Chapter 1 / Chapter 2 / Chapter 3
00:03:34.440 : Chapter 4 / Chapter 5 / Chapter 6 / Chapter 7 / Chapter 8 / Chapter 9 / Chapter 10 / Chapter 11 / Chapter 12 / Chapter 13 / Chapter 14 / Chapter 15 / Chapter 16
List (Audio) : 0
General
Complete name : D:\Army of Lovers - Hurrah Hurrah Apocalypse (2005)\VIDEO_TS\VTS_01_0.IFO
Format : DVD Video
Format profile : Program
File size : 74.0 KiB
Duration : 1h 6mn
Overall bit rate mode : Variable
Overall bit rate : 153 bps
Video
ID : 224 (0xE0)
Format : MPEG Video
Format version : Version 2
Duration : 1h 6mn
Bit rate mode : Variable
Width : 720 pixels
Height : 576 pixels
Display aspect ratio : 4:3
Frame rate : 25.000 fps
Standard : PAL
Compression mode : Lossy
Audio
ID : 128 (0x80)
Format : AC-3
Format/Info : Audio Coding 3
Duration : 1h 6mn
Channel(s) : 2 channels
Sampling rate : 48.0 KHz
Compression mode : Lossy
Menu #1
Duration : 1h 6mn
00:00:00.000 : Chapter 1
00:00:44.400 : Chapter 2
00:04:27.120 : Chapter 3
00:04:42.920 : Chapter 4
00:08:13.320 : Chapter 5
00:08:53.240 : Chapter 6
00:12:27.680 : Chapter 7
00:12:44.360 : Chapter 8
00:16:33.000 : Chapter 9
00:17:08.120 : Chapter 10
00:20:15.760 : Chapter 11
00:20:33.880 : Chapter 12
00:24:01.800 : Chapter 13
00:24:25.440 : Chapter 14
00:27:51.600 : Chapter 15
00:28:01.640 : Chapter 16
00:32:06.200 : Chapter 17
00:32:32.400 : Chapter 18
00:36:04.640 : Chapter 19
00:36:28.200 : Chapter 20
00:39:30.400 : Chapter 21
00:39:56.560 : Chapter 22
00:43:53.160 : Chapter 23
00:44:08.040 : Chapter 24
00:47:29.280 : Chapter 25
00:47:48.360 : Chapter 26
00:51:48.760 : Chapter 27
00:52:03.880 : Chapter 28
00:56:13.680 : Chapter 29
00:56:53.480 : Chapter 30
01:00:52.720 : Chapter 31
01:01:49.560 : Chapter 32
01:05:52.720 : Chapter 33
List (Audio) : 0
Menu #2
Duration : 3mn 34s
00:00:00.000 : Chapter 1 / Chapter 2 / Chapter 3
00:03:34.440 : Chapter 4 / Chapter 5 / Chapter 6 / Chapter 7 / Chapter 8 / Chapter 9 / Chapter 10 / Chapter 11 / Chapter 12 / Chapter 13 / Chapter 14 / Chapter 15 / Chapter 16
List (Audio) : 0
General
Complete name : D:\Army of Lovers - Hurrah Hurrah Apocalypse (2005)\VIDEO_TS\VTS_01_0.VOB
Format : MPEG-PS
File size : 21.6 MiB
Duration : 2s 0ms
Overall bit rate mode : Variable
Overall bit rate : 90.8 Mbps
Video
ID : 224 (0xE0)
Format : MPEG Video
Format version : Version 2
Format profile : Main@Main
Format settings, BVOP : No
Format settings, Matrix : Custom
Duration : 2s 0ms
Bit rate mode : Variable
Bit rate : 89.0 Mbps
Width : 720 pixels
Height : 576 pixels
Display aspect ratio : 4:3
Frame rate : 25.000 fps
Standard : PAL
Color space : YUV
Chroma subsampling : 4:2:0
Bit depth : 8 bits
Compression mode : Lossy
Bits/(Pixel*Frame) : 8.583
Stream size : 21.2 MiB (98%)
Text
ID : 189 (0xBD)-32 (0x20)
Format : RLE
Format/Info : Run-length encoding
Muxing mode : DVD-Video
Menu
General
Complete name : D:\Army of Lovers - Hurrah Hurrah Apocalypse (2005)\VIDEO_TS\VTS_01_1.VOB
Format : MPEG-PS
File size : 1 024 MiB
Duration : 27mn 6s
Overall bit rate mode : Variable
Overall bit rate : 5 282 Kbps
Writing library : Copyright Innobits AB
Video
ID : 224 (0xE0)
Format : MPEG Video
Format version : Version 2
Format profile : Main@Main
Format settings, BVOP : Yes
Format settings, Matrix : Custom
Format settings, GOP : M=2, N=12
Duration : 27mn 6s
Bit rate mode : Variable
Bit rate : 4 985 Kbps
Maximum bit rate : 6 047 Kbps
Width : 720 pixels
Height : 576 pixels
Display aspect ratio : 4:3
Frame rate : 25.000 fps
Standard : PAL
Color space : YUV
Chroma subsampling : 4:2:0
Bit depth : 8 bits
Scan type : Interlaced
Scan order : Top Field First
Compression mode : Lossy
Bits/(Pixel*Frame) : 0.481
Stream size : 966 MiB (94%)
Writing library : Copyright Innobits AB
Color primaries : BT.601 PAL
Transfer characteristics : BT.470 System B, BT.470 System G
Matrix coefficients : BT.601
Audio
ID : 189 (0xBD)-128 (0x80)
Format : AC-3
Format/Info : Audio Coding 3
Mode extension : CM (complete main)
Format settings, Endianness : Big
Muxing mode : DVD-Video
Duration : 27mn 5s
Bit rate mode : Constant
Bit rate : 192 Kbps
Channel(s) : 2 channels
Channel positions : Front: L R
Sampling rate : 48.0 KHz
Bit depth : 16 bits
Compression mode : Lossy
Stream size : 37.2 MiB (4%)
Menu
General
Complete name : D:\Army of Lovers - Hurrah Hurrah Apocalypse (2005)\VIDEO_TS\VTS_01_2.VOB
Format : MPEG-PS
File size : 1 024 MiB
Duration : 26mn 59s
Overall bit rate mode : Variable
Overall bit rate : 5 304 Kbps
Video
ID : 224 (0xE0)
Format : MPEG Video
Format version : Version 2
Format profile : Main@Main
Format settings, BVOP : Yes
Format settings, Matrix : Custom
Format settings, GOP : M=2, N=12
Duration : 26mn 59s
Bit rate mode : Variable
Bit rate : 5 006 Kbps
Maximum bit rate : 6 047 Kbps
Width : 720 pixels
Height : 576 pixels
Display aspect ratio : 4:3
Frame rate : 25.000 fps
Standard : PAL
Color space : YUV
Chroma subsampling : 4:2:0
Bit depth : 8 bits
Scan type : Interlaced
Scan order : Top Field First
Compression mode : Lossy
Bits/(Pixel*Frame) : 0.483
Stream size : 966 MiB (94%)
Color primaries : BT.601 PAL
Transfer characteristics : BT.470 System B, BT.470 System G
Matrix coefficients : BT.601
Audio
ID : 189 (0xBD)-128 (0x80)
Format : AC-3
Format/Info : Audio Coding 3
Mode extension : CM (complete main)
Format settings, Endianness : Big
Muxing mode : DVD-Video
Duration : 26mn 59s
Bit rate mode : Constant
Bit rate : 192 Kbps
Channel(s) : 2 channels
Channel positions : Front: L R
Sampling rate : 48.0 KHz
Bit depth : 16 bits
Compression mode : Lossy
Delay relative to video : -544ms
Stream size : 37.1 MiB (4%)
Menu
General
Complete name : D:\Army of Lovers - Hurrah Hurrah Apocalypse (2005)\VIDEO_TS\VTS_01_3.VOB
Format : MPEG-PS
File size : 451 MiB
Duration : 11mn 55s
Overall bit rate mode : Variable
Overall bit rate : 5 291 Kbps
Video
ID : 224 (0xE0)
Format : MPEG Video
Format version : Version 2
Format profile : Main@Main
Format settings, BVOP : Yes
Format settings, Matrix : Custom
Duration : 11mn 54s
Bit rate mode : Variable
Bit rate : 4 993 Kbps
Maximum bit rate : 6 047 Kbps
Width : 720 pixels
Height : 576 pixels
Display aspect ratio : 4:3
Frame rate : 25.000 fps
Standard : PAL
Color space : YUV
Chroma subsampling : 4:2:0
Bit depth : 8 bits
Scan type : Interlaced
Scan order : Top Field First
Compression mode : Lossy
Bits/(Pixel*Frame) : 0.482
Stream size : 426 MiB (94%)
Color primaries : BT.601 PAL
Transfer characteristics : BT.470 System B, BT.470 System G
Matrix coefficients : BT.601
Audio
ID : 189 (0xBD)-128 (0x80)
Format : AC-3
Format/Info : Audio Coding 3
Mode extension : CM (complete main)
Format settings, Endianness : Big
Muxing mode : DVD-Video
Duration : 11mn 55s
Bit rate mode : Constant
Bit rate : 192 Kbps
Channel(s) : 2 channels
Channel positions : Front: L R
Sampling rate : 48.0 KHz
Bit depth : 16 bits
Compression mode : Lossy
Delay relative to video : -544ms
Stream size : 16.4 MiB (4%)
Menu
General
Complete name : D:\Army of Lovers - Hurrah Hurrah Apocalypse (2005)\VIDEO_TS\VTS_02_0.BUP
Format : DVD Video
Format profile : Program
File size : 54.0 KiB
Duration : 56mn 23s
Overall bit rate mode : Variable
Overall bit rate : 131 bps
Video
ID : 224 (0xE0)
Format : MPEG Video
Format version : Version 2
Duration : 56mn 23s
Bit rate mode : Variable
Width : 720 pixels
Height : 576 pixels
Display aspect ratio : 4:3
Frame rate : 25.000 fps
Standard : PAL
Compression mode : Lossy
Audio
ID : 128 (0x80)
Format : AC-3
Format/Info : Audio Coding 3
Duration : 56mn 23s
Channel(s) : 2 channels
Sampling rate : 48.0 KHz
Compression mode : Lossy
Menu #1
Duration : 56mn 23s
00:00:00.000 : Chapter 1
00:05:27.480 : Chapter 2
00:09:10.200 : Chapter 3
00:11:00.440 : Chapter 4
00:14:30.840 : Chapter 5
00:16:23.320 : Chapter 6
00:19:56.800 : Chapter 7
00:21:17.720 : Chapter 8
00:24:45.640 : Chapter 9
00:26:45.720 : Chapter 10
00:30:38.160 : Chapter 11
00:32:28.640 : Chapter 12
00:36:32.240 : Chapter 13
00:39:49.080 : Chapter 14
00:43:14.280 : Chapter 15
00:44:24.680 : Chapter 16
00:47:55.960 : Chapter 17
00:49:11.400 : Chapter 18
List (Audio) : 0
Menu #2
Duration : 36mn 19s
00:00:00.000 : Chapter 1
01:00:03.080 : Chapter 2
03:00:36.080 : Chapter 3
06:01:12.080 : Chapter 4
10:01:42.080 : Chapter 5
15:01:45.560 : Chapter 6
21:01:52.560 : Chapter 7
28:02:20.560 : Chapter 8
36:02:54.560 : Chapter 9
List (Audio) : 0
Menu #3
General
Complete name : D:\Army of Lovers - Hurrah Hurrah Apocalypse (2005)\VIDEO_TS\VTS_02_0.IFO
Format : DVD Video
Format profile : Program
File size : 54.0 KiB
Duration : 56mn 23s
Overall bit rate mode : Variable
Overall bit rate : 131 bps
Video
ID : 224 (0xE0)
Format : MPEG Video
Format version : Version 2
Duration : 56mn 23s
Bit rate mode : Variable
Width : 720 pixels
Height : 576 pixels
Display aspect ratio : 4:3
Frame rate : 25.000 fps
Standard : PAL
Compression mode : Lossy
Audio
ID : 128 (0x80)
Format : AC-3
Format/Info : Audio Coding 3
Duration : 56mn 23s
Channel(s) : 2 channels
Sampling rate : 48.0 KHz
Compression mode : Lossy
Menu #1
Duration : 56mn 23s
00:00:00.000 : Chapter 1
00:05:27.480 : Chapter 2
00:09:10.200 : Chapter 3
00:11:00.440 : Chapter 4
00:14:30.840 : Chapter 5
00:16:23.320 : Chapter 6
00:19:56.800 : Chapter 7
00:21:17.720 : Chapter 8
00:24:45.640 : Chapter 9
00:26:45.720 : Chapter 10
00:30:38.160 : Chapter 11
00:32:28.640 : Chapter 12
00:36:32.240 : Chapter 13
00:39:49.080 : Chapter 14
00:43:14.280 : Chapter 15
00:44:24.680 : Chapter 16
00:47:55.960 : Chapter 17
00:49:11.400 : Chapter 18
List (Audio) : 0
Menu #2
Duration : 36mn 19s
00:00:00.000 : Chapter 1
01:00:03.080 : Chapter 2
03:00:36.080 : Chapter 3
06:01:12.080 : Chapter 4
10:01:42.080 : Chapter 5
15:01:45.560 : Chapter 6
21:01:52.560 : Chapter 7
28:02:20.560 : Chapter 8
36:02:54.560 : Chapter 9
List (Audio) : 0
Menu #3
General
Complete name : D:\Army of Lovers - Hurrah Hurrah Apocalypse (2005)\VIDEO_TS\VTS_02_0.VOB
Format : MPEG-PS
File size : 154 KiB
Duration : 520ms
Overall bit rate : 2 426 Kbps
Video
ID : 224 (0xE0)
Format : MPEG Video
Format version : Version 2
Format profile : Main@Main
Format settings, BVOP : Yes
Format settings, Matrix : Custom
Duration : 520ms
Maximum bit rate : 2 000 Kbps
Width : 720 pixels
Height : 576 pixels
Display aspect ratio : 4:3
Frame rate : 25.000 fps
Standard : PAL
Color space : YUV
Chroma subsampling : 4:2:0
Bit depth : 8 bits
Scan type : Interlaced
Scan order : Top Field First
Compression mode : Lossy
Text
ID : 189 (0xBD)-32 (0x20)
Format : RLE
Format/Info : Run-length encoding
Muxing mode : DVD-Video
Delay relative to video : -80ms
Menu
General
Complete name : D:\Army of Lovers - Hurrah Hurrah Apocalypse (2005)\VIDEO_TS\VTS_02_1.VOB
Format : MPEG-PS
File size : 1 024 MiB
Duration : 27mn 5s
Overall bit rate mode : Variable
Overall bit rate : 5 286 Kbps
Writing library : Copyright Innobits AB
Video
ID : 224 (0xE0)
Format : MPEG Video
Format version : Version 2
Format profile : Main@Main
Format settings, BVOP : Yes
Format settings, Matrix : Custom
Format settings, GOP : M=2, N=12
Duration : 27mn 5s
Bit rate mode : Variable
Bit rate : 4 989 Kbps
Maximum bit rate : 6 047 Kbps
Width : 720 pixels
Height : 576 pixels
Display aspect ratio : 4:3
Frame rate : 25.000 fps
Standard : PAL
Color space : YUV
Chroma subsampling : 4:2:0
Bit depth : 8 bits
Scan type : Interlaced
Scan order : Top Field First
Compression mode : Lossy
Bits/(Pixel*Frame) : 0.481
Stream size : 966 MiB (94%)
Writing library : Copyright Innobits AB
Color primaries : BT.601 PAL
Transfer characteristics : BT.470 System B, BT.470 System G
Matrix coefficients : BT.601
Audio
ID : 189 (0xBD)-128 (0x80)
Format : AC-3
Format/Info : Audio Coding 3
Mode extension : CM (complete main)
Format settings, Endianness : Big
Muxing mode : DVD-Video
Duration : 27mn 4s
Bit rate mode : Constant
Bit rate : 192 Kbps
Channel(s) : 2 channels
Channel positions : Front: L R
Sampling rate : 48.0 KHz
Bit depth : 16 bits
Compression mode : Lossy
Stream size : 37.2 MiB (4%)
Menu
General
Complete name : D:\Army of Lovers - Hurrah Hurrah Apocalypse (2005)\VIDEO_TS\VTS_02_2.VOB
Format : MPEG-PS
File size : 1 024 MiB
Duration : 26mn 27s
Overall bit rate mode : Variable
Overall bit rate : 5 410 Kbps
Video
ID : 224 (0xE0)
Format : MPEG Video
Format version : Version 2
Format profile : Main@Main
Format settings, BVOP : Yes
Format settings, Matrix : Custom
Format settings, GOP : M=2, N=12
Duration : 26mn 27s
Bit rate mode : Variable
Bit rate : 5 110 Kbps
Maximum bit rate : 6 047 Kbps
Width : 720 pixels
Height : 576 pixels
Display aspect ratio : 4:3
Frame rate : 25.000 fps
Standard : PAL
Color space : YUV
Chroma subsampling : 4:2:0
Bit depth : 8 bits
Scan type : Interlaced
Scan order : Top Field First
Compression mode : Lossy
Bits/(Pixel*Frame) : 0.493
Stream size : 967 MiB (94%)
Color primaries : BT.601 PAL
Transfer characteristics : BT.470 System B, BT.470 System G
Matrix coefficients : BT.601
Audio
ID : 189 (0xBD)-128 (0x80)
Format : AC-3
Format/Info : Audio Coding 3
Mode extension : CM (complete main)
Format settings, Endianness : Big
Muxing mode : DVD-Video
Duration : 26mn 27s
Bit rate mode : Constant
Bit rate : 192 Kbps
Channel(s) : 2 channels
Channel positions : Front: L R
Sampling rate : 48.0 KHz
Bit depth : 16 bits
Compression mode : Lossy
Delay relative to video : -664ms
Stream size : 36.3 MiB (4%)
Menu
General
Complete name : D:\Army of Lovers - Hurrah Hurrah Apocalypse (2005)\VIDEO_TS\VTS_02_3.VOB
Format : MPEG-PS
File size : 91.1 MiB
Duration : 2mn 50s
Overall bit rate mode : Variable
Overall bit rate : 4 469 Kbps
Video
ID : 224 (0xE0)
Format : MPEG Video
Format version : Version 2
Format profile : Main@Main
Format settings, BVOP : Yes
Format settings, Matrix : Custom
Format settings, GOP : M=2, N=12
Duration : 2mn 50s
Bit rate mode : Variable
Bit rate : 4 188 Kbps
Maximum bit rate : 6 047 Kbps
Width : 720 pixels
Height : 576 pixels
Display aspect ratio : 4:3
Frame rate : 25.000 fps
Standard : PAL
Color space : YUV
Chroma subsampling : 4:2:0
Bit depth : 8 bits
Scan type : Interlaced
Scan order : Top Field First
Compression mode : Lossy
Bits/(Pixel*Frame) : 0.404
Stream size : 85.1 MiB (93%)
Color primaries : BT.601 PAL
Transfer characteristics : BT.470 System B, BT.470 System G
Matrix coefficients : BT.601
Audio
ID : 189 (0xBD)-128 (0x80)
Format : AC-3
Format/Info : Audio Coding 3
Mode extension : CM (complete main)
Format settings, Endianness : Big
Muxing mode : DVD-Video
Duration : 2mn 50s
Bit rate mode : Constant
Bit rate : 192 Kbps
Channel(s) : 2 channels
Channel positions : Front: L R
Sampling rate : 48.0 KHz
Bit depth : 16 bits
Compression mode : Lossy
Delay relative to video : -528ms
Stream size : 3.91 MiB (4%)
Menu
General
Complete name : D:\Army of Lovers - Hurrah Hurrah Apocalypse (2005)\VIDEO_TS\VTS_03_0.BUP
Format : DVD Video
Format profile : Program
File size : 14.0 KiB
Duration : 11s 160ms
Overall bit rate mode : Variable
Overall bit rate : 10.3 Kbps
Video
ID : 224 (0xE0)
Format : MPEG Video
Format version : Version 2
Duration : 11s 160ms
Bit rate mode : Variable
Width : 704 pixels
Height : 576 pixels
Display aspect ratio : 4:3
Frame rate : 25.000 fps
Standard : PAL
Compression mode : Lossy
Menu
Duration : 11s 160ms
00:00:00.000 : Chapter 1
General
Complete name : D:\Army of Lovers - Hurrah Hurrah Apocalypse (2005)\VIDEO_TS\VTS_03_0.IFO
Format : DVD Video
Format profile : Program
File size : 14.0 KiB
Duration : 11s 160ms
Overall bit rate mode : Variable
Overall bit rate : 10.3 Kbps
Video
ID : 224 (0xE0)
Format : MPEG Video
Format version : Version 2
Duration : 11s 160ms
Bit rate mode : Variable
Width : 704 pixels
Height : 576 pixels
Display aspect ratio : 4:3
Frame rate : 25.000 fps
Standard : PAL
Compression mode : Lossy
Menu
Duration : 11s 160ms
00:00:00.000 : Chapter 1
General
Complete name : D:\Army of Lovers - Hurrah Hurrah Apocalypse (2005)\VIDEO_TS\VTS_03_1.VOB
Format : MPEG-PS
File size : 6.79 MiB
Duration : 11s 160ms
Overall bit rate mode : Variable
Overall bit rate : 5 106 Kbps
Video
ID : 224 (0xE0)
Format : MPEG Video
Format version : Version 2
Format profile : Main@Main
Format settings, BVOP : Yes
Format settings, Matrix : Custom
Format settings, GOP : M=2, N=12
Duration : 11s 160ms
Bit rate mode : Variable
Bit rate : 5 004 Kbps
Maximum bit rate : 5 720 Kbps
Width : 704 pixels
Height : 576 pixels
Display aspect ratio : 4:3
Frame rate : 25.000 fps
Standard : PAL
Color space : YUV
Chroma subsampling : 4:2:0
Bit depth : 8 bits
Scan type : Interlaced
Scan order : Top Field First
Compression mode : Lossy
Bits/(Pixel*Frame) : 0.494
Stream size : 6.66 MiB (98%)
Color primaries : BT.601 PAL
Transfer characteristics : BT.470 System B, BT.470 System G
Matrix coefficients : BT.601
Menu
General
Complete name : D:\Army of Lovers - Hurrah Hurrah Apocalypse (2005)\VIDEO_TS\VTS_04_0.BUP
Format : DVD Video
Format profile : Program
File size : 14.0 KiB
Duration : 3mn 15s
Overall bit rate mode : Variable
Overall bit rate : 586 bps
Video
ID : 224 (0xE0)
Format : MPEG Video
Format version : Version 2
Duration : 3mn 15s
Bit rate mode : Variable
Width : 720 pixels
Height : 576 pixels
Display aspect ratio : 4:3
Frame rate : 25.000 fps
Standard : PAL
Compression mode : Lossy
Audio
ID : 128 (0x80)
Format : AC-3
Format/Info : Audio Coding 3
Duration : 3mn 15s
Channel(s) : 2 channels
Sampling rate : 48.0 KHz
Compression mode : Lossy
Language : Swedish
Menu
Duration : 3mn 15s
00:00:00.000 : Chapter 1
List (Audio) : 0
General
Complete name : D:\Army of Lovers - Hurrah Hurrah Apocalypse (2005)\VIDEO_TS\VTS_04_0.IFO
Format : DVD Video
Format profile : Program
File size : 14.0 KiB
Duration : 3mn 15s
Overall bit rate mode : Variable
Overall bit rate : 586 bps
Video
ID : 224 (0xE0)
Format : MPEG Video
Format version : Version 2
Duration : 3mn 15s
Bit rate mode : Variable
Width : 720 pixels
Height : 576 pixels
Display aspect ratio : 4:3
Frame rate : 25.000 fps
Standard : PAL
Compression mode : Lossy
Audio
ID : 128 (0x80)
Format : AC-3
Format/Info : Audio Coding 3
Duration : 3mn 15s
Channel(s) : 2 channels
Sampling rate : 48.0 KHz
Compression mode : Lossy
Language : Swedish
Menu
Duration : 3mn 15s
00:00:00.000 : Chapter 1
List (Audio) : 0
General
Complete name : D:\Army of Lovers - Hurrah Hurrah Apocalypse (2005)\VIDEO_TS\VTS_04_1.VOB
Format : MPEG-PS
File size : 112 MiB
Duration : 3mn 15s
Overall bit rate mode : Variable
Overall bit rate : 4 812 Kbps
Writing library : Copyright Innobits AB
Video
ID : 224 (0xE0)
Format : MPEG Video
Format version : Version 2
Format profile : Main@Main
Format settings, BVOP : Yes
Format settings, Matrix : Custom
Format settings, GOP : M=2, N=12
Duration : 3mn 15s
Bit rate mode : Variable
Bit rate : 4 524 Kbps
Maximum bit rate : 6 047 Kbps
Width : 720 pixels
Height : 576 pixels
Display aspect ratio : 4:3
Frame rate : 25.000 fps
Standard : PAL
Color space : YUV
Chroma subsampling : 4:2:0
Bit depth : 8 bits
Scan type : Interlaced
Scan order : Top Field First
Compression mode : Lossy
Bits/(Pixel*Frame) : 0.436
Stream size : 105 MiB (94%)
Writing library : Copyright Innobits AB
Color primaries : BT.601 PAL
Transfer characteristics : BT.470 System B, BT.470 System G
Matrix coefficients : BT.601
Audio
ID : 189 (0xBD)-128 (0x80)
Format : AC-3
Format/Info : Audio Coding 3
Mode extension : CM (complete main)
Format settings, Endianness : Big
Muxing mode : DVD-Video
Duration : 3mn 15s
Bit rate mode : Constant
Bit rate : 192 Kbps
Channel(s) : 2 channels
Channel positions : Front: L R
Sampling rate : 48.0 KHz
Bit depth : 16 bits
Compression mode : Lossy
Stream size : 4.48 MiB (4%)
Menu
General
Complete name : D:\Army of Lovers - Hurrah Hurrah Apocalypse (2005)\VIDEO_TS\VTS_05_0.BUP
Format : DVD Video
Format profile : Program
File size : 14.0 KiB
Duration : 1s 440ms
Overall bit rate mode : Variable
Overall bit rate : 79.6 Kbps
Video
ID : 224 (0xE0)
Format : MPEG Video
Format version : Version 2
Duration : 1s 440ms
Bit rate mode : Variable
Bit rate : 69.6 Kbps
Width : 720 pixels
Height : 576 pixels
Display aspect ratio : 4:3
Frame rate : 25.000 fps
Standard : PAL
Compression mode : Lossy
Bits/(Pixel*Frame) : 0.007
Stream size : 12.2 KiB (87%)
Menu
Duration : 1s 440ms
00:00:00.000 : Chapter 1
General
Complete name : D:\Army of Lovers - Hurrah Hurrah Apocalypse (2005)\VIDEO_TS\VTS_05_0.IFO
Format : DVD Video
Format profile : Program
File size : 14.0 KiB
Duration : 1s 440ms
Overall bit rate mode : Variable
Overall bit rate : 79.6 Kbps
Video
ID : 224 (0xE0)
Format : MPEG Video
Format version : Version 2
Duration : 1s 440ms
Bit rate mode : Variable
Bit rate : 69.6 Kbps
Width : 720 pixels
Height : 576 pixels
Display aspect ratio : 4:3
Frame rate : 25.000 fps
Standard : PAL
Compression mode : Lossy
Bits/(Pixel*Frame) : 0.007
Stream size : 12.2 KiB (87%)
Menu
Duration : 1s 440ms
00:00:00.000 : Chapter 1
General
Complete name : D:\Army of Lovers - Hurrah Hurrah Apocalypse (2005)\VIDEO_TS\VTS_05_1.VOB
Format : MPEG-PS
File size : 976 KiB
Duration : 1s 440ms
Overall bit rate mode : Variable
Overall bit rate : 5 552 Kbps
Writing library : BitVice MPEG2 Encoder Vn 1.3.3 PPC G4 (c) 2003 Innobits AB
Video
ID : 224 (0xE0)
Format : MPEG Video
Format version : Version 2
Format profile : Main@Main
Format settings, BVOP : Yes
Format settings, Matrix : Custom
Format settings, GOP : M=2, N=12
Duration : 1s 440ms
Bit rate mode : Variable
Bit rate : 5 442 Kbps
Maximum bit rate : 8 132 Kbps
Width : 720 pixels
Height : 576 pixels
Display aspect ratio : 4:3
Frame rate : 25.000 fps
Standard : PAL
Color space : YUV
Chroma subsampling : 4:2:0
Bit depth : 8 bits
Scan type : Interlaced
Scan order : Bottom Field First
Compression mode : Lossy
Bits/(Pixel*Frame) : 0.525
Stream size : 957 KiB (98%)
Writing library : BitVice MPEG2 Encoder Vn 1.3.3 PPC G4 (c) 2003 Innobits AB
Color primaries : BT.601 PAL
Transfer characteristics : BT.470 System B, BT.470 System G
Matrix coefficients : BT.601

Скриншоты меню

Скриншоты



[islamvillage.com]_torrent-4546966.torrent
Торрент: Зарегистрирован ·  [ 2017-02-15 22:12 ] ·  7542ada1fbfc4362393b4d3fdb658133dcb1398f

25 KB

Статус: проверено
Скачан: 0 раз
Размер: 4.68 GB
Оценка: 
(Голосов: 0)
Сказали спасибо: 0  Спасибо
Похожие темы
[Профиль]    [ЛС]
Показать сообщения:    
Ответить на тему

Текущее время: Сегодня 23:33

Часовой пояс: GMT + 7



Вы не можете начинать темы
Вы не можете отвечать на сообщения
Вы не можете редактировать свои сообщения
Вы не можете удалять свои сообщения
Вы не можете голосовать в опросах
Вы не можете прикреплять файлы к сообщениям
Вы можете скачивать файлы


Máquinas recreativas | Sunglow® Konische OHRKERZEN (2 - 200 Stück) KÖRPERKERZEN mit Filter Ohrenkerzen | Ayane's High Kick