ABBA - Video clips in Spanish [2012, Eurodance, Disco, Pop, DVD5]

Ответить на тему
Статистика раздачи [Обновить пиров]
Размер:  1.03 GB   |    Зарегистрирован:  1 год 11 месяцев   |    Скачан:  0 раз

Полного источника не было: Никогда

 
   
 
 
 
Автор Сообщение

islamvillage.com

Создавать темы 15-Фев-2017 22:30

[Цитировать]

ABBA video clips in Spanish
Страна: EU
Жанр: Eurodance, Disco, Pop
Продолжительность: 00:20:09
Год выхода: 2012 г.
Описание: 5 официально изданных к 2012 году видеоклипов ABBA на испанском языке
Список клипов:
1. Estoy soñando - 4:39 (I have a dream)
2. Conociéndome, conociéndote - 4:03* (Knowing me, knowing you)
3. Gracias por la música - 3:51* (Thank you for the music)
4. Felicidad - 4:24 (Happy new year)
5. No hay a quien culpar - 3:14 ( When all is said and done)
* впервые выпущены на DVD в 2012 году, остальные - в 2002 году.
Доп. информация: Клипы, снятые в формате 4:3, инкорпорированы производителем, как это в последнее время принято, в формат 16:9 для демонстрации на современных телевизорах, поэтому при просмотре, например, в mpc рекомендуется выбрать опцию
Video Frame -> Touch window from outside для устранения черных полей сверху и снизу.
Аналогично - при показе с DVD проигрывателей на старых телевизорах 4:3.
Разбивка на главы по трекам: есть
Качество : DVD5
Формат файла: DVD video
Видео кодек: MPEG2
Аудио кодек: AC3
Видео: MPEG2 Video 720x480 (16:9) 6784 Kbps 29.97fps
Аудио: Dolby AC3 48000Hz stereo 256kbps 2 channels

DVDinfo

Format : MPEG-PSFile size : 979 MiBDuration : 20mn 10sOverall bit rate mode : VariableOverall bit rate : 6 784 KbpsWriting library : (c) 1998-2010 Womble Multimedia, Inc. / MPEG Video Wizard DVD 5.0.0.114 (01/2010) / Nov 13 2010
VideoID : 224 (0xE0)Format : MPEG VideoFormat version : Version 2Format profile : Main@MainFormat settings, BVOP : NoFormat settings, Matrix : CustomFormat settings, GOP : M=3, N=15Duration : 20mn 10sBit rate mode : VariableBit rate : 6 393 KbpsMaximum bit rate : 4 587 KbpsWidth : 720 pixelsHeight : 480 pixelsDisplay aspect ratio : 16:9Frame rate : 29.970 fpsStandard : NTSCColor space : YUVChroma subsampling : 4:2:0Bit depth : 8 bitsScan type : InterlacedScan order : Bottom Field FirstCompression mode : LossyBits/(Pixel*Frame) : 0.617Time code of first frame : 00:00:00:00Time code source : Group of pictures headerStream size : 922 MiB (94%)Writing library : (c) 1998-2010 Womble Multimedia, Inc. / MPEG Video Wizard DVD 5.0.0.114 (01/2010) / Nov 13 2010Color primaries : BT.601 NTSCTransfer characteristics : BT.601Matrix coefficients : BT.601
AudioID : 189 (0xBD)-128 (0x80)Format : AC-3Format/Info : Audio Coding 3Mode extension : CM (complete main)Format settings, Endianness : BigMuxing mode : DVD-VideoDuration : 20mn 10sBit rate mode : ConstantBit rate : 256 KbpsChannel(s) : 2 channelsChannel positions : Front: L RSampling rate : 48.0 KHzBit depth : 16 bitsCompression mode : LossyStream size : 36.9 MiB (4%)

Скриншот меню

Скриншоты



[islamvillage.com]_torrent-4538668.torrent
Торрент: Зарегистрирован ·  [ 2017-02-15 22:12 ] ·  89b0115256f7189bc619c62b30a0ba01d7a07c99

11 KB

Статус: проверено
Скачан: 0 раз
Размер: 1.03 GB
Оценка: 
(Голосов: 0)
Сказали спасибо: 0  Спасибо
Похожие темы
[Профиль]    [ЛС]
Показать сообщения:    
Ответить на тему

Текущее время: Сегодня 22:47

Часовой пояс: GMT + 7



Вы не можете начинать темы
Вы не можете отвечать на сообщения
Вы не можете редактировать свои сообщения
Вы не можете удалять свои сообщения
Вы не можете голосовать в опросах
Вы не можете прикреплять файлы к сообщениям
Вы можете скачивать файлы


Night School | ACT-AGE 44 | LegalPorno - Nilla Black discovers black feeling