Ace Of Base - Live at Vina del Mar Festival, Chile, 19.02.1996 (bootleg) [2006, Pop, Eurodance, TVRip, DVD5 (custom)]

Ответить на тему
Статистика раздачи [Обновить пиров]
Размер:  2.13 GB   |    Зарегистрирован:  1 год 11 месяцев   |    Скачан:  0 раз

Полного источника не было: Никогда

 
   
 
 
 
Автор Сообщение

islamvillage.com

Создавать темы 15-Фев-2017 22:30

[Цитировать]

Ace Of Base - Live at Vina del Mar Festival, Chile, 19.02.1996 (bootleg)
Страна: Швеция / Чили
Жанр: Pop, Eurodance
Продолжительность: 1:01:22
Год выхода: 2006 г.
Состав группы:
Malin "Linn" Berggren
Jenny Berggren
Jonas "Joker" Berggren
Ulf "Buddha" Ekberg
Треклист:
01. Intro / All That She Wants
02. Don't Turn Around
03. Strangeways
04. Beautiful Life
05. Ravine
06. Lucky Love
07. Lucky Love (continue)
08. Que Sera
09. Never Gonna Say I'm Sorry (long version)
10. Waiting For Magic
11. Encore break
12. Happy Nation
13. The Sign
14. The Sign (continue)
15. Varvindar Friska / Outro

Доп. информация

Последовательность записи:
  • TV > VHS > DVD via standalone recorder > Menus with TMPGEnc DVD Author (chapters for each song)
Разбивка на главы по трекам: есть
Качество : TVRip
Формат файла: DVD video
Видео кодек: MPEG2
Аудио кодек: MP2
Видео: MPEG2, 720x480 (4:3), 29.97 fps, avg. 4553 kbps
Аудио: MP2, 48 kHz, stereo, 256 kbps

DVDInfo + MediaInfo

Title:Size: 2.13 Gb ( 2 235 126 KBytes ) - DVD-5Enabled regions: 1, 2, 3, 4, 5, 6, 7, 8
VTS_01 : Play Length: 01:01:21 Video: NTSC 4:3 (720x480) VBR Audio: Not specified (MPEG1, 2 ch)
Menu Video: NTSC 4:3 (720x480) VBRMenu Subtitles: Not specifiedMenu Language Unit : Root Menu
ОбщееПолное имя : G:\Temp\Ace Of Base - Live at Vina del Mar Festival, Chile, 19.02.1996 (bootleg)\VIDEO_TS\VIDEO_TS.BUPФормат файла : DVD VideoПрофиль формата : MenuРазмер файла : 12,0 КбайтРежим общего битрейта : Переменный
ВидеоИдентификатор : 224 (0xE0)Формат файла : MPEG VideoВерсия формата : Version 2Вид битрейта : ПеременныйШирина : 720 пикселейВысота : 480 пикселейСоотношение сторон : 4:3Частота кадров : 29,970 кадров/секСтандарт вещания : NTSCМетод сжатия : С потерями
ТекстФормат файла : RLEФормат файла/Информация : Run-length encodingБитовая глубина : 2 бит
ОбщееПолное имя : G:\Temp\Ace Of Base - Live at Vina del Mar Festival, Chile, 19.02.1996 (bootleg)\VIDEO_TS\VIDEO_TS.IFOФормат файла : DVD VideoПрофиль формата : MenuРазмер файла : 12,0 КбайтРежим общего битрейта : Переменный
ВидеоИдентификатор : 224 (0xE0)Формат файла : MPEG VideoВерсия формата : Version 2Вид битрейта : ПеременныйШирина : 720 пикселейВысота : 480 пикселейСоотношение сторон : 4:3Частота кадров : 29,970 кадров/секСтандарт вещания : NTSCМетод сжатия : С потерями
ТекстФормат файла : RLEФормат файла/Информация : Run-length encodingБитовая глубина : 2 бит
ОбщееПолное имя : G:\Temp\Ace Of Base - Live at Vina del Mar Festival, Chile, 19.02.1996 (bootleg)\VIDEO_TS\VIDEO_TS.VOBФормат файла : MPEG-PSРазмер файла : 13,1 МбайтПродолжительность : 15 с.Общий поток : 7122 Кбит/сек
ВидеоИдентификатор : 224 (0xE0)Формат файла : MPEG VideoВерсия формата : Version 2Профиль формата : Main@MainПараметр BVOP формата : ДаПараметр матрицы формата : ВыборочнаяПараметр GOP формата : M=3, N=16Продолжительность : 15 с.Битрейт : 7000 Кбит/секШирина : 720 пикселейВысота : 480 пикселейСоотношение сторон : 4:3Частота кадров : 29,970 кадров/секСтандарт вещания : NTSCЦветовое пространство : YUVСубдискретизация насыщенности : 4:2:0Битовая глубина : 8 битТип развёртки : ПрогрессивнаяМетод сжатия : С потерямиБит/(Пиксели*Кадры) : 0.676TimeCode_FirstFrame : 00:00:00:00TimeCode_Source : Group of pictures headerРазмер потока : 12,9 Мбайт (98%)Основные цвета : BT.601 PALХарактеристики трансфера : BT.470 System B, BT.470 System GКоэффициенты матрицы : FCC 73.682
ТекстИдентификатор : 189 (0xBD)-32 (0x20)Формат файла : RLEФормат файла/Информация : Run-length encodingРежим смешивания : DVD-Video
Меню
ОбщееПолное имя : G:\Temp\Ace Of Base - Live at Vina del Mar Festival, Chile, 19.02.1996 (bootleg)\VIDEO_TS\VTS_01_0.BUPФормат файла : DVD VideoПрофиль формата : ProgramРазмер файла : 54,0 КбайтПродолжительность : 1 ч. 1 м.Режим общего битрейта : ПеременныйОбщий поток : 120 бит/сек
ВидеоИдентификатор : 224 (0xE0)Формат файла : MPEG VideoВерсия формата : Version 2Продолжительность : 1 ч. 1 м.Вид битрейта : ПеременныйШирина : 720 пикселейВысота : 480 пикселейСоотношение сторон : 4:3Частота кадров : 29,970 кадров/секСтандарт вещания : NTSCМетод сжатия : С потерями
АудиоИдентификатор : 0 (0x0)Формат файла : MPEG AudioПрофиль формата : Version 1Продолжительность : 1 ч. 1 м.Каналы : 2 каналаЧастота : 48,0 КГцМетод сжатия : С потерями
МенюПродолжительность : 1 ч. 1 м.00:00:00.000 : Chapter 100:05:14.300 : Chapter 200:09:02.533 : Chapter 300:13:49.299 : Chapter 400:17:42.532 : Chapter 500:22:51.865 : Chapter 600:25:48.031 : Chapter 700:28:39.197 : Chapter 800:32:34.930 : Chapter 900:39:22.330 : Chapter 1000:44:43.663 : Chapter 1100:45:38.729 : Chapter 1200:50:08.995 : Chapter 1300:54:23.228 : Chapter 1400:56:45.394 : Chapter 15List (Audio) : 0
ОбщееПолное имя : G:\Temp\Ace Of Base - Live at Vina del Mar Festival, Chile, 19.02.1996 (bootleg)\VIDEO_TS\VTS_01_0.IFOФормат файла : DVD VideoПрофиль формата : ProgramРазмер файла : 54,0 КбайтПродолжительность : 1 ч. 1 м.Режим общего битрейта : ПеременныйОбщий поток : 120 бит/сек
ВидеоИдентификатор : 224 (0xE0)Формат файла : MPEG VideoВерсия формата : Version 2Продолжительность : 1 ч. 1 м.Вид битрейта : ПеременныйШирина : 720 пикселейВысота : 480 пикселейСоотношение сторон : 4:3Частота кадров : 29,970 кадров/секСтандарт вещания : NTSCМетод сжатия : С потерями
АудиоИдентификатор : 0 (0x0)Формат файла : MPEG AudioПрофиль формата : Version 1Продолжительность : 1 ч. 1 м.Каналы : 2 каналаЧастота : 48,0 КГцМетод сжатия : С потерями
МенюПродолжительность : 1 ч. 1 м.00:00:00.000 : Chapter 100:05:14.300 : Chapter 200:09:02.533 : Chapter 300:13:49.299 : Chapter 400:17:42.532 : Chapter 500:22:51.865 : Chapter 600:25:48.031 : Chapter 700:28:39.197 : Chapter 800:32:34.930 : Chapter 900:39:22.330 : Chapter 1000:44:43.663 : Chapter 1100:45:38.729 : Chapter 1200:50:08.995 : Chapter 1300:54:23.228 : Chapter 1400:56:45.394 : Chapter 15List (Audio) : 0
ОбщееПолное имя : G:\Temp\Ace Of Base - Live at Vina del Mar Festival, Chile, 19.02.1996 (bootleg)\VIDEO_TS\VTS_01_0.VOBФормат файла : MPEG-PSРазмер файла : 13,1 МбайтПродолжительность : 15 с.Общий поток : 7124 Кбит/сек
ВидеоИдентификатор : 224 (0xE0)Формат файла : MPEG VideoВерсия формата : Version 2Профиль формата : Main@MainПараметр BVOP формата : ДаПараметр матрицы формата : ВыборочнаяПараметр GOP формата : M=3, N=16Продолжительность : 15 с.Битрейт : 7000 Кбит/секШирина : 720 пикселейВысота : 480 пикселейСоотношение сторон : 4:3Частота кадров : 29,970 кадров/секСтандарт вещания : NTSCЦветовое пространство : YUVСубдискретизация насыщенности : 4:2:0Битовая глубина : 8 битТип развёртки : ПрогрессивнаяМетод сжатия : С потерямиБит/(Пиксели*Кадры) : 0.676TimeCode_FirstFrame : 00:00:00:00TimeCode_Source : Group of pictures headerРазмер потока : 12,9 Мбайт (98%)Основные цвета : BT.601 PALХарактеристики трансфера : BT.470 System B, BT.470 System GКоэффициенты матрицы : FCC 73.682
ТекстИдентификатор : 189 (0xBD)-32 (0x20)Формат файла : RLEФормат файла/Информация : Run-length encodingРежим смешивания : DVD-Video
Меню
ОбщееПолное имя : G:\Temp\Ace Of Base - Live at Vina del Mar Festival, Chile, 19.02.1996 (bootleg)\VIDEO_TS\VTS_01_1.VOBФормат файла : MPEG-PSРазмер файла : 1024 МбайтПродолжительность : 29 м.Режим общего битрейта : ПеременныйОбщий поток : 4933 Кбит/сек
ВидеоИдентификатор : 224 (0xE0)Формат файла : MPEG VideoВерсия формата : Version 2Профиль формата : Main@MainПараметр BVOP формата : ДаПараметр матрицы формата : ВыборочнаяПараметр GOP формата : M=3, N=15Продолжительность : 29 м.Вид битрейта : ПеременныйБитрейт : 4578 Кбит/секМаксимальный битрейт : 4650 Кбит/секШирина : 720 пикселейВысота : 480 пикселейСоотношение сторон : 4:3Частота кадров : 29,970 кадров/секСтандарт вещания : NTSCЦветовое пространство : YUVСубдискретизация насыщенности : 4:2:0Битовая глубина : 8 битТип развёртки : ЧересстрочнаяПорядок развёртки : Верхнее поле первоеМетод сжатия : С потерямиБит/(Пиксели*Кадры) : 0.442TimeCode_FirstFrame : 00:00:00:00TimeCode_Source : Group of pictures headerРазмер потока : 950 Мбайт (93%)
АудиоИдентификатор : 192 (0xC0)Формат файла : MPEG AudioВерсия формата : Version 1Профиль формата : Layer 2Продолжительность : 29 м.Вид битрейта : ПостоянныйБитрейт : 256 Кбит/секКаналы : 2 каналаЧастота : 48,0 КГцМетод сжатия : С потерямиЗадержка видео : -67 мс.Размер потока : 53,1 Мбайт (5%)
Меню
ОбщееПолное имя : G:\Temp\Ace Of Base - Live at Vina del Mar Festival, Chile, 19.02.1996 (bootleg)\VIDEO_TS\VTS_01_2.VOBФормат файла : MPEG-PSРазмер файла : 1024 МбайтПродолжительность : 29 м.Режим общего битрейта : ПеременныйОбщий поток : 4900 Кбит/сек
ВидеоИдентификатор : 224 (0xE0)Формат файла : MPEG VideoВерсия формата : Version 2Профиль формата : Main@MainПараметр BVOP формата : ДаПараметр матрицы формата : ВыборочнаяПараметр GOP формата : M=3, N=15Продолжительность : 29 м.Вид битрейта : ПеременныйБитрейт : 4546 Кбит/секМаксимальный битрейт : 4650 Кбит/секШирина : 720 пикселейВысота : 480 пикселейСоотношение сторон : 4:3Частота кадров : 29,970 кадров/секСтандарт вещания : NTSCЦветовое пространство : YUVСубдискретизация насыщенности : 4:2:0Битовая глубина : 8 битТип развёртки : ЧересстрочнаяПорядок развёртки : Верхнее поле первоеМетод сжатия : С потерямиБит/(Пиксели*Кадры) : 0.439TimeCode_FirstFrame : 00:28:59:15TimeCode_Source : Group of pictures headerРазмер потока : 950 Мбайт (93%)
АудиоИдентификатор : 192 (0xC0)Формат файла : MPEG AudioВерсия формата : Version 1Профиль формата : Layer 2Продолжительность : 29 м.Вид битрейта : ПостоянныйБитрейт : 256 Кбит/секКаналы : 2 каналаЧастота : 48,0 КГцМетод сжатия : С потерямиЗадержка видео : -251 мс.Размер потока : 53,5 Мбайт (5%)
Меню
ОбщееПолное имя : G:\Temp\Ace Of Base - Live at Vina del Mar Festival, Chile, 19.02.1996 (bootleg)\VIDEO_TS\VTS_01_3.VOBФормат файла : MPEG-PSРазмер файла : 109 МбайтПродолжительность : 3 м. 7 с.Режим общего битрейта : ПеременныйОбщий поток : 4853 Кбит/сек
ВидеоИдентификатор : 224 (0xE0)Формат файла : MPEG VideoВерсия формата : Version 2Профиль формата : Main@MainПараметр BVOP формата : ДаПараметр матрицы формата : ВыборочнаяПараметр GOP формата : M=3, N=15Продолжительность : 3 м. 7 с.Вид битрейта : ПеременныйБитрейт : 4500 Кбит/секМаксимальный битрейт : 4650 Кбит/секШирина : 720 пикселейВысота : 480 пикселейСоотношение сторон : 4:3Частота кадров : 29,970 кадров/секСтандарт вещания : NTSCЦветовое пространство : YUVСубдискретизация насыщенности : 4:2:0Битовая глубина : 8 битТип развёртки : ЧересстрочнаяПорядок развёртки : Верхнее поле первоеМетод сжатия : С потерямиБит/(Пиксели*Кадры) : 0.434TimeCode_FirstFrame : 00:58:10:15TimeCode_Source : Group of pictures headerРазмер потока : 101 Мбайт (93%)
АудиоИдентификатор : 192 (0xC0)Формат файла : MPEG AudioВерсия формата : Version 1Профиль формата : Layer 2Продолжительность : 3 м. 7 с.Вид битрейта : ПостоянныйБитрейт : 256 Кбит/секКаналы : 2 каналаЧастота : 48,0 КГцМетод сжатия : С потерямиЗадержка видео : -210 мс.Размер потока : 5,73 Мбайт (5%)
Меню

Скриншоты меню



[islamvillage.com]_torrent-4478209.torrent
Торрент: Зарегистрирован ·  [ 2017-02-15 22:12 ] ·  ce8074b86fbd428593c989904e8bd6e612ada465

12 KB

Статус: проверено
Скачан: 0 раз
Размер: 2.13 GB
Оценка: 
(Голосов: 0)
Сказали спасибо: 0  Спасибо
Похожие темы
[Профиль]    [ЛС]
Показать сообщения:    
Ответить на тему

Текущее время: Сегодня 22:18

Часовой пояс: GMT + 7



Вы не можете начинать темы
Вы не можете отвечать на сообщения
Вы не можете редактировать свои сообщения
Вы не можете удалять свои сообщения
Вы не можете голосовать в опросах
Вы не можете прикреплять файлы к сообщениям
Вы можете скачивать файлы


Siege In Fog | 2016 De Luxe Floral Art Peint Cas Pour Micromax D303 Couverture Fleur Cas de Tlphone Pour Micromax Bolt D303 + Cadeau Gratuit | 25 Yards Silk Satin Ribbon Wedding Party Decor Wrap Christmas Apparel Sewing—QY