ABBA - In Concert - Live - As They Really Were [1979, Pop, DVD5]

Ответить на тему
Статистика раздачи [Обновить пиров]
Размер:  3.95 GB   |    Зарегистрирован:  1 год 11 месяцев   |    Скачан:  1 раз

Полного источника не было: 6 дней

 
   
 
 
 
Автор Сообщение

islamvillage.com

Создавать темы 15-Фев-2017 22:30

[Цитировать]

ABBA - In Concert - Live - As They Really Were
Страна: Швеция
Жанр: Pop
Продолжительность: 00:51:33
Год выхода: 1979 г.
Лейбл: Universal
Описание: This reviewer wasn't too excited on buying this DVD, until he noticed the list of bonus features, which is impressive, to say the least. On its face, way back when, the video of ABBA in Concert was a kind of non-event, a last gasp in their history back in 1980-whatever. Although the related live album has some historic and technical interest, the idea of releasing a full-length concert video by this group had to be a part of the endgame strategy for their management and record label, because once the images of ABBA performing their stuff were released commercially and circulated freely, theoretically (at least) it removed the impetus for a any full-blown subsequent concert tour, and, in the absence of significant new material to expand their repertoire, any reunion. What was there left to do that hadn't been done? But the group, their label, and Universal Music have done enough with this DVD, so that it's essentially a first release, and a very good one. Fans can now ignore the laserdisc version from the early '90s, and put the videocassette editions from earlier release cycles right out of their minds, because this DVD (which costs, proportionately and adjusted for inflation, maybe half what those earlier releases did) runs circles around them. For starters, it's all been remastered on a level that puts the laserdisc edition to shame, right down to the original negative to judge from the picture quality, although there are limitations in some of the footage, especially the 16-mm material, that run right up against the clarity of digital video. But at least there are no more laser-based anomalies in the playback, and the source looks as good as the feature film version on the day the latter was released.
Треклист: 01. Waterloo
02. Eagle
03. Take A Chance On Me
04. Voulez-Vous
05. Chiquitita
06. Have A Dream
07. Gimme! Gimme! Gimme! (A Man After Midnight)
08. Knowing Me, Knowing You
09. Summer Night City
10. Dancing Queen
11. Does Your Mother Know
12. Hole In Your Soul
BONUS: 1. The way old friends 2. Thank you for music 3. I have a dream 4. Trailer: MAMMA MIA!
Разбивка на главы по трекам: есть
Качество : DVD5 (источник не известен)
Формат файла: DVD video
Видео кодек: MPEG2
Аудио кодек: AC3
Видео: MPEG2, 720x576, 4:3, 6263 kbps, 25 fps
Аудио: AC3, 448kbps, 48 kHz, 6 ch.
Аудио2: AC3, 192 kbps, 48 kHz, 2 ch. 3. DTS, 1510 kbps, 48 kHz, 6 ch.

DVDinfo

E:\VIDEO_TS\VTS_01_1.VOB General Complete name : E:\VIDEO_TS\VTS_01_1.VOB Format : MPEG-PS File size : 1 024 MiB Duration : 16mn 40s Overall bit rate mode : Variable Overall bit rate : 8 583 Kbps Video #224 ID : 224 (0xE0) Format : MPEG Video Format version : Version 2 Format profile : Main@Main Format settings, BVOP : Yes Format settings, Matrix : Custom Format settings, GOP : M=3, N=12 Duration : 16mn 40s Bit rate mode : Variable Bit rate : 6 263 Kbps Maximum bit rate : 6 400 Kbps Width : 720 pixels Height : 576 pixels Display aspect ratio : 4:3 Frame rate : 25.000 fps Standard : PAL Color space : YUV Chroma subsampling : 4:2:0 Bit depth : 8 bits Scan type : Interlaced Scan order : Top Field First Compression mode : Lossy Bits/(Pixel*Frame) : 0.604 Stream size : 747 MiB (73%) Audio #189-129 ID : 189 (0xBD)-129 (0x81) Format : AC-3 Format/Info : Audio Coding 3 Mode extension : CM (complete main) Format settings, Endianness : Big Muxing mode : DVD-Video Duration : 16mn 40s Bit rate mode : Constant Bit rate : 192 Kbps Channel(s) : 2 channels Channel positions : Front: L R Sampling rate : 48.0 KHz Bit depth : 16 bits Compression mode : Lossy Stream size : 22.9 MiB (2%) Audio #189-130 ID : 189 (0xBD)-130 (0x82) Format : AC-3 Format/Info : Audio Coding 3 Mode extension : CM (complete main) Format settings, Endianness : Big Muxing mode : DVD-Video Duration : 16mn 40s Bit rate mode : Constant Bit rate : 448 Kbps Channel(s) : 6 channels Channel positions : Front: L C R, Side: L R, LFE Sampling rate : 48.0 KHz Bit depth : 16 bits Compression mode : Lossy Stream size : 53.4 MiB (5%) Audio #189-136 ID : 189 (0xBD)-136 (0x88) Format : DTS Format/Info : Digital Theatre System Mode : 16 Format settings, Endianness : Big Muxing mode : DVD-Video Duration : 16mn 40s Bit rate mode : Constant Bit rate : 1 510 Kbps Channel(s) : 6 channels Channel positions : Front: L C R, Side: L R, LFE Sampling rate : 48.0 KHz Bit depth : 24 bits Compression mode : Lossy Stream size : 180 MiB (18%) Text #189-32 ID : 189 (0xBD)-32 (0x20) Format : RLE Format/Info : Run-length encoding Muxing mode : DVD-Video Delay relative to video : 440ms Text #189-33 ID : 189 (0xBD)-33 (0x21) Format : RLE Format/Info : Run-length encoding Muxing mode : DVD-Video Delay relative to video : 440ms Text #189-34 ID : 189 (0xBD)-34 (0x22) Format : RLE Format/Info : Run-length encoding Muxing mode : DVD-Video Delay relative to video : 440ms Text #189-35 ID : 189 (0xBD)-35 (0x23) Format : RLE Format/Info : Run-length encoding Muxing mode : DVD-Video Delay relative to video : 440ms Text #189-36 ID : 189 (0xBD)-36 (0x24) Format : RLE Format/Info : Run-length encoding Muxing mode : DVD-Video Delay relative to video : 440ms

Скриншоты меню

Скриншоты



[islamvillage.com]_torrent-4373866.torrent
Торрент: Зарегистрирован ·  [ 2017-02-15 22:12 ] ·  f196e949207147202ddf31a389da488645009391

21 KB

Статус: проверено
Скачан: 1 раз
Размер: 3.95 GB
Оценка: 
(Голосов: 0)
Сказали спасибо: 0  Спасибо
Похожие темы
[Профиль]    [ЛС]
Показать сообщения:    
Ответить на тему

Текущее время: Сегодня 22:42

Часовой пояс: GMT + 7



Вы не можете начинать темы
Вы не можете отвечать на сообщения
Вы не можете редактировать свои сообщения
Вы не можете удалять свои сообщения
Вы не можете голосовать в опросах
Вы не можете прикреплять файлы к сообщениям
Вы можете скачивать файлы


A Pequena Sereia DUBLADO E LEGENDADO ONLINE | Cobina Wright Sr. | Bingbing Li