(SkaMusic, Ska-Music) Mobtown - Cactus Juice - 1998, FLAC (tracks+.cue), lossless

Ответить на тему
Статистика раздачи [Обновить пиров]
Размер:  320 MB   |    Зарегистрирован:  1 год 3 месяца   |    Скачан:  0 раз

Полного источника не было: Никогда

 
   
 
 
 
Автор Сообщение

islamvillage.com

Создавать темы 09-Окт-2017 18:50

[Цитировать]

Mobtown - Cactus Juice-
Жанр: SkaMusic
Год выхода диска: 1998
Производитель диска: USA / Moon Ska
Аудио кодек: FLAC
Тип рипа: tracks+.cue
Битрейт аудио: lossless
Продолжительность: 51:56-01. Jump Up (2:40)
02. Underfire (4:13)
03. Eazy Rider (3:59)
04. Remember (5:35)
05. Pets Go To Heaven (3:22)
06. Josephine's Revenge (4:22)
07. Silent Happiness (5:19)
08. Bridgeview (4:00)
09. Sweet Paradise (4:25)
10. Coming To Get You (2:09)
11. El Mundo Canta (3:44)
12. Pussycat Love (3:23)
13. Cactus Juice (4:44)

EAC

Exact Audio Copy V0.99 prebeta 3 from 28. July 2007
EAC extraction logfile from 19. May 2008, 21:38
Mobtown / Cactus Juice
Used drive : HL-DT-STDVD-RW GWA-4082N Adapter: 1 ID: 0
Read mode : SecureUtilize accurate stream : YesDefeat audio cache : YesMake use of C2 pointers : No
Read offset correction : 667Overread into Lead-In and Lead-Out : NoFill up missing offset samples with silence : YesDelete leading and trailing silent blocks : NoNull samples used in CRC calculations : YesUsed interface : Installed external ASPI interfaceGap handling : Appended to previous track
Used output format : User Defined EncoderSelected bitrate : 192 kBit/sQuality : HighAdd ID3 tag : NoCommand line compressor : C:\Program Files\Exact Audio Copy\flac.exeAdditional command line options : -8 -A tukey(0.25) -A gauss(0.1875) -b 4096 -V -T "artist=%a" -T "title=%t" -T "album=%g" -T "date=%y" -T "tracknumber=%n" -T "genre=%m" %s --sector-align
TOC of the extracted CD
Track | Start | Length | Start sector | End sector --------------------------------------------------------- 1 | 0:00.00 | 2:40.00 | 0 | 11999 2 | 2:40.00 | 4:12.47 | 12000 | 30946 3 | 6:52.47 | 3:59.28 | 30947 | 48899 4 | 10:52.00 | 5:34.42 | 48900 | 73991 5 | 16:26.42 | 3:22.08 | 73992 | 89149 6 | 19:48.50 | 4:22.30 | 89150 | 108829 7 | 24:11.05 | 5:18.70 | 108830 | 132749 8 | 29:30.00 | 4:00.12 | 132750 | 150761 9 | 33:30.12 | 4:25.25 | 150762 | 170661 10 | 37:55.37 | 2:09.28 | 170662 | 180364 11 | 40:04.65 | 3:43.67 | 180365 | 197156 12 | 43:48.57 | 3:23.18 | 197157 | 212399 13 | 47:12.00 | 4:44.07 | 212400 | 233706
Track 1
Filename C:\Mobtown - 1998 - Cactus Juice\01 - Jump Up.wav
Pre-gap length 0:00:02.00
Peak level 97.5 % Track quality 100.0 % Test CRC 094EC7EF Copy CRC 094EC7EF Track not present in AccurateRip database Copy OK
Track 2
Filename C:\Mobtown - 1998 - Cactus Juice\02 - Underfire.wav
Pre-gap length 0:00:06.97
Peak level 98.0 % Track quality 100.0 % Test CRC 84158386 Copy CRC 84158386 Track not present in AccurateRip database Copy OK
Track 3
Filename C:\Mobtown - 1998 - Cactus Juice\03 - Eazy Rider.wav
Pre-gap length 0:00:06.89
Peak level 99.9 % Track quality 100.0 % Test CRC 60EDF89B Copy CRC 60EDF89B Track not present in AccurateRip database Copy OK
Track 4
Filename C:\Mobtown - 1998 - Cactus Juice\04 - Remember.wav
Pre-gap length 0:00:05.24
Peak level 99.8 % Track quality 100.0 % Test CRC 2850312F Copy CRC 2850312F Track not present in AccurateRip database Copy OK
Track 5
Filename C:\Mobtown - 1998 - Cactus Juice\05 - Pets Go To Heaven.wav
Pre-gap length 0:00:06.42
Peak level 98.3 % Track quality 100.0 % Test CRC 71A64AD8 Copy CRC 71A64AD8 Track not present in AccurateRip database Copy OK
Track 6
Filename C:\Mobtown - 1998 - Cactus Juice\06 - Josephine's Revenge.wav
Pre-gap length 0:00:09.94
Peak level 99.9 % Track quality 100.0 % Test CRC 42EB7DBD Copy CRC 42EB7DBD Track not present in AccurateRip database Copy OK
Track 7
Filename C:\Mobtown - 1998 - Cactus Juice\07 - Silent Happiness.wav
Pre-gap length 0:00:05.20
Peak level 99.8 % Track quality 100.0 % Test CRC E844BD4E Copy CRC E844BD4E Track not present in AccurateRip database Copy OK
Track 8
Filename C:\Mobtown - 1998 - Cactus Juice\08 - Bridgeview.wav
Pre-gap length 0:00:06.84
Peak level 99.8 % Track quality 100.0 % Test CRC FA35190F Copy CRC FA35190F Track not present in AccurateRip database Copy OK
Track 9
Filename C:\Mobtown - 1998 - Cactus Juice\09 - Sweet Paradise.wav
Pre-gap length 0:00:03.89
Peak level 96.8 % Track quality 99.9 % Test CRC 7EE2DE7C Copy CRC 7EE2DE7C Track not present in AccurateRip database Copy OK
Track 10
Filename C:\Mobtown - 1998 - Cactus Juice\10 - Coming To Get You.wav
Pre-gap length 0:00:06.56
Peak level 97.3 % Track quality 100.0 % Test CRC 89D820C1 Copy CRC 89D820C1 Track not present in AccurateRip database Copy OK
Track 11
Filename C:\Mobtown - 1998 - Cactus Juice\11 - El Mundo Canta.wav
Pre-gap length 0:00:06.77
Peak level 97.4 % Track quality 100.0 % Test CRC 8D7445DB Copy CRC 8D7445DB Track not present in AccurateRip database Copy OK
Track 12
Filename C:\Mobtown - 1998 - Cactus Juice\12 - Pussycat Love.wav
Pre-gap length 0:00:09.33
Peak level 97.4 % Track quality 100.0 % Test CRC CE7FA81D Copy CRC CE7FA81D Track not present in AccurateRip database Copy OK
Track 13
Filename C:\Mobtown - 1998 - Cactus Juice\13 - Cactus Juice.wav
Pre-gap length 0:00:04.10
Peak level 99.8 % Track quality 100.0 % Test CRC 884A9DD5 Copy CRC 884A9DD5 Track not present in AccurateRip database Copy OK
None of the tracks are present in the AccurateRip database
No errors occurred
End of status report

Оригинальный .cue

REM GENRE SkaREM DATE 1998REM DISCID A40C2C0DREM COMMENT "ExactAudioCopy v0.99pb3"PERFORMER "Mobtown"TITLE "Cactus Juice"FILE "Mobtown - 1998 - Cactus Juice\01 - Jump Up.wav" WAVE TRACK 01 AUDIO TITLE "Jump Up" PERFORMER "Mobtown" INDEX 01 00:00:00 TRACK 02 AUDIO TITLE "Underfire" PERFORMER "Mobtown" INDEX 00 02:33:02FILE "Mobtown - 1998 - Cactus Juice\02 - Underfire.wav" WAVE INDEX 01 00:00:00 TRACK 03 AUDIO TITLE "Eazy Rider" PERFORMER "Mobtown" INDEX 00 04:05:55FILE "Mobtown - 1998 - Cactus Juice\03 - Eazy Rider.wav" WAVE INDEX 01 00:00:00 TRACK 04 AUDIO TITLE "Remember" PERFORMER "Mobtown" INDEX 00 03:54:10FILE "Mobtown - 1998 - Cactus Juice\04 - Remember.wav" WAVE INDEX 01 00:00:00 TRACK 05 AUDIO TITLE "Pets Go To Heaven" PERFORMER "Mobtown" INDEX 00 05:28:10FILE "Mobtown - 1998 - Cactus Juice\05 - Pets Go To Heaven.wav" WAVE INDEX 01 00:00:00 TRACK 06 AUDIO TITLE "Josephine's Revenge" PERFORMER "Mobtown" INDEX 00 03:12:12FILE "Mobtown - 1998 - Cactus Juice\06 - Josephine's Revenge.wav" WAVE INDEX 01 00:00:00 TRACK 07 AUDIO TITLE "Silent Happiness" PERFORMER "Mobtown" INDEX 00 04:17:15FILE "Mobtown - 1998 - Cactus Juice\07 - Silent Happiness.wav" WAVE INDEX 01 00:00:00 TRACK 08 AUDIO TITLE "Bridgeview" PERFORMER "Mobtown" INDEX 00 05:12:07FILE "Mobtown - 1998 - Cactus Juice\08 - Bridgeview.wav" WAVE INDEX 01 00:00:00 TRACK 09 AUDIO TITLE "Sweet Paradise" PERFORMER "Mobtown" INDEX 00 03:56:20FILE "Mobtown - 1998 - Cactus Juice\09 - Sweet Paradise.wav" WAVE INDEX 01 00:00:00 TRACK 10 AUDIO TITLE "Coming To Get You" PERFORMER "Mobtown" INDEX 00 04:18:58FILE "Mobtown - 1998 - Cactus Juice\10 - Coming To Get You.wav" WAVE INDEX 01 00:00:00 TRACK 11 AUDIO TITLE "El Mundo Canta" PERFORMER "Mobtown" INDEX 00 02:02:45FILE "Mobtown - 1998 - Cactus Juice\11 - El Mundo Canta.wav" WAVE INDEX 01 00:00:00 TRACK 12 AUDIO TITLE "Pussycat Love" PERFORMER "Mobtown" INDEX 00 03:34:42FILE "Mobtown - 1998 - Cactus Juice\12 - Pussycat Love.wav" WAVE INDEX 01 00:00:00 TRACK 13 AUDIO TITLE "Cactus Juice" PERFORMER "Mobtown" INDEX 00 03:19:10FILE "Mobtown - 1998 - Cactus Juice\13 - Cactus Juice.wav" WAVE INDEX 01 00:00:00

Мой .cue (затерты пути)

REM GENRE SkaREM DATE 1998REM DISCID A40C2C0DREM COMMENT "ExactAudioCopy v0.99pb3"PERFORMER "Mobtown"TITLE "Cactus Juice"FILE "01 - Jump Up.wav" WAVE TRACK 01 AUDIO TITLE "Jump Up" PERFORMER "Mobtown" INDEX 01 00:00:00 TRACK 02 AUDIO TITLE "Underfire" PERFORMER "Mobtown" INDEX 00 02:33:02FILE "02 - Underfire.wav" WAVE INDEX 01 00:00:00 TRACK 03 AUDIO TITLE "Eazy Rider" PERFORMER "Mobtown" INDEX 00 04:05:55FILE "03 - Eazy Rider.wav" WAVE INDEX 01 00:00:00 TRACK 04 AUDIO TITLE "Remember" PERFORMER "Mobtown" INDEX 00 03:54:10FILE "04 - Remember.wav" WAVE INDEX 01 00:00:00 TRACK 05 AUDIO TITLE "Pets Go To Heaven" PERFORMER "Mobtown" INDEX 00 05:28:10FILE "05 - Pets Go To Heaven.wav" WAVE INDEX 01 00:00:00 TRACK 06 AUDIO TITLE "Josephine's Revenge" PERFORMER "Mobtown" INDEX 00 03:12:12FILE "06 - Josephine's Revenge.wav" WAVE INDEX 01 00:00:00 TRACK 07 AUDIO TITLE "Silent Happiness" PERFORMER "Mobtown" INDEX 00 04:17:15FILE "07 - Silent Happiness.wav" WAVE INDEX 01 00:00:00 TRACK 08 AUDIO TITLE "Bridgeview" PERFORMER "Mobtown" INDEX 00 05:12:07FILE "08 - Bridgeview.wav" WAVE INDEX 01 00:00:00 TRACK 09 AUDIO TITLE "Sweet Paradise" PERFORMER "Mobtown" INDEX 00 03:56:20FILE "09 - Sweet Paradise.wav" WAVE INDEX 01 00:00:00 TRACK 10 AUDIO TITLE "Coming To Get You" PERFORMER "Mobtown" INDEX 00 04:18:58FILE "10 - Coming To Get You.wav" WAVE INDEX 01 00:00:00 TRACK 11 AUDIO TITLE "El Mundo Canta" PERFORMER "Mobtown" INDEX 00 02:02:45FILE "11 - El Mundo Canta.wav" WAVE INDEX 01 00:00:00 TRACK 12 AUDIO TITLE "Pussycat Love" PERFORMER "Mobtown" INDEX 00 03:34:42FILE "12 - Pussycat Love.wav" WAVE INDEX 01 00:00:00 TRACK 13 AUDIO TITLE "Cactus Juice" PERFORMER "Mobtown" INDEX 00 03:19:10FILE "13 - Cactus Juice.wav" WAVE INDEX 01 00:00:00


[islamvillage.com]_t_1778078.torrent
Торрент: Зарегистрирован ·  [ 2017-10-09 18:48 ] ·  1287c7414385986e4487bd4c15a7f27ef22fe3ac

14 KB

Статус: проверено
Скачан: 0 раз
Размер: 320 MB
Оценка: 
(Голосов: 0)
Сказали спасибо: 0  Спасибо
Похожие темы
[Профиль]    [ЛС]
Показать сообщения:    
Ответить на тему

Текущее время: Сегодня 14:38

Часовой пояс: GMT + 7



Вы не можете начинать темы
Вы не можете отвечать на сообщения
Вы не можете редактировать свои сообщения
Вы не можете удалять свои сообщения
Вы не можете голосовать в опросах
Вы не можете прикреплять файлы к сообщениям
Вы можете скачивать файлы


Книги | 1 x 10 DUBLADO YOU | Аудиокниги на иностранных языках