(SkaRevival) The Selecter - Greatest Hits - 1996, FLAC (tracks+.cue), lossless

Ответить на тему
Статистика раздачи [Обновить пиров]
Размер:  331 MB   |    Зарегистрирован:  1 год 3 месяца   |    Скачан:  0 раз

Полного источника не было: Никогда

 
   
 
 
 
Автор Сообщение

islamvillage.com

Создавать темы 09-Окт-2017 18:50

[Цитировать]

The Selecter - Greatest Hits- Жанр: SkaRevival
Год выхода диска: 1996
Производитель диска: EMI Gold
Аудио кодек: FLAC
Тип рипа: tracks+.cue
Битрейт аудио: lossless
Продолжительность: 53:38-01. Three Minute Hero (3:03)
02. Too Much Pressure (3:50)
03. Celebrate The Bullet (3:07)
04. Bomb Scare (3:05)
05. Deep Water (4:08)
06. Time Hard (3:05)
07. They Make Me Mad (2:49)
08. Bristol And Miami (4:44)
09. Missing Words (3:22)
10. James Bond (2:19)
11. On My Radio (3:08)
12. The Whisper (3:01)
13. Carry Go Bring Home (2:57)
14. Murder (2:41)
15. Washed Up And Left For Dead (3:56)
16. Last Tango In Dub (4:22)
-

EAC

Exact Audio Copy V0.99 prebeta 4 from 23. January 2008
EAC extraction logfile from 21. March 2009, 23:07
The Selecter / Greatest Hits
Used drive : TSSTcorpCD/DVDW TS-H552B Adapter: 0 ID: 1
Read mode : SecureUtilize accurate stream : YesDefeat audio cache : YesMake use of C2 pointers : No
Read offset correction : 12Overread into Lead-In and Lead-Out : NoFill up missing offset samples with silence : YesDelete leading and trailing silent blocks : NoNull samples used in CRC calculations : YesUsed interface : Native Win32 interface for Win NT & 2000Gap handling : Appended to previous track
Used output format : User Defined EncoderSelected bitrate : 320 kBit/sQuality : HighAdd ID3 tag : NoCommand line compressor : D:\Program Files\FLAC\flac.exeAdditional command line options : -V -8 -T "artist=%a" -T "title=%t" -T "album=%g" -T "date=%y" -T "tracknumber=%n" -T "genre=%m" %s
TOC of the extracted CD
Track | Start | Length | Start sector | End sector --------------------------------------------------------- 1 | 0:00.33 | 3:03.15 | 33 | 13772 2 | 3:03.48 | 3:50.22 | 13773 | 31044 3 | 6:53.70 | 3:07.28 | 31045 | 45097 4 | 10:01.23 | 3:05.32 | 45098 | 59004 5 | 13:06.55 | 4:07.50 | 59005 | 77579 6 | 17:14.30 | 3:04.70 | 77580 | 91449 7 | 20:19.25 | 2:49.05 | 91450 | 104129 8 | 23:08.30 | 4:44.05 | 104130 | 125434 9 | 27:52.35 | 3:22.23 | 125435 | 140607 10 | 31:14.58 | 2:18.67 | 140608 | 151024 11 | 33:33.50 | 3:08.00 | 151025 | 165124 12 | 36:41.50 | 3:00.63 | 165125 | 178687 13 | 39:42.38 | 2:57.12 | 178688 | 191974 14 | 42:39.50 | 2:41.20 | 191975 | 204069 15 | 45:20.70 | 3:56.05 | 204070 | 221774 16 | 49:17.00 | 4:21.58 | 221775 | 241407
Track 1
Filename C:\Rip\The Selecter - 1996 - Greatest Hits\01 - Three Minute Hero .wav
Pre-gap length 0:00:02.44
Peak level 98.0 % Track quality 100.0 % Test CRC 69E31D2C Copy CRC 69E31D2C Accurately ripped (confidence 6) [A4FE4E0A] Copy OK
Track 2
Filename C:\Rip\The Selecter - 1996 - Greatest Hits\02 - Too Much Pressure .wav
Pre-gap length 0:00:01.00
Peak level 98.5 % Track quality 100.0 % Test CRC 52329EB3 Copy CRC 52329EB3 Accurately ripped (confidence 6) [4EEFADBB] Copy OK
Track 3
Filename C:\Rip\The Selecter - 1996 - Greatest Hits\03 - Celebrate The Bullet .wav
Pre-gap length 0:00:01.49
Peak level 98.0 % Track quality 100.0 % Test CRC 52FB4438 Copy CRC 52FB4438 Accurately ripped (confidence 6) [4598C2EF] Copy OK
Track 4
Filename C:\Rip\The Selecter - 1996 - Greatest Hits\04 - Bomb Scare .wav
Pre-gap length 0:00:01.70
Peak level 98.8 % Track quality 100.0 % Test CRC CE957097 Copy CRC CE957097 Accurately ripped (confidence 6) [EB7C4884] Copy OK
Track 5
Filename C:\Rip\The Selecter - 1996 - Greatest Hits\05 - Deep Water .wav
Pre-gap length 0:00:01.16
Peak level 98.2 % Track quality 100.0 % Test CRC F7C5792F Copy CRC F7C5792F Accurately ripped (confidence 5) [E9086588] Copy OK
Track 6
Filename C:\Rip\The Selecter - 1996 - Greatest Hits\06 - Time Hard .wav
Pre-gap length 0:00:00.76
Peak level 98.3 % Track quality 99.9 % Test CRC 9C1267EE Copy CRC 9C1267EE Accurately ripped (confidence 6) [19800737] Copy OK
Track 7
Filename C:\Rip\The Selecter - 1996 - Greatest Hits\07 - They Make Me Mad .wav
Pre-gap length 0:00:01.26
Peak level 98.0 % Track quality 100.0 % Test CRC 42BD0F65 Copy CRC 42BD0F65 Accurately ripped (confidence 6) [05D49347] Copy OK
Track 8
Filename C:\Rip\The Selecter - 1996 - Greatest Hits\08 - Bristol And Miami .wav
Pre-gap length 0:00:00.13
Peak level 98.4 % Track quality 100.0 % Test CRC 6C9C1A33 Copy CRC 6C9C1A33 Accurately ripped (confidence 6) [A95245EC] Copy OK
Track 9
Filename C:\Rip\The Selecter - 1996 - Greatest Hits\09 - Missing Words .wav
Pre-gap length 0:00:00.82
Peak level 98.4 % Track quality 100.0 % Test CRC 4575356D Copy CRC 4575356D Accurately ripped (confidence 6) [D99202B8] Copy OK
Track 10
Filename C:\Rip\The Selecter - 1996 - Greatest Hits\10 - James Bond .wav
Pre-gap length 0:00:01.13
Peak level 98.1 % Track quality 100.0 % Test CRC CF916E01 Copy CRC CF916E01 Accurately ripped (confidence 6) [FDB0E425] Copy OK
Track 11
Filename C:\Rip\The Selecter - 1996 - Greatest Hits\11 - On My Radio .wav
Pre-gap length 0:00:00.73
Peak level 98.2 % Track quality 100.0 % Test CRC B124AB83 Copy CRC B124AB83 Accurately ripped (confidence 6) [B3E93D31] Copy OK
Track 12
Filename C:\Rip\The Selecter - 1996 - Greatest Hits\12 - The Whisper .wav
Pre-gap length 0:00:00.82
Peak level 98.0 % Track quality 100.0 % Test CRC AF861F25 Copy CRC AF861F25 Accurately ripped (confidence 6) [0F303109] Copy OK
Track 13
Filename C:\Rip\The Selecter - 1996 - Greatest Hits\13 - Carry Go Bring Home .wav
Pre-gap length 0:00:00.57
Peak level 98.1 % Track quality 100.0 % Test CRC 890D224F Copy CRC 890D224F Accurately ripped (confidence 6) [3F69CC93] Copy OK
Track 14
Filename C:\Rip\The Selecter - 1996 - Greatest Hits\14 - Murder .wav
Pre-gap length 0:00:00.86
Peak level 98.5 % Track quality 100.0 % Test CRC D391398B Copy CRC D391398B Accurately ripped (confidence 6) [5D9AB3D3] Copy OK
Track 15
Filename C:\Rip\The Selecter - 1996 - Greatest Hits\15 - Washed Up And Left For Dead .wav
Pre-gap length 0:00:00.36
Peak level 98.4 % Track quality 100.0 % Test CRC 315F916D Copy CRC 315F916D Accurately ripped (confidence 6) [441A9534] Copy OK
Track 16
Filename C:\Rip\The Selecter - 1996 - Greatest Hits\16 - Last Tango In Dub .wav
Pre-gap length 0:00:01.00
Peak level 98.0 % Track quality 99.1 % Test CRC A53192D1 Copy CRC A53192D1 Accurately ripped (confidence 6) [3B46B07E] Copy OK
All tracks accurately ripped
No errors occurred
End of status report

.cue

REM GENRE SkaREM DATE 1996REM DISCID D30C9210REM COMMENT "ExactAudioCopy v0.99pb4"FILE "01 - Three Minute Hero .wav" WAVE TRACK 01 AUDIO PREGAP 00:00:33 INDEX 01 00:00:00 TRACK 02 AUDIO INDEX 00 03:02:15FILE "02 - Too Much Pressure .wav" WAVE INDEX 01 00:00:00 TRACK 03 AUDIO INDEX 00 03:48:60FILE "03 - Celebrate The Bullet .wav" WAVE INDEX 01 00:00:00 TRACK 04 AUDIO INDEX 00 03:05:50FILE "04 - Bomb Scare .wav" WAVE INDEX 01 00:00:00 TRACK 05 AUDIO INDEX 00 03:04:20FILE "05 - Deep Water .wav" WAVE INDEX 01 00:00:00 TRACK 06 AUDIO INDEX 00 04:06:68FILE "06 - Time Hard .wav" WAVE INDEX 01 00:00:00 TRACK 07 AUDIO INDEX 00 03:03:50FILE "07 - They Make Me Mad .wav" WAVE INDEX 01 00:00:00 TRACK 08 AUDIO INDEX 00 02:48:70FILE "08 - Bristol And Miami .wav" WAVE INDEX 01 00:00:00 TRACK 09 AUDIO INDEX 00 04:43:18FILE "09 - Missing Words .wav" WAVE INDEX 01 00:00:00 TRACK 10 AUDIO INDEX 00 03:21:13FILE "10 - James Bond .wav" WAVE INDEX 01 00:00:00 TRACK 11 AUDIO INDEX 00 02:18:12FILE "11 - On My Radio .wav" WAVE INDEX 01 00:00:00 TRACK 12 AUDIO INDEX 00 03:07:13FILE "12 - The Whisper .wav" WAVE INDEX 01 00:00:00 TRACK 13 AUDIO INDEX 00 03:00:20FILE "13 - Carry Go Bring Home .wav" WAVE INDEX 01 00:00:00 TRACK 14 AUDIO INDEX 00 02:56:22FILE "14 - Murder .wav" WAVE INDEX 01 00:00:00 TRACK 15 AUDIO INDEX 00 02:40:68FILE "15 - Washed Up And Left For Dead .wav" WAVE INDEX 01 00:00:00 TRACK 16 AUDIO INDEX 00 03:55:05FILE "16 - Last Tango In Dub .wav" WAVE INDEX 01 00:00:00


[islamvillage.com]_t_1889584.torrent
Торрент: Зарегистрирован ·  [ 2017-10-09 18:48 ] ·  44774ec3a46ca73d8b8f92c61befe510c20bc98f

14 KB

Статус: проверено
Скачан: 0 раз
Размер: 331 MB
Оценка: 
(Голосов: 0)
Сказали спасибо: 0  Спасибо
Похожие темы
[Профиль]    [ЛС]
Показать сообщения:    
Ответить на тему

Текущее время: Сегодня 15:49

Часовой пояс: GMT + 7



Вы не можете начинать темы
Вы не можете отвечать на сообщения
Вы не можете редактировать свои сообщения
Вы не можете удалять свои сообщения
Вы не можете голосовать в опросах
Вы не можете прикреплять файлы к сообщениям
Вы можете скачивать файлы


Tatouages, body art | V88 Android 6.0 Smart TV BOX 4K Latest RK3229 Quad Core 8GB HD 1080P WIFI Media$25.99 7d left | S03E03: Escorpion and the Red Hand