(SkaRevival) The Specials - 30th Anniversary Tour Live - 2009, FLAC (tracks+.cue), lossless

Ответить на тему
Статистика раздачи [Обновить пиров]
Размер:  272 MB   |    Зарегистрирован:  1 год 3 месяца   |    Скачан:  0 раз

Полного источника не было: Никогда

 
   
 
 
 
Автор Сообщение

islamvillage.com

Создавать темы 09-Окт-2017 18:50

[Цитировать]

The Specials - 30th Anniversary Tour Live- Жанр: SkaRevival
Год выхода диска: 2009
Производитель диска: UK
Аудио кодек: FLAC
Тип рипа: tracks+.cue
Битрейт аудио: lossless
Продолжительность: 36:05
Источник: What.cd
Трэклист:
01. Do the Dog (2:17)
02. (Dawning of a) New Era (2:29)
03. Gangsters (3:13)
04. Rat Race (3:13)
05. Money Man (2:42)
06. Blank Expression (2:09)
07. Concrete Jungle (3:19)
08. Friday Night/Saturday Morning (3:23)
09. A Message to You Rudy (2:50)
10. Do Nothing (3:29)
11. Nite Klub (4:29)
12. Too Much Too Young (2:33)

(SkaRevival) The Specials - 30th Anniversary Tour Live - 2009, MP3 (tracks), 320 kbps-

EAC

Exact Audio Copy V0.99 prebeta 5 from 4. May 2009
EAC extraction logfile from 12. July 2009, 11:21
The Specials / 30th Anniversary Tour Live
Used drive : MATSHITADVD-RAM UJ870QJ Adapter: 1 ID: 0
Read mode : SecureUtilize accurate stream : YesDefeat audio cache : YesMake use of C2 pointers : No
Read offset correction : 102Overread into Lead-In and Lead-Out : NoFill up missing offset samples with silence : YesDelete leading and trailing silent blocks : NoNull samples used in CRC calculations : YesUsed interface : Native Win32 interface for Win NT & 2000Gap handling : Appended to previous track
Used output format : User Defined EncoderSelected bitrate : 128 kBit/sQuality : HighAdd ID3 tag : NoCommand line compressor : F:\Program Files\Exact Audio Copy 0.99pb5\Flac\flac.exeAdditional command line options : -V -8 -T "artist=%a" -T "title=%t" -T "album=%g" -T "date=%y" -T "tracknumber=%n" -T "genre=%m" %s
TOC of the extracted CD
Track | Start | Length | Start sector | End sector --------------------------------------------------------- 1 | 0:00.00 | 2:16.45 | 0 | 10244 2 | 2:16.45 | 2:28.51 | 10245 | 21395 3 | 4:45.21 | 3:12.51 | 21396 | 35846 4 | 7:57.72 | 3:13.10 | 35847 | 50331 5 | 11:11.07 | 2:41.39 | 50332 | 62445 6 | 13:52.46 | 2:09.04 | 62446 | 72124 7 | 16:01.50 | 3:19.00 | 72125 | 87049 8 | 19:20.50 | 3:23.08 | 87050 | 102282 9 | 22:43.58 | 2:50.33 | 102283 | 115065 10 | 25:34.16 | 3:29.01 | 115066 | 130741 11 | 29:03.17 | 4:29.16 | 130742 | 150932 12 | 33:32.33 | 2:32.56 | 150933 | 162388
Track 1
Filename C:\EACRips\The Specials - 2009 - 30th Anniversary Tour Live\01 - Do the Dog.wav
Pre-gap length 0:00:02.00
Peak level 99.8 % Track quality 100.0 % Test CRC 02232AB1 Copy CRC 02232AB1 Track not present in AccurateRip database Copy OK
Track 2
Filename C:\EACRips\The Specials - 2009 - 30th Anniversary Tour Live\02 - (Dawning of a) New Era.wav
Peak level 99.8 % Track quality 100.0 % Test CRC CD577B75 Copy CRC CD577B75 Track not present in AccurateRip database Copy OK
Track 3
Filename C:\EACRips\The Specials - 2009 - 30th Anniversary Tour Live\03 - Gangsters.wav
Peak level 99.8 % Track quality 100.0 % Test CRC 88299022 Copy CRC 88299022 Track not present in AccurateRip database Copy OK
Track 4
Filename C:\EACRips\The Specials - 2009 - 30th Anniversary Tour Live\04 - Rat Race.wav
Peak level 99.8 % Track quality 100.0 % Test CRC CFC88C1C Copy CRC CFC88C1C Track not present in AccurateRip database Copy OK
Track 5
Filename C:\EACRips\The Specials - 2009 - 30th Anniversary Tour Live\05 - Money Man.wav
Peak level 99.8 % Track quality 100.0 % Test CRC 9F265DAE Copy CRC 9F265DAE Track not present in AccurateRip database Copy OK
Track 6
Filename C:\EACRips\The Specials - 2009 - 30th Anniversary Tour Live\06 - Blank Expression.wav
Peak level 99.8 % Track quality 100.0 % Test CRC B8A89692 Copy CRC B8A89692 Track not present in AccurateRip database Copy OK
Track 7
Filename C:\EACRips\The Specials - 2009 - 30th Anniversary Tour Live\07 - Concrete Jungle.wav
Peak level 99.8 % Track quality 100.0 % Test CRC F71223E2 Copy CRC F71223E2 Track not present in AccurateRip database Copy OK
Track 8
Filename C:\EACRips\The Specials - 2009 - 30th Anniversary Tour Live\08 - Friday Night,Saturday Morning.wav
Peak level 99.8 % Track quality 100.0 % Test CRC 0B0A2845 Copy CRC 0B0A2845 Track not present in AccurateRip database Copy OK
Track 9
Filename C:\EACRips\The Specials - 2009 - 30th Anniversary Tour Live\09 - A Message to You Rudy.wav
Peak level 99.8 % Track quality 100.0 % Test CRC 506F12F5 Copy CRC 506F12F5 Track not present in AccurateRip database Copy OK
Track 10
Filename C:\EACRips\The Specials - 2009 - 30th Anniversary Tour Live\10 - Do Nothing.wav
Peak level 99.8 % Track quality 100.0 % Test CRC C8024212 Copy CRC C8024212 Track not present in AccurateRip database Copy OK
Track 11
Filename C:\EACRips\The Specials - 2009 - 30th Anniversary Tour Live\11 - Nite Klub.wav
Peak level 99.8 % Track quality 100.0 % Test CRC 9A9C6198 Copy CRC 9A9C6198 Track not present in AccurateRip database Copy OK
Track 12
Filename C:\EACRips\The Specials - 2009 - 30th Anniversary Tour Live\12 - Too Much Too Young.wav
Peak level 99.8 % Track quality 99.9 % Test CRC 1185F4AD Copy CRC 1185F4AD Track not present in AccurateRip database Copy OK
None of the tracks are present in the AccurateRip database
No errors occurred
End of status report
-


[islamvillage.com]_t_2024358.torrent
Торрент: Зарегистрирован ·  [ 2017-10-09 18:48 ] ·  2ebba37d1bd39330c1ea178c6db4881c80b729b9

13 KB

Статус: проверено
Скачан: 0 раз
Размер: 272 MB
Оценка: 
(Голосов: 0)
Сказали спасибо: 0  Спасибо
Похожие темы
[Профиль]    [ЛС]
Показать сообщения:    
Ответить на тему

Текущее время: Сегодня 14:36

Часовой пояс: GMT + 7



Вы не можете начинать темы
Вы не можете отвечать на сообщения
Вы не можете редактировать свои сообщения
Вы не можете удалять свои сообщения
Вы не можете голосовать в опросах
Вы не можете прикреплять файлы к сообщениям
Вы можете скачивать файлы


new women's 86 Tops Loose dress baseball T-shirt W53 €24,06 Verkäufer akzeptiert PayPal Gekauft von 100+ | As Cartas de Madre Teresa (The Letters) 2015 | Best Sellers