(SkaJazz) Rotterdam Ska-Jazz Foundation - Sunwalk - 2005, FLAC (tracks+.cue), lossless

Ответить на тему
Статистика раздачи [Обновить пиров]
Размер:  285 MB   |    Зарегистрирован:  1 год 3 месяца   |    Скачан:  0 раз

Полного источника не было: Никогда

 
   
 
 
 
Автор Сообщение

islamvillage.com

Создавать темы 09-Окт-2017 18:50

[Цитировать]

Rotterdam Ska-Jazz Foundation - Sunwalk- Жанр: SkaJazz
Год выхода диска: 2005
Производитель диска: Netherlands
Аудио кодек: FLAC
Тип рипа: tracks+.cue
Битрейт аудио: lossless
Продолжительность: 49:50
Трэклист:


01. Sunwalk (4:16)
02. Backlash (4:34)
03. St. James Infirmary (5:05)
04. Magyar Posta (3:31)
05. Yardbird Suite (3:31)
06. Blues March (2:40)
07. Black Night (3:54)
08. Illegal Operations (4:41)
09. Chinatown (5:54)
10. Blue Lou (3:36)
11. Sweet Sorrow (4:33)
12. Bright Morning (3:36)
-

EAC

Exact Audio Copy V0.99 prebeta 4 from 23. January 2008
Отчёт EAC об извлечении, выполненном 4. октября 2008, 18:53
Rotterdam Ska-Jazz Foundation / Sunwalk
Дисковод: TSSTcorpCD/DVDW SH-W162C Adapter: 4 ID: 0
Режим чтения : ДостоверностьИспользование точного потока : ДаОтключение кэша аудио : ДаИспользование указателей C2 : Нет
Коррекция смещения при чтении : 6Способность читать области Lead-in и Lead-out : НетЗаполнение пропущенных сэмплов тишиной : ДаУдаление блоков с тишиной в начале и конце : НетПри вычислениях CRC использовались нулевые сэмплы : ДаИнтерфейс : Установленный внешний ASPI-интерфейсОбработка зазоров : Добавлено к предыдущему треку
Выходной формат : Пользовательский кодировщикВыбранный битрейт : 320 kBit/sКачество : ВысокийДобавление ID3-тэга : НетУтилита сжатия : C:\Program Files\Exact Audio Copy\FLAC\FLAC.EXEДополнительные параметры : -6 -V -T "ARTIST=%a" -T "TITLE=%t" -T "ALBUM=%g" -T "DATE=%y" -T "TRACKNUMBER=%n" -T "GENRE=%m" -T "COMMENT=%e" %s -o %d
TOC извлечённого CD
Трек | Старт | Длительность | Начальный сектор | Конечный сектор --------------------------------------------------------------------- 1 | 0:00.00 | 4:15.68 | 0 | 19192 2 | 4:15.68 | 4:33.59 | 19193 | 39726 3 | 8:49.52 | 5:04.43 | 39727 | 62569 4 | 13:54.20 | 3:31.02 | 62570 | 78396 5 | 17:25.22 | 3:31.13 | 78397 | 94234 6 | 20:56.35 | 2:39.39 | 94235 | 106198 7 | 23:35.74 | 3:54.08 | 106199 | 123756 8 | 27:30.07 | 4:41.24 | 123757 | 144855 9 | 32:11.31 | 5:53.64 | 144856 | 171394 10 | 38:05.20 | 3:35.67 | 171395 | 187586 11 | 41:41.12 | 4:32.58 | 187587 | 208044 12 | 46:13.70 | 3:36.33 | 208045 | 224277
Трек 1
Имя файла D:\Nashi dokumenti\Kirill\Моя музыка\Диспетчерская\Rotterdam Ska-Jazz Foundation - Sunwalk - 01. Sunwalk.wav
Длина предзазора 0:00:02.00
Пиковый уровень 98.0 % Качество трека 100.0 % CRC теста C63A24B4 CRC копии C63A24B4 Трек не обнаружен в базе AccurateRip Копирование... OK
Трек 2
Имя файла D:\Nashi dokumenti\Kirill\Моя музыка\Диспетчерская\Rotterdam Ska-Jazz Foundation - Sunwalk - 02. Backlash.wav
Длина предзазора 0:00:00.53
Пиковый уровень 98.0 % Качество трека 100.0 % CRC теста 6526DC5F CRC копии 6526DC5F Трек не обнаружен в базе AccurateRip Копирование... OK
Трек 3
Имя файла D:\Nashi dokumenti\Kirill\Моя музыка\Диспетчерская\Rotterdam Ska-Jazz Foundation - Sunwalk - 03. St. James Infirmary.wav
Длина предзазора 0:00:02.00
Пиковый уровень 98.0 % Качество трека 100.0 % CRC теста D3283417 CRC копии D3283417 Трек не обнаружен в базе AccurateRip Копирование... OK
Трек 4
Имя файла D:\Nashi dokumenti\Kirill\Моя музыка\Диспетчерская\Rotterdam Ska-Jazz Foundation - Sunwalk - 04. Magyar Posta.wav
Длина предзазора 0:00:02.00
Пиковый уровень 98.0 % Качество трека 100.0 % CRC теста DB6193AA CRC копии DB6193AA Трек не обнаружен в базе AccurateRip Копирование... OK
Трек 5
Имя файла D:\Nashi dokumenti\Kirill\Моя музыка\Диспетчерская\Rotterdam Ska-Jazz Foundation - Sunwalk - 05. Yardbird Suite.wav
Длина предзазора 0:00:02.00
Пиковый уровень 98.0 % Качество трека 99.9 % CRC теста 011A15F2 CRC копии 011A15F2 Трек не обнаружен в базе AccurateRip Копирование... OK
Трек 6
Имя файла D:\Nashi dokumenti\Kirill\Моя музыка\Диспетчерская\Rotterdam Ska-Jazz Foundation - Sunwalk - 06. Blues March.wav
Длина предзазора 0:00:00.46
Пиковый уровень 98.0 % Качество трека 100.0 % CRC теста 32455F98 CRC копии 32455F98 Трек не обнаружен в базе AccurateRip Копирование... OK
Трек 7
Имя файла D:\Nashi dokumenti\Kirill\Моя музыка\Диспетчерская\Rotterdam Ska-Jazz Foundation - Sunwalk - 07. Black Night.wav
Длина предзазора 0:00:01.00
Пиковый уровень 98.0 % Качество трека 99.9 % CRC теста E3561020 CRC копии E3561020 Трек не обнаружен в базе AccurateRip Копирование... OK
Трек 8
Имя файла D:\Nashi dokumenti\Kirill\Моя музыка\Диспетчерская\Rotterdam Ska-Jazz Foundation - Sunwalk - 08. Illegal Operations.wav
Длина предзазора 0:00:02.00
Пиковый уровень 98.0 % Качество трека 100.0 % CRC теста F095F746 CRC копии F095F746 Трек не обнаружен в базе AccurateRip Копирование... OK
Трек 9
Имя файла D:\Nashi dokumenti\Kirill\Моя музыка\Диспетчерская\Rotterdam Ska-Jazz Foundation - Sunwalk - 09. Chinatown.wav
Длина предзазора 0:00:02.00
Пиковый уровень 98.0 % Качество трека 100.0 % CRC теста 248AC99E CRC копии 248AC99E Трек не обнаружен в базе AccurateRip Копирование... OK
Трек 10
Имя файла D:\Nashi dokumenti\Kirill\Моя музыка\Диспетчерская\Rotterdam Ska-Jazz Foundation - Sunwalk - 10. Blue Lou.wav
Длина предзазора 0:00:01.00
Пиковый уровень 98.0 % Качество трека 100.0 % CRC теста 1D199D28 CRC копии 1D199D28 Трек не обнаружен в базе AccurateRip Копирование... OK
Трек 11
Имя файла D:\Nashi dokumenti\Kirill\Моя музыка\Диспетчерская\Rotterdam Ska-Jazz Foundation - Sunwalk - 11. Sweet Sorrow.wav
Длина предзазора 0:00:02.00
Пиковый уровень 99.9 % Качество трека 100.0 % CRC теста 4DBB3655 CRC копии 4DBB3655 Трек не обнаружен в базе AccurateRip Копирование... OK
Трек 12
Имя файла D:\Nashi dokumenti\Kirill\Моя музыка\Диспетчерская\Rotterdam Ska-Jazz Foundation - Sunwalk - 12. Bright Morning.wav
Длина предзазора 0:00:01.00
Пиковый уровень 99.9 % Качество трека 100.0 % CRC теста E50859AB CRC копии E50859AB Трек не обнаружен в базе AccurateRip Копирование... OK
Ни одного трека нет в базе AccurateRip
Ошибок не произошло
Конец отчёта
-


[islamvillage.com]_t_1838400.torrent
Торрент: Зарегистрирован ·  [ 2017-10-09 18:48 ] ·  021cb34c9b7febba2c33be64b8bf2d1d7b46cfd3

13 KB

Статус: проверено
Скачан: 0 раз
Размер: 285 MB
Оценка: 
(Голосов: 0)
Сказали спасибо: 0  Спасибо
Похожие темы
[Профиль]    [ЛС]
Показать сообщения:    
Ответить на тему

Текущее время: Сегодня 15:39

Часовой пояс: GMT + 7



Вы не можете начинать темы
Вы не можете отвечать на сообщения
Вы не можете редактировать свои сообщения
Вы не можете удалять свои сообщения
Вы не можете голосовать в опросах
Вы не можете прикреплять файлы к сообщениям
Вы можете скачивать файлы


Hindi Romantic Movies | Board index | Nox HDTV 720p AC3 5.1