(SkaMusic / Ska Revival) Madness - Compilation & Live album - 1998 - 2005, FLAC (tracks+.cue), lossless

Ответить на тему
Статистика раздачи [Обновить пиров]
Размер:  562 MB   |    Зарегистрирован:  1 год 3 месяца   |    Скачан:  0 раз
Сидеров:  1  [  0 KB/s  ]   Подробная статистика скачивающих
 
   
 
 
 
Автор Сообщение

islamvillage.com

Создавать темы 09-Окт-2017 18:50

[Цитировать]

Madness - Compilation & Live album- Жанр: SkaMusic/SkaRevival
Год выхода диска: 1998 - 2005
Производитель диска: UK
Аудио кодек: FLAC
Тип рипа: tracks+.cue
Битрейт аудио: lossless
Продолжительность: 01:42:37
2005 - 20th Century Masters - The Millennium Collection: The Best of Madness [Compilation]

01. Our House
02. Calling Cards
03. House of Fun
04. Grey Day
05. The Sun and the Rain
06. Time for Tea
07. One Step Beyond
08. It Must Be Love
09. Cardiac Arrest
10. Keep Moving
11. Bed and Breakfast Man
12. Wings of a Dove (A Celebratory Song)

-

EAC

Exact Audio Copy V0.99 prebeta 4 from 23. January 2008
EAC extraction logfile from 15. September 2008, 18:11
Madness / The Best of Madness - The Millennnium Collection
Used drive : MATSHITADVD-R UJ-857 Adapter: 0 ID: 0
Read mode : SecureUtilize accurate stream : YesDefeat audio cache : YesMake use of C2 pointers : No
Read offset correction : 102Overread into Lead-In and Lead-Out : NoFill up missing offset samples with silence : YesDelete leading and trailing silent blocks : NoNull samples used in CRC calculations : YesUsed interface : Installed external ASPI interfaceGap handling : Appended to previous track
Used output format : User Defined EncoderSelected bitrate : 192 kBit/sQuality : HighAdd ID3 tag : NoCommand line compressor : C:\Program Files\Exact Audio Copy\flac.exeAdditional command line options : -8 -A tukey(0.25) -A gauss(0.1875) -b 4096 -V -T "artist=%a" -T "title=%t" -T "album=%g" -T "date=%y" -T "tracknumber=%n" -T "genre=%m" %s --sector-align
TOC of the extracted CD
Track | Start | Length | Start sector | End sector --------------------------------------------------------- 1 | 0:00.00 | 3:21.60 | 0 | 15134 2 | 3:21.60 | 2:19.02 | 15135 | 25561 3 | 5:40.62 | 2:58.43 | 25562 | 38954 4 | 8:39.30 | 3:39.32 | 38955 | 55411 5 | 12:18.62 | 3:18.05 | 55412 | 70266 6 | 15:36.67 | 3:08.62 | 70267 | 84428 7 | 18:45.54 | 2:19.66 | 84429 | 94919 8 | 21:05.45 | 3:26.07 | 94920 | 110376 9 | 24:31.52 | 2:59.10 | 110377 | 123811 10 | 27:30.62 | 3:33.40 | 123812 | 139826 11 | 31:04.27 | 2:34.13 | 139827 | 151389 12 | 33:38.40 | 3:00.67 | 151390 | 164956
Track 1
Filename C:\Documents and Settings\Admin\Desktop\The Best of Madness - The Millennium Collection\01 - Madness - Our House.wav
Pre-gap length 0:00:02.00
Peak level 97.7 % Track quality 100.0 % Test CRC BB88D5D7 Copy CRC BB88D5D7 Copy OK
Track 2
Filename C:\Documents and Settings\Admin\Desktop\The Best of Madness - The Millennium Collection\02 - Madness - Calling Cards.wav
Peak level 97.7 % Track quality 100.0 % Test CRC E740D7FA Copy CRC E740D7FA Copy OK
Track 3
Filename C:\Documents and Settings\Admin\Desktop\The Best of Madness - The Millennium Collection\03 - Madness - House of Fun.wav
Peak level 98.8 % Track quality 100.0 % Test CRC EC698168 Copy CRC EC698168 Copy OK
Track 4
Filename C:\Documents and Settings\Admin\Desktop\The Best of Madness - The Millennium Collection\04 - Madness - Grey Day.wav
Pre-gap length 0:00:01.33
Peak level 95.5 % Track quality 100.0 % Test CRC AAB07C8E Copy CRC AAB07C8E Copy OK
Track 5
Filename C:\Documents and Settings\Admin\Desktop\The Best of Madness - The Millennium Collection\05 - Madness - The Sun and the Rain.wav
Peak level 98.8 % Track quality 100.0 % Test CRC F5D0ED4D Copy CRC F5D0ED4D Copy OK
Track 6
Filename C:\Documents and Settings\Admin\Desktop\The Best of Madness - The Millennium Collection\06 - Madness - Time for Tea.wav
Peak level 98.8 % Track quality 100.0 % Test CRC 4A388A99 Copy CRC 4A388A99 Copy OK
Track 7
Filename C:\Documents and Settings\Admin\Desktop\The Best of Madness - The Millennium Collection\07 - Madness - One Step Beyond.wav
Pre-gap length 0:00:01.09
Peak level 94.4 % Track quality 100.0 % Test CRC 43517005 Copy CRC 43517005 Copy OK
Track 8
Filename C:\Documents and Settings\Admin\Desktop\The Best of Madness - The Millennium Collection\08 - Madness - It Must Be Love.wav
Pre-gap length 0:00:01.44
Peak level 98.8 % Track quality 100.0 % Test CRC 93E231B0 Copy CRC 93E231B0 Copy OK
Track 9
Filename C:\Documents and Settings\Admin\Desktop\The Best of Madness - The Millennium Collection\09 - Madness - Cardiac Arrest.wav
Peak level 98.8 % Track quality 100.0 % Test CRC 3771724E Copy CRC 3771724E Copy OK
Track 10
Filename C:\Documents and Settings\Admin\Desktop\The Best of Madness - The Millennium Collection\10 - Madness - Keep Moving.wav
Pre-gap length 0:00:01.13
Peak level 97.7 % Track quality 99.9 % Test CRC 8A52155C Copy CRC 8A52155C Copy OK
Track 11
Filename C:\Documents and Settings\Admin\Desktop\The Best of Madness - The Millennium Collection\11 - Madness - Bed and Breakfast Man.wav
Pre-gap length 0:00:01.69
Peak level 96.6 % Track quality 100.0 % Test CRC 0D081166 Copy CRC 0D081166 Copy OK
Track 12
Filename C:\Documents and Settings\Admin\Desktop\The Best of Madness - The Millennium Collection\12 - Madness - Wings of a Dove (A Celebratory Song).wav
Peak level 98.8 % Track quality 100.0 % Test CRC C9B450B1 Copy CRC C9B450B1 Copy OK
No errors occurred
End of status report
-1998 - Universal Madness - Live in Los Angeles [Live album]
01. (Hey You) One Step Beyond
02. Embarrassment
03. The Prince
04. Sun & The Rain
05. My Girl
06. Shut Up
07. Baggy Trousers
08. It Must Be Love
09. Bed & Breakfast Man
10. Our House
11. Swan Lake
12. Night Boat To Cairo
13. Madness

EAC

Exact Audio Copy V0.99 prebeta 4 from 23. January 2008
EAC extraction logfile from 8. May 2009, 11:42
Madness / Universal Madness: Live in Los Angeles
Used drive : HL-DT-STDVDRAM GSA-U20N Adapter: 2 ID: 1
Read mode : SecureUtilize accurate stream : YesDefeat audio cache : YesMake use of C2 pointers : No
Read offset correction : 667Overread into Lead-In and Lead-Out : NoFill up missing offset samples with silence : YesDelete leading and trailing silent blocks : NoNull samples used in CRC calculations : YesUsed interface : Native Win32 interface for Win NT & 2000Gap handling : Appended to previous track
Used output format : User Defined EncoderSelected bitrate : 768 kBit/sQuality : HighAdd ID3 tag : NoCommand line compressor : C:\Program Files\Exact Audio Copy\FLAC\FLAC.EXEAdditional command line options : -V -8 -T "artist=%a" -T "title=%t" -T "album=%g" -T "date=%y" -T "tracknumber=%n" -T "genre=%m" %s
TOC of the extracted CD
Track | Start | Length | Start sector | End sector --------------------------------------------------------- 1 | 0:00.00 | 3:25.72 | 0 | 15446 2 | 3:25.72 | 3:14.03 | 15447 | 29999 3 | 6:40.00 | 3:28.27 | 30000 | 45626 4 | 10:08.27 | 3:52.37 | 45627 | 63063 5 | 14:00.64 | 2:51.61 | 63064 | 75949 6 | 16:52.50 | 3:21.67 | 75950 | 91091 7 | 20:14.42 | 2:37.45 | 91092 | 102911 8 | 22:52.12 | 3:39.42 | 102912 | 119378 9 | 26:31.54 | 2:21.71 | 119379 | 130024 10 | 28:53.50 | 3:52.20 | 130025 | 147444 11 | 32:45.70 | 3:27.02 | 147445 | 162971 12 | 36:12.72 | 4:02.10 | 162972 | 181131 13 | 40:15.07 | 3:39.58 | 181132 | 197614
Track 1
Filename C:\temp\RIP\Madness - 1998 - Universal Madness- Live in Los Angeles\01 - (Hey You) One Step Beyond.wav
Pre-gap length 0:00:02.00
Peak level 99.8 % Track quality 100.0 % Test CRC FF9437B6 Copy CRC FF9437B6 Track not present in AccurateRip database Copy OK
Track 2
Filename C:\temp\RIP\Madness - 1998 - Universal Madness- Live in Los Angeles\02 - Embarrassment.wav
Peak level 99.8 % Track quality 100.0 % Test CRC 7C038DF4 Copy CRC 7C038DF4 Track not present in AccurateRip database Copy OK
Track 3
Filename C:\temp\RIP\Madness - 1998 - Universal Madness- Live in Los Angeles\03 - The Prince.wav
Pre-gap length 0:00:00.01
Peak level 99.8 % Track quality 100.0 % Test CRC 49FB4657 Copy CRC 49FB4657 Track not present in AccurateRip database Copy OK
Track 4
Filename C:\temp\RIP\Madness - 1998 - Universal Madness- Live in Los Angeles\04 - Sun & the Rain.wav
Peak level 98.3 % Track quality 100.0 % Test CRC 55BF690E Copy CRC 55BF690E Track not present in AccurateRip database Copy OK
Track 5
Filename C:\temp\RIP\Madness - 1998 - Universal Madness- Live in Los Angeles\05 - My Girl.wav
Peak level 99.8 % Track quality 100.0 % Test CRC AF51B8DC Copy CRC AF51B8DC Track not present in AccurateRip database Copy OK
Track 6
Filename C:\temp\RIP\Madness - 1998 - Universal Madness- Live in Los Angeles\06 - Shut Up.wav
Peak level 99.8 % Track quality 99.9 % Test CRC F36BFD33 Copy CRC F36BFD33 Track not present in AccurateRip database Copy OK
Track 7
Filename C:\temp\RIP\Madness - 1998 - Universal Madness- Live in Los Angeles\07 - Baggy Trousers.wav
Peak level 99.8 % Track quality 100.0 % Test CRC 946851C0 Copy CRC 946851C0 Track not present in AccurateRip database Copy OK
Track 8
Filename C:\temp\RIP\Madness - 1998 - Universal Madness- Live in Los Angeles\08 - It Must Be Love.wav
Peak level 99.8 % Track quality 100.0 % Test CRC 0C150AB8 Copy CRC 0C150AB8 Track not present in AccurateRip database Copy OK
Track 9
Filename C:\temp\RIP\Madness - 1998 - Universal Madness- Live in Los Angeles\09 - Bed & Breakfast Man.wav
Peak level 99.8 % Track quality 100.0 % Test CRC EF243E53 Copy CRC EF243E53 Track not present in AccurateRip database Copy OK
Track 10
Filename C:\temp\RIP\Madness - 1998 - Universal Madness- Live in Los Angeles\10 - Our House.wav
Peak level 99.8 % Track quality 100.0 % Test CRC 90436952 Copy CRC 90436952 Track not present in AccurateRip database Copy OK
Track 11
Filename C:\temp\RIP\Madness - 1998 - Universal Madness- Live in Los Angeles\11 - Swan Lake.wav
Peak level 99.8 % Track quality 100.0 % Test CRC B1014F87 Copy CRC B1014F87 Track not present in AccurateRip database Copy OK
Track 12
Filename C:\temp\RIP\Madness - 1998 - Universal Madness- Live in Los Angeles\12 - Night Boat to Cairo.wav
Peak level 99.8 % Track quality 100.0 % Test CRC F9B84610 Copy CRC F9B84610 Track not present in AccurateRip database Copy OK
Track 13
Filename C:\temp\RIP\Madness - 1998 - Universal Madness- Live in Los Angeles\13 - Madness.wav
Peak level 99.8 % Track quality 100.0 % Test CRC 6505EDBF Copy CRC 6505EDBF Track not present in AccurateRip database Copy OK
None of the tracks are present in the AccurateRip database
No errors occurred
End of status report
-


[islamvillage.com]_t_1748110.torrent
Торрент: Зарегистрирован ·  [ 2017-10-09 18:48 ] ·  6d05d322b87359afec62500e321333db7c3426ff

15 KB

Статус: проверено
Скачан: 0 раз
Размер: 562 MB
Оценка: 
(Голосов: 0)
Сказали спасибо: 0  Спасибо
Похожие темы
[Профиль]    [ЛС]
Показать сообщения:    
Ответить на тему

Текущее время: Сегодня 14:58

Часовой пояс: GMT + 7



Вы не можете начинать темы
Вы не можете отвечать на сообщения
Вы не можете редактировать свои сообщения
Вы не можете удалять свои сообщения
Вы не можете голосовать в опросах
Вы не можете прикреплять файлы к сообщениям
Вы можете скачивать файлы


Capitão América: Guerra Civil | Collection 1 Cent 1920-2012 Canada... Lot 90 Coins... | Register a new account