(Reggae / SkaJazz) Don Drummond - Greatest Hits - 1969, FLAC (tracks+.cue), lossless

Ответить на тему
Статистика раздачи [Обновить пиров]
Размер:  156 MB   |    Зарегистрирован:  1 год 3 месяца   |    Скачан:  0 раз

Полного источника не было: Никогда

 
   
 
 
 
Автор Сообщение

islamvillage.com

Создавать темы 09-Окт-2017 18:51

[Цитировать]

Don Drummond - Greatest HitsЖанр: Reggae
Год выхода диска: 1969
Аудио кодек: FLAC
Тип рипа: tracks+.cue
Битрейт аудио: lossless
Трэклист:
01. Garden of Love (Don Drummond)
02. Feeling Fine (Don Drummond)
03. Dearest (Dotty & Bonnie)
04. Street Corner (Don Drummond)
05. Latin Goes Ska (Don Drummond)
06. Green Island (Don Drummond)
07. Silver Dollar (Don Drummond)
08. Let George Do It (Don Drummond)
09. Woman a Come (Margarita))
10. Knock Out Punch (Don Drummond)
11. Dr. Decker (Don Drummond)
12. Occupation (Don Drummond)
Backed by Don Drummond & The Skatalites:
Bass - Lloyd Brevett
Drums - Lloyd Knibbs
Alto sax - Roland Alphonso
Tenor sax - Tommy McCook
Trombone - Don Drummond
Trumpet - Baba Brooks
Engineer : Byron Smith
Recorded at Treasure Isle Studio (JA)
Label : Treasure Isle / Culture Press / Jet Set

Log EAC

Exact Audio Copy V0.99 prebeta 3 from 28. July 2007
EAC extraction logfile from 10. January 2008, 18:31
Don Drummond / Greatest Hits
Used drive : PHILIPS DVDR1628P1 Adapter: 4 ID: 0
Read mode : Secure
Utilize accurate stream : Yes
Defeat audio cache : Yes
Make use of C2 pointers : No
Read offset correction : 618
Overread into Lead-In and Lead-Out : No
Fill up missing offset samples with silence : Yes
Delete leading and trailing silent blocks : No
Null samples used in CRC calculations : Yes
Used interface : Installed external ASPI interface
Gap handling : Appended to previous track
Used output format : User Defined Encoder
Selected bitrate : 192 kBit/s
Quality : High
Add ID3 tag : No
Command line compressor : D:\Documents and Settings\branou\Mes documents\Exact Audio Copy\flac.exe
Additional command line options : -8 -A tukey(0.25) -A gauss(0.1875) -b 4096 -V -T "artist=%a" -T "title=%t" -T "album=%g" -T "date=%y" -T "tracknumber=%n" -T "genre=%m" %s --sector-align
TOC of the extracted CD
Track | Start | Length | Start sector | End sector
---------------------------------------------------------
1 | 0:00.30 | 3:11.59 | 30 | 14413
2 | 3:12.14 | 2:54.52 | 14414 | 27515
3 | 6:06.66 | 2:30.61 | 27516 | 38826
4 | 8:37.52 | 3:01.38 | 38827 | 52439
5 | 11:39.15 | 3:04.06 | 52440 | 66245
6 | 14:43.21 | 3:57.38 | 66246 | 84058
7 | 18:40.59 | 2:59.22 | 84059 | 97505
8 | 21:40.06 | 3:43.05 | 97506 | 114235
9 | 25:23.11 | 3:13.04 | 114236 | 128714
10 | 28:36.15 | 3:12.71 | 128715 | 143185
11 | 31:49.11 | 2:51.02 | 143186 | 156012
12 | 34:40.13 | 3:07.69 | 156013 | 170106
Track 1
Filename D:\Documents and Settings\branou\Mes documents\Don Drummond - Greatest Hits\01 - Don Drummond - Garden Of Love.wav
Pre-gap length 0:00:02.40
Peak level 100.0 %
Track quality 100.0 %
Test CRC BA979FE3
Copy CRC BA979FE3
Copy OK
Track 2
Filename D:\Documents and Settings\branou\Mes documents\Don Drummond - Greatest Hits\02 - Don Drummond - Feeling Fine.wav
Peak level 100.0 %
Track quality 99.9 %
Test CRC 66ADCC49
Copy CRC 66ADCC49
Copy OK
Track 3
Filename D:\Documents and Settings\branou\Mes documents\Don Drummond - Greatest Hits\03 - Don Drummond - Dearest.wav
Peak level 99.6 %
Track quality 100.0 %
Test CRC AB6A5DE9
Copy CRC AB6A5DE9
Copy OK
Track 4
Filename D:\Documents and Settings\branou\Mes documents\Don Drummond - Greatest Hits\04 - Don Drummond - Street Corner.wav
Peak level 100.0 %
Track quality 100.0 %
Test CRC 6A66B4DD
Copy CRC 6A66B4DD
Copy OK
Track 5
Filename D:\Documents and Settings\branou\Mes documents\Don Drummond - Greatest Hits\05 - Don Drummond - Latin Goes Ska.wav
Peak level 99.9 %
Track quality 100.0 %
Test CRC 1DEAC1CD
Copy CRC 1DEAC1CD
Copy OK
Track 6
Filename D:\Documents and Settings\branou\Mes documents\Don Drummond - Greatest Hits\06 - Don Drummond - Green Island.wav
Peak level 100.0 %
Track quality 100.0 %
Test CRC 5544E479
Copy CRC 5544E479
Copy OK
Track 7
Filename D:\Documents and Settings\branou\Mes documents\Don Drummond - Greatest Hits\07 - Don Drummond - Silver Dollar.wav
Peak level 100.0 %
Track quality 99.9 %
Test CRC 2C62E2EE
Copy CRC 2C62E2EE
Copy OK
Track 8
Filename D:\Documents and Settings\branou\Mes documents\Don Drummond - Greatest Hits\08 - Don Drummond - Let George Do It.wav
Peak level 99.8 %
Track quality 100.0 %
Test CRC 2FD948E5
Copy CRC 2FD948E5
Copy OK
Track 9
Filename D:\Documents and Settings\branou\Mes documents\Don Drummond - Greatest Hits\09 - Don Drummond - Woman A Come.wav
Peak level 98.6 %
Track quality 100.0 %
Test CRC 0F7B6160
Copy CRC 0F7B6160
Copy OK
Track 10
Filename D:\Documents and Settings\branou\Mes documents\Don Drummond - Greatest Hits\10 - Don Drummond - Knock Out Punch.wav
Peak level 100.0 %
Track quality 99.9 %
Test CRC 154BB9BD
Copy CRC 154BB9BD
Copy OK
Track 11
Filename D:\Documents and Settings\branou\Mes documents\Don Drummond - Greatest Hits\11 - Don Drummond - Dr. Decker.wav
Peak level 99.9 %
Track quality 99.9 %
Test CRC A753532A
Copy CRC A753532A
Copy OK
Track 12
Filename D:\Documents and Settings\branou\Mes documents\Don Drummond - Greatest Hits\12 - Don Drummond - Occupation.wav
Peak level 99.8 %
Track quality 100.0 %
Test CRC 939D9452
Copy CRC 939D9452
Copy OK
No errors occurred
End of status report

Спектрограмма

Доп. информация:
Биография: http://www.studiowon.com/studiowon/don_drummond.htm:

Приятного прослушивания!


[islamvillage.com]_t_997892.torrent
Торрент: Зарегистрирован ·  [ 2017-10-09 18:48 ] ·  1a28c067a1bbfec19d8043863f73350fa8cf263b

14 KB

Статус: проверено
Скачан: 0 раз
Размер: 156 MB
Оценка: 
(Голосов: 0)
Сказали спасибо: 0  Спасибо
Похожие темы
[Профиль]    [ЛС]
Показать сообщения:    
Ответить на тему

Текущее время: Сегодня 14:56

Часовой пояс: GMT + 7



Вы не можете начинать темы
Вы не можете отвечать на сообщения
Вы не можете редактировать свои сообщения
Вы не можете удалять свои сообщения
Вы не можете голосовать в опросах
Вы не можете прикреплять файлы к сообщениям
Вы можете скачивать файлы


Watch movie | Super Pack – 5000 Livros Para Kindle – 2018 | Macro Economics - 420 Words