(Ska Revival) Judge Dread - Ska\'d for Life - 1996, APE (image+.cue), lossless

Ответить на тему
Статистика раздачи [Обновить пиров]
Размер:  245 MB   |    Зарегистрирован:  1 год 3 месяца   |    Скачан:  0 раз

Полного источника не было: Никогда

 
   
 
 
 
Автор Сообщение

islamvillage.com

Создавать темы 09-Окт-2017 18:51

[Цитировать]

Judge Dread - Ska'd for Life
Жанр: Ska Revival
Год выхода диска: 1996
Производитель диска: UK
Аудио кодек: APE
Тип рипа: image+.cue
Битрейт аудио: lossless
Продолжительность: 42:45
Трэклист:

01. Rudeness Train
02. Rub a Dub
03. Rasta Chat
04. Bedtime Stories
05. Big Punk
06. Not Guilty
07. Confessions of a Bouncer
08. Phoenix City
09. Al Capone
10. Bring Back the Skins
11. Mind the Doors
12. Deception
13. All in the Mind
14. What Kung Fu Dat
15. Ska Fever

Доп. информация: http://www.youtube.com/watch?v=qM0e_316UDU&feature=related
Отчёт EACExact Audio Copy V0.99 prebeta 4 from 23. January 2008
EAC extraction logfile from 4. October 2008, 23:37
Judge Dread / Ska'd for Life
Used drive : _NEC DVD_RW ND-3550A Adapter: 5 ID: 0
Read mode : Secure
Utilize accurate stream : Yes
Defeat audio cache : Yes
Make use of C2 pointers : No
Read offset correction : 48
Overread into Lead-In and Lead-Out : No
Fill up missing offset samples with silence : Yes
Delete leading and trailing silent blocks : No
Null samples used in CRC calculations : Yes
Used interface : Native Win32 interface for Win NT & 2000
Used output format : Monkey's Audio Lossless Encoder
Selected bitrate : High Lossless Compression
Quality : High
Add ID3 tag : Yes
Command line compressor : C:\Program Files\Monkey's Audio\MAC.exe
Additional command line options : %l--alt-preset 128%l%h--alt-preset standard%h %s %d
TOC of the extracted CD
Track | Start | Length | Start sector | End sector
---------------------------------------------------------
1 | 0:00.00 | 3:02.36 | 0 | 13685
2 | 3:02.36 | 3:00.04 | 13686 | 27189
3 | 6:02.40 | 3:10.16 | 27190 | 41455
4 | 9:12.56 | 2:54.69 | 41456 | 54574
5 | 12:07.50 | 2:46.14 | 54575 | 67038
6 | 14:53.64 | 3:13.33 | 67039 | 81546
7 | 18:07.22 | 2:21.13 | 81547 | 92134
8 | 20:28.35 | 2:56.55 | 92135 | 105389
9 | 23:25.15 | 2:39.10 | 105390 | 117324
10 | 26:04.25 | 3:54.26 | 117325 | 134900
11 | 29:58.51 | 2:04.03 | 134901 | 144203
12 | 32:02.54 | 2:51.48 | 144204 | 157076
13 | 34:54.27 | 2:48.63 | 157077 | 169739
14 | 37:43.15 | 2:08.31 | 169740 | 179370
15 | 39:51.46 | 2:53.03 | 179371 | 192348
Range status and errors
Selected range
Filename D:\Downloads\Judge Dread - Ska'd for Life\Judge Dread - Ska'd for Life.wav
Peak level 99.8 %
Range quality 100.0 %
Test CRC CFD21208
Copy CRC CFD21208
Copy OK
No errors occurred
AccurateRip summary
Track 1 not present in database
Track 2 not present in database
Track 3 not present in database
Track 4 not present in database
Track 5 not present in database
Track 6 not present in database
Track 7 not present in database
Track 8 not present in database
Track 9 not present in database
Track 10 not present in database
Track 11 not present in database
Track 12 not present in database
Track 13 not present in database
Track 14 not present in database
Track 15 not present in database
None of the tracks are present in the AccurateRip database
End of status report


[islamvillage.com]_t_1148452.torrent
Торрент: Зарегистрирован ·  [ 2017-10-09 18:48 ] ·  e07c74d64e5117e3e7823911e2b0e3a6db4656a2

20 KB

Статус: проверено
Скачан: 0 раз
Размер: 245 MB
Оценка: 
(Голосов: 0)
Сказали спасибо: 0  Спасибо
Похожие темы
[Профиль]    [ЛС]
Показать сообщения:    
Ответить на тему

Текущее время: Сегодня 15:42

Часовой пояс: GMT + 7



Вы не можете начинать темы
Вы не можете отвечать на сообщения
Вы не можете редактировать свои сообщения
Вы не можете удалять свои сообщения
Вы не можете голосовать в опросах
Вы не можете прикреплять файлы к сообщениям
Вы можете скачивать файлы


Conflict between Trade Unions and Management | Black Dandy - Mode als politisches Statement | Construire un couple conscient