(3rd Wave Ska / SkaPunk) Mustard Plug - 4 albums - 1997 - 2007, FLAC (tracks+.cue), lossless

Ответить на тему
Статистика раздачи [Обновить пиров]
Размер:  1016 MB   |    Зарегистрирован:  1 год 3 месяца   |    Скачан:  0 раз

Полного источника не было: Никогда

 
   
 
 
 
Автор Сообщение

islamvillage.com

Создавать темы 09-Окт-2017 18:51

[Цитировать]

Mustard Plug - 4 albums- -Жанр: 3rd Wave Ska / Ska Punk Год выхода диска: 1997 - 2007 Страна: USA Аудио кодек: FLAC Тип рипа: tracks+.cue Битрейт аудио: lossless Продолжительность: 02:13:01-

1997 - Evildoers Beware

01. Box
02. Suburban Homesick Blues
03. Never Be
04. You
05. Mendoza
06. Go
07. Jerry
08. Not Again
09. Miss Michigan
10. Sadie May
11. Dressed Up
12. Beer (Song)

1999 - Pray for Mojo

01. Send You Back
02. Not Giving In
03. Someday, Right Now
04. Everything Girl
05. Away From Here
06. Throw A Bomb
07. Lolita
08. Mend Your Ways
09. So Far To Go
10. Time Will Come
11. Yesterday
12. We're Gunna Take On The World

2002 - Yellow #5

01. Not Enough
02. Get It Goin' On
03. The Park
04. You Want It, We Got It
05. Already Gone
06. Safe
07. Just A Minute
08. No One But Myself
09. Your Secret
10. In Your Face
11. Sorry Now

2007 - In Black And White

01. Who Benefits?
02. Over The Edge
03. Hit Me! Hit Me!
04. Time To Wake Up
05. Something New
06. You Can't Go Back
07. Life Is Too Short
08. Copasetic
09. On And On
10. Tell Me
11. Puddle Of Blood
12. Real Rat Bastard
13. What You Say
Доп. информация:-

EAC1997 - Evildoers Beware

X Lossless Decoder version 20090217 (101.1)XLD extraction logfile from 2009-03-04 21:06:18 -0500Mustard Plug / Evildoers Beware!Used drive : OPTIARC DVD RW AD-5630A (revision 1AHN)Use cdparanoia mode : YES (CDParanoia III 10.2 engine)Disable audio cache : OK for the drive with cache less than 2750KBMake use of C2 pointers : NORead offset correction : 48Max retry count : 100TOC of the extracted CD Track | Start | Length | Start sector | End sector --------------------------------------------------------- 1 | 00:00:00 | 03:23:60 | 0 | 15284 2 | 03:23:60 | 03:05:60 | 15285 | 29219 3 | 06:29:45 | 02:46:02 | 29220 | 41671 4 | 09:15:47 | 03:59:35 | 41672 | 59631 5 | 13:15:07 | 02:49:43 | 59632 | 72349 6 | 16:04:50 | 02:09:50 | 72350 | 82074 7 | 18:14:25 | 03:51:50 | 82075 | 99449 8 | 22:06:00 | 03:18:67 | 99450 | 114366 9 | 25:24:67 | 02:55:48 | 114367 | 127539 10 | 28:20:40 | 03:01:07 | 127540 | 141121 11 | 31:21:47 | 03:00:58 | 141122 | 154679 12 | 34:22:30 | 03:41:07 | 154680 | 171261List of alternate offset correction values # | Absolute | Relative | Confidence ------------------------------------------ 1 | 840 | 792 | 2Track 01 Filename : /Users/abadulak/Music/Encodes/01 Box.flac /Users/abadulak/Music/Encodes/01 Box.mp3 CRC32 hash (test run) : 18EA7B19 CRC32 hash : 18EA7B19 CRC32 hash (skip zero) : 0F07EC7D AccurateRip signature : 9723F6F4 ->Accurately ripped! (confidence 4) Statistics Read error : 0 Skipped (treated as error) : 0 Edge jitter error (maybe fixed) : 0 Atom jitter error (maybe fixed) : 0 Drift error (maybe fixed) : 0 Dropped bytes error (maybe fixed) : 0 Duplicated bytes error (maybe fixed) : 0 Inconsistency in error sectors : 0Track 02 Filename : /Users/abadulak/Music/Encodes/02 Suburband Homesick Blues.flac /Users/abadulak/Music/Encodes/02 Suburband Homesick Blues.mp3 CRC32 hash (test run) : CF612605 CRC32 hash : CF612605 CRC32 hash (skip zero) : BD1F3095 AccurateRip signature : 0A789958 ->Accurately ripped! (confidence 4) Statistics Read error : 0 Skipped (treated as error) : 0 Edge jitter error (maybe fixed) : 0 Atom jitter error (maybe fixed) : 0 Drift error (maybe fixed) : 0 Dropped bytes error (maybe fixed) : 0 Duplicated bytes error (maybe fixed) : 0 Inconsistency in error sectors : 0Track 03 Filename : /Users/abadulak/Music/Encodes/03 Never Be.flac /Users/abadulak/Music/Encodes/03 Never Be.mp3 CRC32 hash (test run) : 562D3FA1 CRC32 hash : 562D3FA1 CRC32 hash (skip zero) : FB77E094 AccurateRip signature : 4E44008E ->Accurately ripped! (confidence 4) Statistics Read error : 0 Skipped (treated as error) : 0 Edge jitter error (maybe fixed) : 0 Atom jitter error (maybe fixed) : 0 Drift error (maybe fixed) : 0 Dropped bytes error (maybe fixed) : 0 Duplicated bytes error (maybe fixed) : 0 Inconsistency in error sectors : 0Track 04 Filename : /Users/abadulak/Music/Encodes/04 You.flac /Users/abadulak/Music/Encodes/04 You.mp3 CRC32 hash (test run) : 4EF39944 CRC32 hash : 4EF39944 CRC32 hash (skip zero) : F74C07DA AccurateRip signature : 09DCFE52 ->Accurately ripped! (confidence 4) Statistics Read error : 0 Skipped (treated as error) : 0 Edge jitter error (maybe fixed) : 0 Atom jitter error (maybe fixed) : 0 Drift error (maybe fixed) : 0 Dropped bytes error (maybe fixed) : 0 Duplicated bytes error (maybe fixed) : 0 Inconsistency in error sectors : 0Track 05 Filename : /Users/abadulak/Music/Encodes/05 Mendoza.flac /Users/abadulak/Music/Encodes/05 Mendoza.mp3 CRC32 hash (test run) : DBEE15EE CRC32 hash : DBEE15EE CRC32 hash (skip zero) : 3C38E1E7 AccurateRip signature : 45DCE227 ->Accurately ripped! (confidence 4) Statistics Read error : 0 Skipped (treated as error) : 0 Edge jitter error (maybe fixed) : 0 Atom jitter error (maybe fixed) : 0 Drift error (maybe fixed) : 0 Dropped bytes error (maybe fixed) : 0 Duplicated bytes error (maybe fixed) : 0 Inconsistency in error sectors : 0Track 06 Filename : /Users/abadulak/Music/Encodes/06 Go.flac /Users/abadulak/Music/Encodes/06 Go.mp3 CRC32 hash (test run) : A79913A9 CRC32 hash : A79913A9 CRC32 hash (skip zero) : 4F3BCFB5 AccurateRip signature : B8F2282F ->Accurately ripped! (confidence 4) Statistics Read error : 0 Skipped (treated as error) : 0 Edge jitter error (maybe fixed) : 0 Atom jitter error (maybe fixed) : 0 Drift error (maybe fixed) : 0 Dropped bytes error (maybe fixed) : 0 Duplicated bytes error (maybe fixed) : 0 Inconsistency in error sectors : 0Track 07 Filename : /Users/abadulak/Music/Encodes/07 Jerry.flac /Users/abadulak/Music/Encodes/07 Jerry.mp3 CRC32 hash (test run) : 8A6C34A5 CRC32 hash : 8A6C34A5 CRC32 hash (skip zero) : A894DE36 AccurateRip signature : DEDA4523 ->Accurately ripped! (confidence 4) Statistics Read error : 0 Skipped (treated as error) : 0 Edge jitter error (maybe fixed) : 0 Atom jitter error (maybe fixed) : 0 Drift error (maybe fixed) : 0 Dropped bytes error (maybe fixed) : 0 Duplicated bytes error (maybe fixed) : 0 Inconsistency in error sectors : 0Track 08 Filename : /Users/abadulak/Music/Encodes/08 Not Again.flac /Users/abadulak/Music/Encodes/08 Not Again.mp3 CRC32 hash (test run) : 035B6996 CRC32 hash : 035B6996 CRC32 hash (skip zero) : 55F558B7 AccurateRip signature : 9837107D ->Accurately ripped! (confidence 4) Statistics Read error : 0 Skipped (treated as error) : 0 Edge jitter error (maybe fixed) : 0 Atom jitter error (maybe fixed) : 0 Drift error (maybe fixed) : 0 Dropped bytes error (maybe fixed) : 0 Duplicated bytes error (maybe fixed) : 0 Inconsistency in error sectors : 0Track 09 Filename : /Users/abadulak/Music/Encodes/09 Miss Michigan.flac /Users/abadulak/Music/Encodes/09 Miss Michigan.mp3 CRC32 hash (test run) : DD190927 CRC32 hash : DD190927 CRC32 hash (skip zero) : 2F92F489 AccurateRip signature : C1D20830 ->Accurately ripped! (confidence 4) Statistics Read error : 0 Skipped (treated as error) : 0 Edge jitter error (maybe fixed) : 1 Atom jitter error (maybe fixed) : 0 Drift error (maybe fixed) : 0 Dropped bytes error (maybe fixed) : 1 Duplicated bytes error (maybe fixed) : 1 Inconsistency in error sectors : 0Track 10 Filename : /Users/abadulak/Music/Encodes/10 Sadie May.flac /Users/abadulak/Music/Encodes/10 Sadie May.mp3 CRC32 hash (test run) : 7501E499 CRC32 hash : 7501E499 CRC32 hash (skip zero) : E0EB5145 AccurateRip signature : 1ECDE522 ->Accurately ripped! (confidence 4) Statistics Read error : 0 Skipped (treated as error) : 0 Edge jitter error (maybe fixed) : 0 Atom jitter error (maybe fixed) : 0 Drift error (maybe fixed) : 0 Dropped bytes error (maybe fixed) : 0 Duplicated bytes error (maybe fixed) : 0 Inconsistency in error sectors : 0Track 11 Filename : /Users/abadulak/Music/Encodes/11 Dressed Up.flac /Users/abadulak/Music/Encodes/11 Dressed Up.mp3 CRC32 hash (test run) : DAB2AE1B CRC32 hash : DAB2AE1B CRC32 hash (skip zero) : 66E5A4F0 AccurateRip signature : 370D8FB0 ->Accurately ripped! (confidence 4) Statistics Read error : 0 Skipped (treated as error) : 0 Edge jitter error (maybe fixed) : 0 Atom jitter error (maybe fixed) : 0 Drift error (maybe fixed) : 0 Dropped bytes error (maybe fixed) : 0 Duplicated bytes error (maybe fixed) : 0 Inconsistency in error sectors : 0Track 12 Filename : /Users/abadulak/Music/Encodes/12 Beer.flac /Users/abadulak/Music/Encodes/12 Beer.mp3 CRC32 hash (test run) : A40F2FAB CRC32 hash : A40F2FAB CRC32 hash (skip zero) : 4413DC8E AccurateRip signature : F558A399 ->Accurately ripped! (confidence 4) Statistics Read error : 0 Skipped (treated as error) : 0 Edge jitter error (maybe fixed) : 1 Atom jitter error (maybe fixed) : 1 Drift error (maybe fixed) : 0 Dropped bytes error (maybe fixed) : 0 Duplicated bytes error (maybe fixed) : 0 Inconsistency in error sectors : 0No errors occurredEnd of status report

1999 - Pray for Mojo

Exact Audio Copy V0.99 prebeta 4 from 23. January 2008EAC extraction logfile from 10. February 2009, 15:11Mustard Plug / Pray for MojoUsed drive : HL-DT-STDVD-RAM GSA-H55N Adapter: 1 ID: 0Read mode : SecureUtilize accurate stream : YesDefeat audio cache : YesMake use of C2 pointers : NoRead offset correction : 102Overread into Lead-In and Lead-Out : NoFill up missing offset samples with silence : YesDelete leading and trailing silent blocks : NoNull samples used in CRC calculations : YesUsed interface : Native Win32 interface for Win NT & 2000Gap handling : Appended to previous trackUsed output format : User Defined EncoderSelected bitrate : 128 kBit/sQuality : HighAdd ID3 tag : NoCommand line compressor : C:\Archivos de programa\FLAC\flac.exeAdditional command line options : -8 -V -T "artist=%a" -T "title=%t" -T "album=%g" -T "date=%y" -T "tracknumber=%n" -T "genre=%m" %sTOC of the extracted CD Track | Start | Length | Start sector | End sector --------------------------------------------------------- 1 | 0:00.00 | 2:11.72 | 0 | 9896 2 | 2:11.72 | 2:45.65 | 9897 | 22336 3 | 4:57.62 | 3:26.18 | 22337 | 37804 4 | 8:24.05 | 3:07.10 | 37805 | 51839 5 | 11:31.15 | 3:27.22 | 51840 | 67386 6 | 14:58.37 | 2:27.50 | 67387 | 78461 7 | 17:26.12 | 2:52.70 | 78462 | 91431 8 | 20:19.07 | 2:19.23 | 91432 | 101879 9 | 22:38.30 | 2:11.15 | 101880 | 111719 10 | 24:49.45 | 2:58.40 | 111720 | 125109 11 | 27:48.10 | 3:11.35 | 125110 | 139469 12 | 30:59.45 | 2:20.52 | 139470 | 150021Track 1 Filename E:\Musika\EAC EXTRACTIONS\01 - Send You Back.flac Pre-gap length 0:00:02.00 Peak level 98.8 % Track quality 100.0 % Test CRC A44C77DE Copy CRC A44C77DE Cannot be verified as accurate (confidence 6) [CB0C57BF], AccurateRip returned [65912D1C] Copy OKTrack 2 Filename E:\Musika\EAC EXTRACTIONS\02 - Not Giving In.flac Peak level 98.8 % Track quality 100.0 % Test CRC 1237F9EF Copy CRC 1237F9EF Cannot be verified as accurate (confidence 5) [18DE2B31], AccurateRip returned [6EFFA27E] Copy OKTrack 3 Filename E:\Musika\EAC EXTRACTIONS\03 - Someday, Right Now.flac Peak level 96.6 % Track quality 100.0 % Test CRC 9F408C97 Copy CRC 9F408C97 Cannot be verified as accurate (confidence 5) [2D35F153], AccurateRip returned [26B8222E] Copy OKTrack 4 Filename E:\Musika\EAC EXTRACTIONS\04 - Everything Girl.flac Peak level 98.8 % Track quality 100.0 % Test CRC 82CA2528 Copy CRC 82CA2528 Cannot be verified as accurate (confidence 6) [B5721E69], AccurateRip returned [D1EED776] Copy OKTrack 5 Filename E:\Musika\EAC EXTRACTIONS\05 - Away From Here.flac Peak level 95.5 % Track quality 100.0 % Test CRC 5430F398 Copy CRC 5430F398 Cannot be verified as accurate (confidence 6) [3F6A14CB], AccurateRip returned [E43BEF7C] Copy OKTrack 6 Filename E:\Musika\EAC EXTRACTIONS\06 - Throw a Bomb.flac Peak level 98.8 % Track quality 100.0 % Test CRC E52E172F Copy CRC E52E172F Cannot be verified as accurate (confidence 5) [F2AB6885], AccurateRip returned [EACBB87F] Copy OKTrack 7 Filename E:\Musika\EAC EXTRACTIONS\07 - Lolita.flac Peak level 95.5 % Track quality 100.0 % Test CRC CA7E8D99 Copy CRC CA7E8D99 Cannot be verified as accurate (confidence 6) [E84C3929], AccurateRip returned [1FAB7EDE] Copy OKTrack 8 Filename E:\Musika\EAC EXTRACTIONS\08 - Mend Your Ways.flac Peak level 98.8 % Track quality 100.0 % Test CRC 8E101197 Copy CRC 8E101197 Cannot be verified as accurate (confidence 6) [490E2928], AccurateRip returned [D3B47D1E] Copy OKTrack 9 Filename E:\Musika\EAC EXTRACTIONS\09 - So Far to Go.flac Peak level 98.8 % Track quality 100.0 % Test CRC E85030A1 Copy CRC E85030A1 Cannot be verified as accurate (confidence 6) [2899B4EB], AccurateRip returned [DE068FB4] Copy OKTrack 10 Filename E:\Musika\EAC EXTRACTIONS\10 - Time Will Come.flac Peak level 95.5 % Track quality 100.0 % Test CRC BC991D18 Copy CRC BC991D18 Cannot be verified as accurate (confidence 6) [0E6B670B], AccurateRip returned [BB09A444] Copy OKTrack 11 Filename E:\Musika\EAC EXTRACTIONS\11 - Yesterday.flac Peak level 95.5 % Track quality 100.0 % Test CRC 50C25A18 Copy CRC 50C25A18 Cannot be verified as accurate (confidence 5) [85C6F033], AccurateRip returned [0C6FA40B] Copy OKTrack 12 Filename E:\Musika\EAC EXTRACTIONS\12 - We're Gunna Take on the World.flac Peak level 98.8 % Track quality 100.0 % Test CRC 20DAFCD8 Copy CRC 20DAFCD8 Cannot be verified as accurate (confidence 6) [95B51B23], AccurateRip returned [E6CBEA0D] Copy OKAll tracks accurately rippedNo errors occurredEnd of status report

2002 - Yellow #5

Exact Audio Copy V0.99 prebeta 3 from 28. July 2007EAC extraction logfile from 9. May 2008, 18:40Mustard Plug / Yellow #5Used drive : TSSTcorpCD/DVDW TS-L532R Adapter: 1 ID: 0Read mode : SecureUtilize accurate stream : YesDefeat audio cache : YesMake use of C2 pointers : NoRead offset correction : 116Overread into Lead-In and Lead-Out : NoFill up missing offset samples with silence : YesDelete leading and trailing silent blocks : NoNull samples used in CRC calculations : NoUsed interface : Native Win32 interface for Win NT & 2000Gap handling : Appended to previous trackUsed output format : User Defined EncoderSelected bitrate : 1024 kBit/sQuality : HighAdd ID3 tag : NoCommand line compressor : C:\Program Files\FLAC\flac.exeAdditional command line options : -4 -T "artist=%a" -T "title=%t" -T "album=%g" -T "date=%y" -T "tracknumber=%n" -T "genre=%m" %sTOC of the extracted CD Track | Start | Length | Start sector | End sector --------------------------------------------------------- 1 | 0:00.00 | 2:45.68 | 0 | 12442 2 | 2:45.68 | 2:25.40 | 12443 | 23357 3 | 5:11.33 | 2:40.08 | 23358 | 35365 4 | 7:51.41 | 2:28.57 | 35366 | 46522 5 | 10:20.23 | 3:13.50 | 46523 | 61047 6 | 13:33.73 | 2:30.42 | 61048 | 72339 7 | 16:04.40 | 2:55.25 | 72340 | 85489 8 | 18:59.65 | 2:43.30 | 85490 | 97744 9 | 21:43.20 | 2:36.26 | 97745 | 109470 10 | 24:19.46 | 2:15.73 | 109471 | 119668 11 | 26:35.44 | 2:20.70 | 119669 | 130238Track 1 Filename C:\Documents and Settings\Owner\Desktop\Mustard Plug Flac\01 Not Enough.flac Pre-gap length 0:00:02.00 Peak level 96.1 % Track quality 100.0 % Test CRC 53B7813B Copy CRC 53B7813B Accurately ripped (confidence 2) [1BA0275F] Copy OKTrack 2 Filename C:\Documents and Settings\Owner\Desktop\Mustard Plug Flac\02 Get It Goin' On.flac Peak level 96.6 % Track quality 100.0 % Test CRC ECD5D0B1 Copy CRC ECD5D0B1 Accurately ripped (confidence 2) [7E319517] Copy OKTrack 3 Filename C:\Documents and Settings\Owner\Desktop\Mustard Plug Flac\03 The Park.flac Peak level 97.4 % Track quality 100.0 % Test CRC 24785889 Copy CRC 24785889 Accurately ripped (confidence 2) [5F2D89DB] Copy OKTrack 4 Filename C:\Documents and Settings\Owner\Desktop\Mustard Plug Flac\04 You Want It, We Got It.flac Peak level 96.9 % Track quality 99.9 % Test CRC 94FD6EE1 Copy CRC 94FD6EE1 Accurately ripped (confidence 2) [F685F583] Copy OKTrack 5 Filename C:\Documents and Settings\Owner\Desktop\Mustard Plug Flac\05 Already Gone.flac Peak level 97.3 % Track quality 100.0 % Test CRC E9555968 Copy CRC E9555968 Accurately ripped (confidence 2) [1A4BECDF] Copy OKTrack 6 Filename C:\Documents and Settings\Owner\Desktop\Mustard Plug Flac\06 Safe.flac Peak level 98.1 % Track quality 100.0 % Test CRC D78DDF15 Copy CRC D78DDF15 Accurately ripped (confidence 2) [B7813643] Copy OKTrack 7 Filename C:\Documents and Settings\Owner\Desktop\Mustard Plug Flac\07 Just A Minute.flac Peak level 96.5 % Track quality 99.9 % Test CRC 83475E33 Copy CRC 83475E33 Accurately ripped (confidence 2) [DF808BA7] Copy OKTrack 8 Filename C:\Documents and Settings\Owner\Desktop\Mustard Plug Flac\08 No One But Myself.flac Peak level 97.1 % Track quality 100.0 % Test CRC 67EA6F24 Copy CRC 67EA6F24 Accurately ripped (confidence 2) [C49F1A2C] Copy OKTrack 9 Filename C:\Documents and Settings\Owner\Desktop\Mustard Plug Flac\09 Your Secret.flac Peak level 97.3 % Track quality 100.0 % Test CRC 4D4A10AD Copy CRC 4D4A10AD Accurately ripped (confidence 2) [44B54546] Copy OKTrack 10 Filename C:\Documents and Settings\Owner\Desktop\Mustard Plug Flac\10 In Your Face.flac Peak level 97.7 % Track quality 100.0 % Test CRC 49314DE7 Copy CRC 49314DE7 Accurately ripped (confidence 2) [420531A2] Copy OKTrack 11 Filename C:\Documents and Settings\Owner\Desktop\Mustard Plug Flac\11 Sorry Now.flac Peak level 97.3 % Track quality 100.0 % Test CRC 9CC19F70 Copy CRC 9CC19F70 Accurately ripped (confidence 2) [9FCCB813] Copy OKAll tracks accurately rippedNo errors occurredEnd of status report

2007 - In Black And White

X Lossless Decoder version 20090217 (101.1)XLD extraction logfile from 2009-02-23 18:18:25 -0500Mustard Plug / In Black And WhiteUsed drive : MATSHITA DVD-R UJ-857 (revision HAEA)Use cdparanoia mode : YES (CDParanoia III 10.2 engine)Disable audio cache : OK for the drive with cache less than 2750KBMake use of C2 pointers : NORead offset correction : 102Max retry count : 100TOC of the extracted CD Track | Start | Length | Start sector | End sector --------------------------------------------------------- 1 | 00:00:00 | 02:46:70 | 0 | 12519 2 | 02:46:70 | 02:19:65 | 12520 | 23009 3 | 05:06:60 | 02:09:15 | 23010 | 32699 4 | 07:16:00 | 03:02:07 | 32700 | 46356 5 | 10:18:07 | 01:46:70 | 46357 | 54376 6 | 12:05:02 | 00:47:40 | 54377 | 57941 7 | 12:52:42 | 02:46:43 | 57942 | 70434 8 | 15:39:10 | 02:32:35 | 70435 | 81869 9 | 18:11:45 | 02:17:72 | 81870 | 92216 10 | 20:29:42 | 01:56:40 | 92217 | 100956 11 | 22:26:07 | 03:45:45 | 100957 | 117876 12 | 26:11:52 | 03:16:13 | 117877 | 132589 13 | 29:27:65 | 03:13:52 | 132590 | 147116Track 01 Filename : /Users/MJ/Desktop/01 Mustard Plug - Who Benefits?.flac CRC32 hash (test run) : 3188B746 CRC32 hash : 3188B746 CRC32 hash (skip zero) : 689BD6E6 AccurateRip signature : E0D6F373 ->Accurately ripped! (confidence 3) Statistics Read error : 0 Skipped (treated as error) : 0 Edge jitter error (maybe fixed) : 0 Atom jitter error (maybe fixed) : 0 Drift error (maybe fixed) : 0 Dropped bytes error (maybe fixed) : 0 Duplicated bytes error (maybe fixed) : 0 Inconsistency in error sectors : 0Track 02 Filename : /Users/MJ/Desktop/02 Mustard Plug - Over The Edge.flac CRC32 hash (test run) : 005C432A CRC32 hash : 005C432A CRC32 hash (skip zero) : BF3630F1 AccurateRip signature : 3A17DE8B ->Accurately ripped! (confidence 3) Statistics Read error : 0 Skipped (treated as error) : 0 Edge jitter error (maybe fixed) : 0 Atom jitter error (maybe fixed) : 0 Drift error (maybe fixed) : 0 Dropped bytes error (maybe fixed) : 0 Duplicated bytes error (maybe fixed) : 0 Inconsistency in error sectors : 0Track 03 Filename : /Users/MJ/Desktop/03 Mustard Plug - Hit Me! Hit Me!.flac CRC32 hash (test run) : B7DA87BD CRC32 hash : B7DA87BD CRC32 hash (skip zero) : 2D73B650 AccurateRip signature : 2A8A3F92 ->Accurately ripped! (confidence 3) Statistics Read error : 0 Skipped (treated as error) : 0 Edge jitter error (maybe fixed) : 0 Atom jitter error (maybe fixed) : 0 Drift error (maybe fixed) : 0 Dropped bytes error (maybe fixed) : 0 Duplicated bytes error (maybe fixed) : 0 Inconsistency in error sectors : 0Track 04 Filename : /Users/MJ/Desktop/04 Mustard Plug - Time To Wake Up.flac CRC32 hash (test run) : 2D84AB60 CRC32 hash : 2D84AB60 CRC32 hash (skip zero) : A93D7E32 AccurateRip signature : AB91C1A4 ->Accurately ripped! (confidence 3) Statistics Read error : 0 Skipped (treated as error) : 0 Edge jitter error (maybe fixed) : 0 Atom jitter error (maybe fixed) : 0 Drift error (maybe fixed) : 0 Dropped bytes error (maybe fixed) : 0 Duplicated bytes error (maybe fixed) : 0 Inconsistency in error sectors : 0Track 05 Filename : /Users/MJ/Desktop/05 Mustard Plug - Something New.flac CRC32 hash (test run) : B271062A CRC32 hash : B271062A CRC32 hash (skip zero) : 88479F1F AccurateRip signature : 1D9185D9 ->Accurately ripped! (confidence 3) Statistics Read error : 0 Skipped (treated as error) : 0 Edge jitter error (maybe fixed) : 0 Atom jitter error (maybe fixed) : 0 Drift error (maybe fixed) : 0 Dropped bytes error (maybe fixed) : 0 Duplicated bytes error (maybe fixed) : 0 Inconsistency in error sectors : 0Track 06 Filename : /Users/MJ/Desktop/06 Mustard Plug - You Can't Go Back.flac CRC32 hash (test run) : 39079C95 CRC32 hash : 39079C95 CRC32 hash (skip zero) : 6EBCE440 AccurateRip signature : 9063F386 ->Accurately ripped! (confidence 3) Statistics Read error : 0 Skipped (treated as error) : 0 Edge jitter error (maybe fixed) : 0 Atom jitter error (maybe fixed) : 0 Drift error (maybe fixed) : 0 Dropped bytes error (maybe fixed) : 0 Duplicated bytes error (maybe fixed) : 0 Inconsistency in error sectors : 0Track 07 Filename : /Users/MJ/Desktop/07 Mustard Plug - Life Is Too Short.flac CRC32 hash (test run) : 3BFF58AB CRC32 hash : 3BFF58AB CRC32 hash (skip zero) : 110F49B5 AccurateRip signature : 987B501D ->Accurately ripped! (confidence 3) Statistics Read error : 0 Skipped (treated as error) : 0 Edge jitter error (maybe fixed) : 0 Atom jitter error (maybe fixed) : 0 Drift error (maybe fixed) : 0 Dropped bytes error (maybe fixed) : 0 Duplicated bytes error (maybe fixed) : 0 Inconsistency in error sectors : 0Track 08 Filename : /Users/MJ/Desktop/08 Mustard Plug - Copasetic.flac CRC32 hash (test run) : CBA29D76 CRC32 hash : CBA29D76 CRC32 hash (skip zero) : D5A6F6F0 AccurateRip signature : BDC997AF ->Accurately ripped! (confidence 3) Statistics Read error : 0 Skipped (treated as error) : 0 Edge jitter error (maybe fixed) : 0 Atom jitter error (maybe fixed) : 0 Drift error (maybe fixed) : 0 Dropped bytes error (maybe fixed) : 0 Duplicated bytes error (maybe fixed) : 0 Inconsistency in error sectors : 0Track 09 Filename : /Users/MJ/Desktop/09 Mustard Plug - On And On.flac CRC32 hash (test run) : 9D5DFCA2 CRC32 hash : 9D5DFCA2 CRC32 hash (skip zero) : A05BC084 AccurateRip signature : A37A12DC ->Accurately ripped! (confidence 3) Statistics Read error : 0 Skipped (treated as error) : 0 Edge jitter error (maybe fixed) : 0 Atom jitter error (maybe fixed) : 0 Drift error (maybe fixed) : 0 Dropped bytes error (maybe fixed) : 0 Duplicated bytes error (maybe fixed) : 0 Inconsistency in error sectors : 0Track 10 Filename : /Users/MJ/Desktop/10 Mustard Plug - Tell Me.flac CRC32 hash (test run) : 84B99FB8 CRC32 hash : 84B99FB8 CRC32 hash (skip zero) : CF65AAA7 AccurateRip signature : E1DD372C ->Accurately ripped! (confidence 3) Statistics Read error : 0 Skipped (treated as error) : 0 Edge jitter error (maybe fixed) : 0 Atom jitter error (maybe fixed) : 0 Drift error (maybe fixed) : 0 Dropped bytes error (maybe fixed) : 0 Duplicated bytes error (maybe fixed) : 0 Inconsistency in error sectors : 0Track 11 Filename : /Users/MJ/Desktop/11 Mustard Plug - Puddle of Blood.flac CRC32 hash (test run) : D1FC43B5 CRC32 hash : D1FC43B5 CRC32 hash (skip zero) : 127549FD AccurateRip signature : A68E6B86 ->Accurately ripped! (confidence 3) Statistics Read error : 0 Skipped (treated as error) : 0 Edge jitter error (maybe fixed) : 0 Atom jitter error (maybe fixed) : 0 Drift error (maybe fixed) : 0 Dropped bytes error (maybe fixed) : 0 Duplicated bytes error (maybe fixed) : 0 Inconsistency in error sectors : 0Track 12 Filename : /Users/MJ/Desktop/12 Mustard Plug - Real Rat Bastard.flac CRC32 hash (test run) : 89B0F432 CRC32 hash : 89B0F432 CRC32 hash (skip zero) : E656007E AccurateRip signature : 002B322B ->Accurately ripped! (confidence 3) Statistics Read error : 0 Skipped (treated as error) : 0 Edge jitter error (maybe fixed) : 0 Atom jitter error (maybe fixed) : 0 Drift error (maybe fixed) : 0 Dropped bytes error (maybe fixed) : 0 Duplicated bytes error (maybe fixed) : 0 Inconsistency in error sectors : 0Track 13 Filename : /Users/MJ/Desktop/13 Mustard Plug - What You Say.flac CRC32 hash (test run) : 26ED7D1A CRC32 hash : 26ED7D1A CRC32 hash (skip zero) : D4C459AC AccurateRip signature : 25ADB442 ->Accurately ripped! (confidence 3) Statistics Read error : 0 Skipped (treated as error) : 0 Edge jitter error (maybe fixed) : 0 Atom jitter error (maybe fixed) : 0 Drift error (maybe fixed) : 0 Dropped bytes error (maybe fixed) : 0 Duplicated bytes error (maybe fixed) : 0 Inconsistency in error sectors : 0No errors occurredEnd of status report

Состав:

  • Дейв Кирчгесснер (вокалист)
  • Брендон Дженисон (трубач)
  • Джим Хофер (тромбонист)
  • Нейт Кон (барабанщик)
  • Колин Клайв (гитарист/вокалист)
  • Рик Джонсон (басист)

О Группе:

Mustard Plug is a third wave ska band from Grand Rapids, Michigan. Their songs usually include raspy vocals, fast singing, sing-along choruses, an upstroke guitar technique, distorted guitars, power chords, walking basslines, 4/4 drumming, and catchy horn parts.
Formed in 1991, the band's original members were Dave Kirchgessner, Mike McKendrick, Colin Clive, and Anthony Vilchez. Currently the band consists of Dave (Vocals), Brandon Jenison (trumpet), Jim Hofer (trombone), Nate Cohn (drums), Colin Clive (guitar/vocals), and Rick Johnson (bass). The band has regularly toured throughout the United States, Europe, Japan, and South America. They have toured with the Warped Tour twice, and participated in the Ska Against Racism Tour. Brandon Jenison stated in an interview that their band name originated by:
Цитата: писал(а):

a guy in the early stages of the band was making a sandwich and that crusty stuff that forms on the mustard bottle when you put it in the fridge without wiping it off first gave him an interesting idea for a name. It was up against some pretty stiff competition, but be glad that one got picked and we didn't call ourselves the "shrinky dinks" or the "wanker daddys."
-


[islamvillage.com]_t_1628446.torrent
Торрент: Зарегистрирован ·  [ 2017-10-09 18:48 ] ·  1dfc0febc1606fb7d2abac389409cbadae7b0df4

26 KB

Статус: проверено
Скачан: 0 раз
Размер: 1016 MB
Оценка: 
(Голосов: 0)
Сказали спасибо: 0  Спасибо
Похожие темы
[Профиль]    [ЛС]
Показать сообщения:    
Ответить на тему

Текущее время: Сегодня 15:14

Часовой пояс: GMT + 7



Вы не можете начинать темы
Вы не можете отвечать на сообщения
Вы не можете редактировать свои сообщения
Вы не можете удалять свои сообщения
Вы не можете голосовать в опросах
Вы не можете прикреплять файлы к сообщениям
Вы можете скачивать файлы


Coran Calligraphie Islamique Musulman Arabe Bismillah Wall Sticker Vinyle Dcor À La Maison | Crest of the Stars (13) | Makisi's Neighbours