(SkaPunk) Animal Chin - The Ins and Outs of Terrorism! (EP) - 1996, FLAC (tracks+.cue), lossless

Ответить на тему
Статистика раздачи [Обновить пиров]
Размер:  132 MB   |    Зарегистрирован:  1 год 3 месяца   |    Скачан:  0 раз

Полного источника не было: Никогда

 
   
 
 
 
Автор Сообщение

islamvillage.com

Создавать темы 09-Окт-2017 18:51

[Цитировать]

Animal Chin - The Ins and Outs of Terrorism! (EP)- Жанр: Ska Punk
Год выхода диска: 1996
Производитель диска: USA
Аудио кодек: FLAC
Тип рипа: tracks+.cue
Битрейт аудио: lossless
Продолжительность: 00:19:34
Трэклист:
1. Seven
2. Heir to the x-fortune
3. Have you seen him?
4. Time out
5. The top contender
6. Not like you
-

EAC

Exact Audio Copy V0.99 prebeta 3 from 28. July 2007
EAC extraction logfile from 7. January 2008, 17:02
Animal Chin / The Ins and Outs of TERRORISM!
Used drive : SONY DVD RW DRU-810A Adapter: 4 ID: 0
Read mode : SecureUtilize accurate stream : YesDefeat audio cache : YesMake use of C2 pointers : No
Read offset correction : 618Overread into Lead-In and Lead-Out : NoFill up missing offset samples with silence : YesDelete leading and trailing silent blocks : NoNull samples used in CRC calculations : YesUsed interface : Installed external ASPI interfaceGap handling : Appended to previous track
Used output format : User Defined EncoderSelected bitrate : 128 kBit/sQuality : HighAdd ID3 tag : NoCommand line compressor : F:\Program Files\Exact Audio Copy\flac.exeAdditional command line options : -8 -A tukey(0.25) -A gauss(0.1875) -b 4096 -V -T "artist=%a" -T "title=%t" -T "album=%g" -T "date=%y" -T "tracknumber=%n" -T "genre=%m" %s --sector-align
TOC of the extracted CD
Track | Start | Length | Start sector | End sector --------------------------------------------------------- 1 | 0:00.00 | 1:53.25 | 0 | 8499 2 | 1:53.25 | 3:39.40 | 8500 | 24964 3 | 5:32.65 | 3:02.17 | 24965 | 38631 4 | 8:35.07 | 3:41.05 | 38632 | 55211 5 | 12:16.12 | 4:38.20 | 55212 | 76081 6 | 16:54.32 | 2:39.63 | 76082 | 88069
Track 1
Filename C:\Torrent Uploads\Animal Chin - The Ins and Outs of Terrorism\01 - Seven.wav
Pre-gap length 0:00:02.00
Peak level 98.8 % Track quality 100.0 % Test CRC 4BE2587B Copy CRC 4BE2587B Track not present in AccurateRip database Copy OK
Track 2
Filename C:\Torrent Uploads\Animal Chin - The Ins and Outs of Terrorism\02 - Heir to the x-fortune.wav
Pre-gap length 0:00:00.73
Peak level 98.8 % Track quality 100.0 % Test CRC EF002293 Copy CRC EF002293 Track not present in AccurateRip database Copy OK
Track 3
Filename C:\Torrent Uploads\Animal Chin - The Ins and Outs of Terrorism\03 - Have you seen him .wav
Pre-gap length 0:00:00.77
Peak level 98.8 % Track quality 100.0 % Test CRC 8A3A6CBB Copy CRC 8A3A6CBB Track not present in AccurateRip database Copy OK
Track 4
Filename C:\Torrent Uploads\Animal Chin - The Ins and Outs of Terrorism\04 - Time out.wav
Pre-gap length 0:00:00.73
Peak level 98.8 % Track quality 100.0 % Test CRC DB50F23F Copy CRC DB50F23F Track not present in AccurateRip database Copy OK
Track 5
Filename C:\Torrent Uploads\Animal Chin - The Ins and Outs of Terrorism\05 - The top contender.wav
Pre-gap length 0:00:00.69
Peak level 98.8 % Track quality 99.9 % Test CRC 122235D6 Copy CRC 122235D6 Track not present in AccurateRip database Copy OK
Track 6
Filename C:\Torrent Uploads\Animal Chin - The Ins and Outs of Terrorism\06 - Not like you.wav
Pre-gap length 0:00:00.73
Peak level 98.8 % Track quality 100.0 % Test CRC 40B143DC Copy CRC 40B143DC Track not present in AccurateRip database Copy OK
None of the tracks are present in the AccurateRip database
No errors occurred
End of status report
-


[islamvillage.com]_t_1720523.torrent
Торрент: Зарегистрирован ·  [ 2017-10-09 18:48 ] ·  92085300d46499aa1d67486d00d491da87f8ca95

12 KB

Статус: проверено
Скачан: 0 раз
Размер: 132 MB
Оценка: 
(Голосов: 0)
Сказали спасибо: 0  Спасибо
Похожие темы
[Профиль]    [ЛС]
Показать сообщения:    
Ответить на тему

Текущее время: Сегодня 14:47

Часовой пояс: GMT + 7



Вы не можете начинать темы
Вы не можете отвечать на сообщения
Вы не можете редактировать свои сообщения
Вы не можете удалять свои сообщения
Вы не можете голосовать в опросах
Вы не можете прикреплять файлы к сообщениям
Вы можете скачивать файлы


Bastelmaterialien | Helena Bonham Carter | Ashley Bell