(Reggae, Pop, Ska) [CD] Suggs - The Very Best Of Suggs - 2017, FLAC (image+.cue), lossless

Ответить на тему
Статистика раздачи [Обновить пиров]
Размер:  397 MB   |    Зарегистрирован:  1 год 2 месяца   |    Скачан:  0 раз
Сидеров:  36  [  0 KB/s  ]   Личеров:  12  [  0 KB/s  ]   Подробная статистика скачивающих
 
   
 
 
 
Автор Сообщение

islamvillage.com

Создавать темы 24-Окт-2017 03:06

[Цитировать]

Suggs / The Very Best Of Suggs
Жанр: Reggae, Pop, Ska
Носитель: CD
Страна-производитель диска (релиза): EU
Год издания: 2017
Издатель (лейбл): Rhino UK
Номер по каталогу: 01902957786731
Аудиокодек: FLAC (*.flac)
Тип рипа: image+.cue
Битрейт аудио: lossless
Продолжительность: London
Источник (релизер): 00:56:54
Наличие сканов в содержимом раздачи: да
Треклист:
01. Cecilia (Feat. Louchie Lou & Michie One) ©1995
02. Jack O The Green ©2003
03. Off On Holiday ©1995
04. I'm Only Sleeping ©1995
05. Alcohol ©1995
06. I Am ©1998
07. Camden Town ©1995
08. Same Again ©1998
09. The Tune ©1995
10. So Tired ©1998
11. Oranges And Lemons Again ©2001
12. No More Alcohol ©1996
13. Blue Day (Featuring Chelsea Team) ©1997
14. Feel Good ©1995
15. Alright ©1995

Лог создания рипа

Exact Audio Copy V1.3 from 2. September 2016
EAC extraction logfile from 22. October 2017, 12:30
Suggs / Very Best Of
Used drive : ATAPI iHAS122 C Adapter: 1 ID: 0
Read mode : SecureUtilize accurate stream : YesDefeat audio cache : YesMake use of C2 pointers : No
Read offset correction : 6Overread into Lead-In and Lead-Out : NoFill up missing offset samples with silence : YesDelete leading and trailing silent blocks : NoNull samples used in CRC calculations : YesUsed interface : Native Win32 interface for Win NT & 2000
Used output format : Internal WAV RoutinesSample format : 44.100 Hz; 16 Bit; Stereo
TOC of the extracted CD
Track | Start | Length | Start sector | End sector --------------------------------------------------------- 1 | 0:00.00 | 3:01.28 | 0 | 13602 2 | 3:01.28 | 3:36.30 | 13603 | 29832 3 | 6:37.58 | 4:01.33 | 29833 | 47940 4 | 10:39.16 | 4:12.22 | 47941 | 66862 5 | 14:51.38 | 4:25.31 | 66863 | 86768 6 | 19:16.69 | 4:05.33 | 86769 | 105176 7 | 23:22.27 | 3:51.64 | 105177 | 122565 8 | 27:14.16 | 3:40.53 | 122566 | 139118 9 | 30:54.69 | 4:32.02 | 139119 | 159520 10 | 35:26.71 | 4:33.42 | 159521 | 180037 11 | 40:00.38 | 3:36.51 | 180038 | 196288 12 | 43:37.14 | 2:43.73 | 196289 | 208586 13 | 46:21.12 | 3:38.29 | 208587 | 224965 14 | 49:59.41 | 3:14.19 | 224966 | 239534 15 | 53:13.60 | 3:41.00 | 239535 | 256109
Range status and errors
Selected range
Filename C:\Users\London\Desktop\Suggs - Very Best Of.wav
Peak level 98.8 % Extraction speed 8.4 X Range quality 100.0 % Test CRC D3D389A0 Copy CRC D3D389A0 Copy OK
No errors occurred
AccurateRip summary
Track 1 accurately ripped (confidence 1) [D2E1A807] (AR v2)Track 2 accurately ripped (confidence 1) [9364BB46] (AR v2)Track 3 accurately ripped (confidence 1) [014EC7EE] (AR v2)Track 4 accurately ripped (confidence 1) [C50D38B5] (AR v2)Track 5 accurately ripped (confidence 1) [374C6C9F] (AR v2)Track 6 accurately ripped (confidence 1) [C5646C61] (AR v2)Track 7 accurately ripped (confidence 1) [4C612301] (AR v2)Track 8 accurately ripped (confidence 1) [15A3C310] (AR v2)Track 9 accurately ripped (confidence 1) [593C24E8] (AR v2)Track 10 accurately ripped (confidence 1) [1E166DFD] (AR v2)Track 11 accurately ripped (confidence 1) [18733F4B] (AR v2)Track 12 accurately ripped (confidence 1) [6467F6C7] (AR v2)Track 13 accurately ripped (confidence 1) [94E58305] (AR v2)Track 14 accurately ripped (confidence 1) [4EE13985] (AR v2)Track 15 accurately ripped (confidence 1) [CC8C5DED] (AR v2)
All tracks accurately ripped
End of status report
---- CUETools DB Plugin V2.1.6
[CTDB TOCID: vcjWGkzgrKaCMHCWFysw42JXjSE-] foundSubmit result: vcjWGkzgrKaCMHCWFysw42JXjSE- has been confirmedTrack | CTDB Status 1 | (1/1) Accurately ripped 2 | (1/1) Accurately ripped 3 | (1/1) Accurately ripped 4 | (1/1) Accurately ripped 5 | (1/1) Accurately ripped 6 | (1/1) Accurately ripped 7 | (1/1) Accurately ripped 8 | (1/1) Accurately ripped 9 | (1/1) Accurately ripped 10 | (1/1) Accurately ripped 11 | (1/1) Accurately ripped 12 | (1/1) Accurately ripped 13 | (1/1) Accurately ripped 14 | (1/1) Accurately ripped 15 | (1/1) Accurately ripped
==== Log checksum CF79B3FF810D534C6DE27E4F2C12B5E605D0DCD24E8AD3BE0C52D8D0DB422DB5 ====

Содержание индексной карты (.CUE)

REM GENRE RockREM DATE 2017REM DISCID CF0D560FREM COMMENT ExactAudioCopy v1.3PERFORMER "Suggs"TITLE "Very Best Of"FILE "Suggs - Very Best Of.flac" WAVE TRACK 01 AUDIO TITLE "Cecilia (featuring Louchie Lou and Michie One)" INDEX 01 00:00:00 TRACK 02 AUDIO TITLE "Jack O The Green (Jools Holland and Suggs)" INDEX 01 03:01:28 TRACK 03 AUDIO TITLE "Off On Holiday" INDEX 01 06:37:58 TRACK 04 AUDIO TITLE "I'm Only Sleeping" INDEX 01 10:39:16 TRACK 05 AUDIO TITLE "Alcohol" INDEX 01 14:51:38 TRACK 06 AUDIO TITLE "I Am" INDEX 01 19:16:69 TRACK 07 AUDIO TITLE "Camden Town" INDEX 01 23:22:27 TRACK 08 AUDIO TITLE "Same Again" INDEX 01 27:14:16 TRACK 09 AUDIO TITLE "The Tune" INDEX 01 30:54:69 TRACK 10 AUDIO TITLE "So Tired" INDEX 01 35:26:71 TRACK 11 AUDIO TITLE "Oranges And Lemons Again" INDEX 01 40:00:38 TRACK 12 AUDIO TITLE "No More Alcohol" INDEX 01 43:37:14 TRACK 13 AUDIO TITLE "Blue Day (featuring Chelsea Team)" INDEX 01 46:21:12 TRACK 14 AUDIO TITLE "I Feel Good" INDEX 01 49:59:41 TRACK 15 AUDIO TITLE "Alright" INDEX 01 53:13:60

DR Log

foobar2000 1.3.13 / Dynamic Range Meter 1.1.1log date: 2017-10-22 13:58:59
--------------------------------------------------------------------------------Analyzed: Suggs / Very Best Of--------------------------------------------------------------------------------
DR Peak RMS Duration Track--------------------------------------------------------------------------------DR8 -0.10 dB -10.06 dB 3:01 01-Cecilia (featuring Louchie Lou and Michie One)DR9 -0.10 dB -11.04 dB 3:36 02-Jack O The Green (Jools Holland and Suggs)DR10 -0.10 dB -11.04 dB 4:01 03-Off On HolidayDR8 -0.10 dB -9.55 dB 4:12 04-I'm Only SleepingDR11 -0.10 dB -12.90 dB 4:25 05-AlcoholDR9 -0.10 dB -10.17 dB 4:05 06-I AmDR10 -0.10 dB -11.34 dB 3:52 07-Camden TownDR9 -0.10 dB -12.02 dB 3:41 08-Same AgainDR9 -0.10 dB -10.71 dB 4:32 09-The TuneDR9 -0.10 dB -10.06 dB 4:34 10-So TiredDR8 -0.41 dB -10.43 dB 3:37 11-Oranges And Lemons AgainDR10 -0.10 dB -11.41 dB 2:44 12-No More AlcoholDR9 -0.10 dB -10.18 dB 3:38 13-Blue Day (featuring Chelsea Team)DR10 -0.10 dB -12.06 dB 3:14 14-I Feel GoodDR11 -0.10 dB -13.04 dB 3:41 15-Alright--------------------------------------------------------------------------------
Number of tracks: 15Official DR value: DR9
Samplerate: 44100 HzChannels: 2Bits per sample: 16Bitrate: 952 kbpsCodec: FLAC================================================================================


[islamvillage.com]_t_5470300.torrent
Торрент: Зарегистрирован ·  [ 2017-10-24 03:06 ] ·  ee9e196884806c770909e8480f9272e77404f64d

16 KB

Статус: проверено
Скачан: 0 раз
Размер: 397 MB
Оценка: 
(Голосов: 0)
Сказали спасибо: 0  Спасибо
Похожие темы
[Профиль]    [ЛС]
Показать сообщения:    
Ответить на тему

Текущее время: Сегодня 14:41

Часовой пояс: GMT + 7



Вы не можете начинать темы
Вы не можете отвечать на сообщения
Вы не можете редактировать свои сообщения
Вы не можете удалять свои сообщения
Вы не можете голосовать в опросах
Вы не можете прикреплять файлы к сообщениям
Вы можете скачивать файлы


April 2013 (4982) | Wishmaster 4: The Prophecy Fulfilled (2002) | ホモと見る冷静とホモホモの間