(Industrial Metal/Experimental) [CD] Godflesh - Post Self - 2017, FLAC (tracks+.cue), lossless

Ответить на тему
Статистика раздачи [Обновить пиров]
Размер:  288 MB   |    Зарегистрирован:  1 год 2 месяца   |    Скачан:  0 раз

Полного источника не было: Никогда

 
   
 
 
 
Автор Сообщение

islamvillage.com

Создавать темы 29-Ноя-2017 19:38

[Цитировать]

Godflesh / Post Self Жанр: Industrial Metal/Experimental
Носитель: CD
Год издания: 2017
Издатель (лейбл): Avalanche Recordings
Номер по каталогу: AREC040
Страна исполнителя (группы): UK
Аудиокодек: FLAC (*.flac)
Тип рипа: tracks+.cue
Битрейт аудио: lossless
Продолжительность: 46:41
Источник (релизер): sockhead
Наличие сканов в содержимом раздачи: нет
Треклист:
01. Post Self (04:28)
02. Parasite (03:40)
03. No Body (03:49)
04. Mirror of Finite Light (04:23)
05. Be God (05:09)
06. The Cyclic End (04:51)
07. Pre Self (05:08)
08. Mortality Sorrow (04:46)
09. In Your Shadow (05:08)
10. The Infinite End (05:16)

Лог создания рипа

X Lossless Decoder version 20170729 (150.3)
XLD extraction logfile from 2017-11-24 19:36:34 -0500
Godflesh / Post Self
Used drive : HL-DT-ST DVDRAM GE24NU40 (revision 1.00)Media type : Pressed CD
Ripper mode : XLD Secure RipperDisable audio cache : OK for the drive with a cache less than 1375KiBMake use of C2 pointers : NORead offset correction : 6Max retry count : 100Gap status : Analyzed, Appended (except HTOA)
TOC of the extracted CD Track | Start | Length | Start sector | End sector --------------------------------------------------------- 1 | 00:00:00 | 04:28:66 | 0 | 20165 2 | 04:28:66 | 03:40:28 | 20166 | 36693 3 | 08:09:19 | 03:49:09 | 36694 | 53877 4 | 11:58:28 | 04:23:14 | 53878 | 73616 5 | 16:21:42 | 05:09:00 | 73617 | 96791 6 | 21:30:42 | 04:51:00 | 96792 | 118616 7 | 26:21:42 | 05:08:29 | 118617 | 141745 8 | 31:29:71 | 04:46:37 | 141746 | 163232 9 | 36:16:33 | 05:08:28 | 163233 | 186360 10 | 41:24:61 | 05:16:40 | 186361 | 210100
AccurateRip Summary Disc not found in AccurateRip DB.
All Tracks Album gain : -6.84 dB Peak : 0.999603 Statistics Read error : 0 Jitter error (maybe fixed) : 0 Retry sector count : 0 Damaged sector count : 0
Track 01 Filename : /Users/sockhead/Music/XLD/Godflesh - Post Self (2017) [FLAC]/01 Post Self.flac Pre-gap length : 00:02:00
Track gain : -6.98 dB Peak : 0.999603 CRC32 hash (test run) : E931D9FD CRC32 hash : E931D9FD CRC32 hash (skip zero) : BCE99A94 AccurateRip v1 signature : 9BBA2752 AccurateRip v2 signature : 36123553 ->Track not present in AccurateRip database. Statistics Read error : 0 Jitter error (maybe fixed) : 0 Retry sector count : 0 Damaged sector count : 0
Track 02 Filename : /Users/sockhead/Music/XLD/Godflesh - Post Self (2017) [FLAC]/02 No Body.flac
Track gain : -5.49 dB Peak : 0.999603 CRC32 hash (test run) : 47BB5941 CRC32 hash : 47BB5941 CRC32 hash (skip zero) : 5D8FAE8B AccurateRip v1 signature : AA033F1E AccurateRip v2 signature : B27BFACB ->Track not present in AccurateRip database. Statistics Read error : 0 Jitter error (maybe fixed) : 0 Retry sector count : 0 Damaged sector count : 0
Track 03 Filename : /Users/sockhead/Music/XLD/Godflesh - Post Self (2017) [FLAC]/03 Parasite.flac
Track gain : -6.36 dB Peak : 0.999603 CRC32 hash (test run) : 081B4017 CRC32 hash : 081B4017 CRC32 hash (skip zero) : 802E5A15 AccurateRip v1 signature : 7928C53A AccurateRip v2 signature : BFC10F0A ->Track not present in AccurateRip database. Statistics Read error : 0 Jitter error (maybe fixed) : 0 Retry sector count : 0 Damaged sector count : 0
Track 04 Filename : /Users/sockhead/Music/XLD/Godflesh - Post Self (2017) [FLAC]/04 Mirror Of Finite Light.flac
Track gain : -5.83 dB Peak : 0.999603 CRC32 hash (test run) : DB116E40 CRC32 hash : DB116E40 CRC32 hash (skip zero) : 67B0D678 AccurateRip v1 signature : 44076E34 AccurateRip v2 signature : 574CE77D ->Track not present in AccurateRip database. Statistics Read error : 0 Jitter error (maybe fixed) : 0 Retry sector count : 0 Damaged sector count : 0
Track 05 Filename : /Users/sockhead/Music/XLD/Godflesh - Post Self (2017) [FLAC]/05 Be God.flac
Track gain : -6.37 dB Peak : 0.999603 CRC32 hash (test run) : 47411091 CRC32 hash : 47411091 CRC32 hash (skip zero) : 3B042E3B AccurateRip v1 signature : DCCDCDDF AccurateRip v2 signature : 1BCAE225 ->Track not present in AccurateRip database. Statistics Read error : 0 Jitter error (maybe fixed) : 0 Retry sector count : 0 Damaged sector count : 0
Track 06 Filename : /Users/sockhead/Music/XLD/Godflesh - Post Self (2017) [FLAC]/06 The Cyclic End.flac
Track gain : -7.21 dB Peak : 0.999603 CRC32 hash (test run) : 8C79F817 CRC32 hash : 8C79F817 CRC32 hash (skip zero) : 75A6ED14 AccurateRip v1 signature : CCF58E58 AccurateRip v2 signature : 5EAF4D77 ->Track not present in AccurateRip database. Statistics Read error : 0 Jitter error (maybe fixed) : 0 Retry sector count : 0 Damaged sector count : 0
Track 07 Filename : /Users/sockhead/Music/XLD/Godflesh - Post Self (2017) [FLAC]/07 Pre Self.flac
Track gain : -7.31 dB Peak : 0.999603 CRC32 hash (test run) : 8CABBA6D CRC32 hash : 8CABBA6D CRC32 hash (skip zero) : E21FE937 AccurateRip v1 signature : 0C26ED76 AccurateRip v2 signature : D8993F20 ->Track not present in AccurateRip database. Statistics Read error : 0 Jitter error (maybe fixed) : 0 Retry sector count : 0 Damaged sector count : 0
Track 08 Filename : /Users/sockhead/Music/XLD/Godflesh - Post Self (2017) [FLAC]/08 Mortality Sorrow.flac
Track gain : -7.15 dB Peak : 0.999603 CRC32 hash (test run) : D714A63F CRC32 hash : D714A63F CRC32 hash (skip zero) : BA5A71D8 AccurateRip v1 signature : 55A0DEDD AccurateRip v2 signature : A1426CD9 ->Track not present in AccurateRip database. Statistics Read error : 0 Jitter error (maybe fixed) : 0 Retry sector count : 0 Damaged sector count : 0
Track 09 Filename : /Users/sockhead/Music/XLD/Godflesh - Post Self (2017) [FLAC]/09 In Your Shadow.flac
Track gain : -4.50 dB Peak : 0.999603 CRC32 hash (test run) : 56DC5BD4 CRC32 hash : 56DC5BD4 CRC32 hash (skip zero) : DBFB0207 AccurateRip v1 signature : 97EBB0C5 AccurateRip v2 signature : 7358F15E ->Track not present in AccurateRip database. Statistics Read error : 0 Jitter error (maybe fixed) : 0 Retry sector count : 0 Damaged sector count : 0
Track 10 Filename : /Users/sockhead/Music/XLD/Godflesh - Post Self (2017) [FLAC]/10 The Infinite End.flac
Track gain : -7.03 dB Peak : 0.999603 CRC32 hash (test run) : A5730ED6 CRC32 hash : A5730ED6 CRC32 hash (skip zero) : A7B9CFF5 AccurateRip v1 signature : BFA9610E AccurateRip v2 signature : 50854FFF ->Track not present in AccurateRip database. Statistics Read error : 0 Jitter error (maybe fixed) : 0 Retry sector count : 0 Damaged sector count : 0
No errors occurred
End of status report
-----BEGIN XLD SIGNATURE-----qmdSjbRfCWQF0xEc5q5LwnrUF1N3yWemMvlML6f_3iKoB49mTFmwIpqsp0qJ6oYEaaVenzusKYYQakn192M.Hknwebh4qINTFCwkNbu-----END XLD SIGNATURE-----

Содержание индексной карты (.CUE)

TITLE "Post Self"PERFORMER "Godflesh"REM GENRE "Metal"REM DATE "2017"REM DISCNUMBER 1REM TOTALDISCS 1REM DISCID 8E0AF10AREM REPLAYGAIN_ALBUM_GAIN -6.84 dBREM REPLAYGAIN_ALBUM_PEAK 0.999603FILE "01 Post Self.flac" WAVE TRACK 01 AUDIO TITLE "Post Self" REM REPLAYGAIN_TRACK_GAIN -6.98 dB REM REPLAYGAIN_TRACK_PEAK 0.999603 INDEX 01 00:00:00FILE "02 No Body.flac" WAVE TRACK 02 AUDIO TITLE "No Body" REM REPLAYGAIN_TRACK_GAIN -5.49 dB REM REPLAYGAIN_TRACK_PEAK 0.999603 INDEX 01 00:00:00FILE "03 Parasite.flac" WAVE TRACK 03 AUDIO TITLE "Parasite" REM REPLAYGAIN_TRACK_GAIN -6.36 dB REM REPLAYGAIN_TRACK_PEAK 0.999603 INDEX 01 00:00:00FILE "04 Mirror Of Finite Light.flac" WAVE TRACK 04 AUDIO TITLE "Mirror Of Finite Light" REM REPLAYGAIN_TRACK_GAIN -5.83 dB REM REPLAYGAIN_TRACK_PEAK 0.999603 INDEX 01 00:00:00FILE "05 Be God.flac" WAVE TRACK 05 AUDIO TITLE "Be God" REM REPLAYGAIN_TRACK_GAIN -6.37 dB REM REPLAYGAIN_TRACK_PEAK 0.999603 INDEX 01 00:00:00FILE "06 The Cyclic End.flac" WAVE TRACK 06 AUDIO TITLE "The Cyclic End" REM REPLAYGAIN_TRACK_GAIN -7.21 dB REM REPLAYGAIN_TRACK_PEAK 0.999603 INDEX 01 00:00:00FILE "07 Pre Self.flac" WAVE TRACK 07 AUDIO TITLE "Pre Self" REM REPLAYGAIN_TRACK_GAIN -7.31 dB REM REPLAYGAIN_TRACK_PEAK 0.999603 INDEX 01 00:00:00FILE "08 Mortality Sorrow.flac" WAVE TRACK 08 AUDIO TITLE "Mortality Sorrow" REM REPLAYGAIN_TRACK_GAIN -7.15 dB REM REPLAYGAIN_TRACK_PEAK 0.999603 INDEX 01 00:00:00FILE "09 In Your Shadow.flac" WAVE TRACK 09 AUDIO TITLE "In Your Shadow" REM REPLAYGAIN_TRACK_GAIN -4.50 dB REM REPLAYGAIN_TRACK_PEAK 0.999603 INDEX 01 00:00:00FILE "10 The Infinite End.flac" WAVE TRACK 10 AUDIO TITLE "The Infinite End" REM REPLAYGAIN_TRACK_GAIN -7.03 dB REM REPLAYGAIN_TRACK_PEAK 0.999603 INDEX 01 00:00:00

Лог проверки качества

-----------------------
DON'T MODIFY THIS FILE
-----------------------
PERFORMER: auCDtect Task Manager, ver. 1.6.0 RC1 build 1.6.0.1Copyright (c) 2008-2010 y-soft. All rights reservedhttp://y-soft.org
ANALYZER: auCDtect: CD records authenticity detector, version 0.8.2Copyright (c) 2004 Oleg Berngardt. All rights reserved.Copyright (c) 2004 Alexander Djourik. All rights reserved.
FILE: 10 The Infinite End.flac Size: 35382931 Hash: D01CEC597B7FD61B5666AE0B9F05244E Accuracy: -m0 Conclusion: CDDA 100% Signature: B98A72C785E2049BDB81E6E41005F3B189C468E7FILE: 09 In Your Shadow.flac Size: 30542912 Hash: 2CE5B8D209848C71256940FDA3F8F048 Accuracy: -m0 Conclusion: CDDA 100% Signature: 70CAC32C16A8DAC620B986DBBAD53454479D5715FILE: 08 Mortality Sorrow.flac Size: 35632583 Hash: 2F48CB66E8F3CD9459A79A14E757B180 Accuracy: -m0 Conclusion: CDDA 100% Signature: 3473CCF31E01246B57915AE1AC99A0994FA5E32FFILE: 07 Pre Self.flac Size: 29672492 Hash: 9977233749C88AA034B0A04CD0870B2F Accuracy: -m0 Conclusion: CDDA 99% Signature: 12E566A721231614227E9CD6E5B6EBB2C1913A3FFILE: 06 The Cyclic End.flac Size: 27709674 Hash: 6AEC6FDD64C48BE9B66CEEE858299D79 Accuracy: -m0 Conclusion: CDDA 100% Signature: E8F2C60A99B6114646B7794E52360E1F1DE66E60FILE: 05 Be God.flac Size: 34366913 Hash: 0DE40BB2B6182D1B0AB263082441C4BA Accuracy: -m0 Conclusion: CDDA 100% Signature: C049B12775F8FF48D079CB6A2B9BD4C0F6437447FILE: 04 Mirror Of Finite Light.flac Size: 25353441 Hash: 8D9531CC9E7DB12CF803AC78BF8E51DC Accuracy: -m0 Conclusion: CDDA 99% Signature: A737934FD76D90B84F1BC4EECF469B0459F6738FFILE: 03 Parasite.flac Size: 30036370 Hash: 29DCCB0FB2BB8D33C0316BC4CEF5D4BB Accuracy: -m0 Conclusion: CDDA 100% Signature: EA11160304DD82DD70F449CF5A818F396C100EE2FILE: 02 No Body.flac Size: 23459536 Hash: CE7794698485FEB5B16E7A5709E35599 Accuracy: -m0 Conclusion: CDDA 99% Signature: 3B635C66388E7F3EF3979DA264C66EB17146221FFILE: 01 Post Self.flac Size: 30066148 Hash: C1195774CB8D9DC77E8CD216B6381941 Accuracy: -m0 Conclusion: CDDA 100% Signature: 966E8617138C15DD1CE62E4AA5FCF409A844BE34

DR7

foobar2000 1.3.16 / Замер динамического диапазона (DR) 1.1.1
Дата отчёта: 2017-11-25 11:48:47
--------------------------------------------------------------------------------
Анализ: Godflesh / Post Self
--------------------------------------------------------------------------------
DR Пики RMS Продолжительность трека
--------------------------------------------------------------------------------
DR7 0.00 дБ -7.89 дБ 4:29 01-Post Self
DR6 0.00 дБ -8.07 дБ 3:40 02-No Body
DR7 0.00 дБ -8.11 дБ 3:49 03-Parasite
DR7 0.00 дБ -8.13 дБ 4:23 04-Mirror Of Finite Light
DR7 0.00 дБ -8.56 дБ 5:09 05-Be God
DR7 0.00 дБ -7.83 дБ 4:51 06-The Cyclic End
DR6 0.00 дБ -8.27 дБ 5:08 07-Pre Self
DR7 0.00 дБ -8.16 дБ 4:46 08-Mortality Sorrow
DR6 0.00 дБ -8.73 дБ 5:08 09-In Your Shadow
DR8 0.00 дБ -9.86 дБ 5:17 10-The Infinite End
--------------------------------------------------------------------------------
Количество треков: 10
Реальные значения DR: DR7
Частота: 44100 Гц
Каналов: 2
Разрядность: 16
Битрейт: 894 кбит/с
Кодек: FLAC
================================================================================


[islamvillage.com]_t_5484918.torrent
Торрент: Зарегистрирован ·  [ 2017-11-29 19:30 ] ·  f75f5da79c341e168a78938f99cfea6fd5d84638

24 KB

Статус: проверено
Скачан: 0 раз
Размер: 288 MB
Оценка: 
(Голосов: 0)
Сказали спасибо: 0  Спасибо
Похожие темы
[Профиль]    [ЛС]
Показать сообщения:    
Ответить на тему

Текущее время: Сегодня 23:20

Часовой пояс: GMT + 7



Вы не можете начинать темы
Вы не можете отвечать на сообщения
Вы не можете редактировать свои сообщения
Вы не можете удалять свои сообщения
Вы не можете голосовать в опросах
Вы не можете прикреплять файлы к сообщениям
Вы можете скачивать файлы


Bombairiya (2019) Watch Bombairiya (2019) Full Movie Online It follows the story of Meghna, who gets embroiled in a series of events after her phone gets stolen.   | Miss Marple (1984) (1) | Starship Troopers BluRay MicroHD