Mr. President - Video Collection [1994-2003, Eurodance, SATRip,VHSRip][DVD5-custom]

Ответить на тему
Статистика раздачи [Обновить пиров]
Размер:  3.51 GB   |    Зарегистрирован:  1 год   |    Скачан:  0 раз

Полного источника не было: Никогда

 
   
 
 
 
Автор Сообщение

islamvillage.com

Создавать темы 28-Дек-2017 19:18

[Цитировать]

Mr. President - Video Collection
Страна: Germany
Жанр: Eurodance
Продолжительность: 01:05:14
Год выхода: 1994 - 2003
Лейбл: custom
Описание: Сборник видеоклипов группы Mr. President в формате DVD-video
Доп. информация: В качестве исх. материала использованы видеоклипы с трекера и с других ресурсов.
В большинстве треков звук заменен на аналогичный, с компакт-дисков, с обработкой с помощью плагина - декомпрессора.
Разбивка на главы по трекам: есть
Качество : SATRip, VHSRip
Формат файла: DVD video
Видео кодек: MPEG2
Аудио кодек: PCM
Видео: MPEG-2, 720х576, 4:3, Bit rate: 6 253 Kbps, Maximum bit rate: 8 000 Kbps, 25.000 fps
Аудио: LinearPCM, 2 ch, 1 536 Kbps, 48.0 KHz, 16 bits

Треклист

01. Mr. President - Up’n Away /06.1994/
02. Mr. President - I’ll Follow the Sun /01.1995/
03. Mr. President - 4 On the Floor /05.1995/
04. Mr. President - Gonna Get Along /09.1995/
05. Mr. President - Coco Jamboo /02.1996/
06. Mr. President - I Give You My Heart /06.1996/
07. Mr. President - Show Me the Way /10.1996/
08. Mr. President - Jojo Action /05.1997/
09. Mr. President - Take Me to the Limit /09.1997/
10. Mr. President - Where Do l Belong /1997/
11. Mr. President - Happy People /1998/
12. Mr. President - Give A Little Love /1999/
13. Mr. President - SimbaLeo /1999/
14. Mr. President - Forever And One Day /2003/
15. Mr. President - Love, Sex and Sunshine /2003/

bonus:
16. Reset Feat. Danii (Daniela Haak) - You Got The Key /1997/
17. T-Seven (Judith Hildebrandt) - Hey Mr. President /2001/
18. T-Seven (Judith Hildebrandt) - Passion /2001/

DVDinfo, MediaInfo

Title: Mr. President - Video Collection (DVD5)Size: 3.51 Gb ( 3 684 932,00 KBytes ) - DVD-5Enabled regions: 1, 2, 3, 4, 5, 6, 7, 8
VTS_01 : Play Length: 01:05:14 Video: PAL 4:3 (720x576) VBR Audio: English, LPCM, Delay = 0 mSec
* Menus Information *
VIDEO_TS MenuVideo: PAL 4:3 (720x576) VBR LetterboxedAudio: Not specified (LinearPCM, 2 ch)English Language Unit : Title Menu
VTS_01 MenuVideo: PAL 4:3 (720x576) VBREnglish Language Unit : Root Menu
GeneralComplete name : Mr. President - Video Collection (DVD5)\VIDEO_TS\VTS_01_1.VOBFormat : MPEG-PSFile size : 1 001 MiBDuration : 17mn 36sOverall bit rate mode : VariableOverall bit rate : 7 947 Kbps
VideoID : 224 (0xE0)Format : MPEG VideoFormat version : Version 2Format profile : Main@MainFormat settings, BVOP : YesFormat settings, Matrix : CustomFormat settings, GOP : VariableDuration : 17mn 36sBit rate mode : VariableBit rate : 6 253 KbpsMaximum bit rate : 8 000 KbpsWidth : 720 pixelsHeight : 576 pixelsDisplay aspect ratio : 4:3Frame rate : 25.000 fpsStandard : PALColor space : YUVChroma subsampling : 4:2:0Bit depth : 8 bitsScan type : InterlacedScan order : Top Field FirstCompression mode : LossyBits/(Pixel*Frame) : 0.603Time code of first frame : 00:00:00:00Time code source : Group of pictures headerStream size : 788 MiB (79%)
AudioID : 189 (0xBD)-160 (0xA0)Format : PCMFormat settings, Endianness : BigFormat settings, Sign : SignedMuxing mode : DVD-VideoDuration : 17mn 36sBit rate mode : ConstantBit rate : 1 536 KbpsChannel(s) : 2 channelsSampling rate : 48.0 KHzBit depth : 16 bitsStream size : 193 MiB (19%)
Menu

Скриншоты меню

Может кто до сих пор не в курсе, на всякий случай.
Чтобы смотреть и слушать на компьютере DVD - диск нужно в папке VIDEO_TS щелкнуть левой кнопкой мышки 2 раза файл VIDEO_TS.IFO. Комповый плеер рекомендую CyberLink PowerDVD, хотя сейчас куча других есть, которые правильно воспроизводят ДВД.
Проблема может быть только в том, что на диске видео ИНТЕРЛЕЙСНОЕ. Стационарные "железные" плеера такое видео играют без проблем, а на компе, вы можете увидеть"расческу". Так вот, чтобы "расческу" не видеть - нужно зайти в настройки проигрывателя, и включить воспроизведение 50 кадров в секунду, обычно этот режим называется "ВОВ". И будет играть всё ништяк.
А лучше прожечь на болванку. Болванка - физический носитель, в отличие от флешек и винчестеров, которые могут накрыться ни с того, ни с сего.. было..было..
Прожег на болванку типа MIREX PRINTABLE 16Х - на BD DVD плеере BBK BD3050 - играет без проблем!
Скачал не поблагодарив релизёра и не оставил комментарий - понизил релизёру мотивацию делиться с окружающими!
ну если что не понравилось - то пишите, конкретно, что именно не так, пообщаемся, обсудим


[islamvillage.com]_t_5496479.torrent
Торрент: Зарегистрирован ·  [ 2017-12-28 19:18 ] ·  c258d498f4d8d02c1f3bdc664a25357e5913720f

19 KB

Статус: проверено
Скачан: 0 раз
Размер: 3.51 GB
Оценка: 
(Голосов: 0)
Сказали спасибо: 0  Спасибо
Похожие темы
[Профиль]    [ЛС]
Показать сообщения:    
Ответить на тему

Текущее время: Сегодня 22:34

Часовой пояс: GMT + 7



Вы не можете начинать темы
Вы не можете отвечать на сообщения
Вы не можете редактировать свои сообщения
Вы не можете удалять свои сообщения
Вы не можете голосовать в опросах
Вы не можете прикреплять файлы к сообщениям
Вы можете скачивать файлы


2x12 ¿Qué tiene de malo intentar ligar en una mazmorra? | Toggle Switch Guard Single M3 Fixings Machined Stainless Steel Aero | Smart Tivi Sony 4K 49 inch KD-49X7000F Mới 2018