Опасные связи (Павел Хомский) [2017, драма, SATRip] Московской Государственный академический театр имени Моссовета

Ответить на тему
Статистика раздачи [Обновить пиров]
Размер:  1.46 GB   |    Зарегистрирован:  1 год   |    Скачан:  1 раз

Полного источника не было: 11 месяцев 16 дней

 
   
 
 
 
Автор Сообщение

islamvillage.com

Создавать темы 23-Янв-2018 20:54

[Цитировать]

Опасные связи (2 действия) Название театра: Московской Государственный академический театр имени Моссовета.
Год выхода: 2017.
Жанр: драма.
Продолжительность: 01:04:31 + 00:59:01 (02:03:32).
Режиссеры: народный артист России Павел Хомский, Николай Неклюдов.
Действующие лица и исполнители:
Виконт де Вальмон - заслуженный артист России Александр Яцко,
Маркиза де Мертей - заслуженная артистка России Ольга Кабо,
Мадам де Розмонд, тетушка Вальмона - заслуженная артистка России Мария Кнушевицкая,
Мадам де Турвель - Юлия Хлынина,
Мадам де Воланж - заслуженная артистка России Нэлли Пшенная,
Сесиль, ее дочь - Анна Михайловская,
Шевалье Дансени - Нил Кропалов,
Азолан, камердинер Вальмона - Антон Аносов,
Эмилия, куртизанка - Яна Львова,
Мажордом в доме маркизы де Мертей - Александр Емельянов,
Адель, служанка в доме мадам де Розмонд - Маргарита Юдина.
Описание:
По мотивам одноименного романа Шодерло де Лакло.
Этот ставший сенсацией своего времени остросюжетный роман дает остроумную, яркую и откровенную картину жизни французской аристократии, посвящающей большую часть своего времени адюльтеру и интригам.
Госпожа де Воланж забирает свою дочь Сесиль из монастыря, где ту воспитывали, чтобы выдать замуж за графа де Жаркура.
Бывшая любовница Жаркура, маркиза де Мертей, желая отомстить обидчику, прибегает к помощи своего друга, известного сердцееда виконта де Вальмона.
Вальмон должен соблазнить невинную девушку до свадьбы. Вальмон соглашается на спор с маркизой.

Дополнительная информация:
Страна: Россия .
Выпущено: © Culture.ru.
Сценарий, постановка, сценография и костюмы: народный артист России Юрий Еремин.
Автор: Шодерло де Лакло.
Перевод с английского и редакция Сергея Таска.
Художник-постановщик: народный художник России Борис Бланк.
Художник по костюмам: заслуженный художник России Виктория Севрюкова.
Музыкальное оформление: заслуженный деятель искусств России Александр Чевский.
Художник по свету: Алексей Попов.
Постановка фехтовальной сцены: Айдар Закиров.

О спектакле.



Качество видео:...SATRip
Формат файла:.................AVI
Видео:..720x416 (1.73:1), 25 fps, XviD MPEG-4 ~1554 kbps avg, 0.21 bit/pixel
Аудио:..44.100 kHz, MPEG Layer 3, 2 ch, ~128.00 kbps avg

Отчет Media Info

1-е действие:
General
Complete name : Opasnye.svyazi_Moskovskij.GAT.im.Mossoveta.(2.serii).2017.XviD.SATRip.fenixclub\Opasnye.svyazi_Moskovskij.GAT.im.Mossoveta.2017_1-e.dejstvie.avi
Format : AVI
Format/Info : Audio Video Interleave
File size : 781 MiB
Duration : 1h 4mn
Overall bit rate : 1 692 Kbps
Writing application : VirtualDubModRus 1.5.10.2 (build 2542/release)
Writing library : VirtualDub build 32842/release
Video
ID : 0
Format : MPEG-4 Visual
Format profile : Advanced Simple@L5
Format settings, BVOP : 2
Format settings, QPel : No
Format settings, GMC : No warppoints
Format settings, Matrix : Default (MPEG)
Codec ID : XVID
Codec ID/Hint : XviD
Duration : 1h 4mn
Bit rate : 1 555 Kbps
Width : 720 pixels
Height : 416 pixels
Display aspect ratio : 1.731
Frame rate : 25.000 fps
Color space : YUV
Chroma subsampling : 4:2:0
Bit depth : 8 bits
Scan type : Progressive
Compression mode : Lossy
Bits/(Pixel*Frame) : 0.208
Stream size : 717 MiB (92%)
Writing library : XviD 73
Audio
ID : 1
Format : MPEG Audio
Format version : Version 1
Format profile : Layer 3
Mode : Joint stereo
Codec ID : 55
Codec ID/Hint : MP3
Duration : 1h 4mn
Bit rate mode : Constant
Bit rate : 128 Kbps
Channel(s) : 2 channels
Sampling rate : 44.1 KHz
Compression mode : Lossy
Stream size : 59.1 MiB (8%)
Alignment : Split accross interleaves
Interleave, duration : 40 ms (1.00 video frame)
Interleave, preload duratio : 500 ms
2-е действие:
General
Complete name : Opasnye.svyazi_Moskovskij.GAT.im.Mossoveta.(2.serii).2017.XviD.SATRip.fenixclub\Opasnye.svyazi_Moskovskij.GAT.im.Mossoveta.2017_2-e.dejstvie.avi
Format : AVI
Format/Info : Audio Video Interleave
File size : 715 MiB
Duration : 59mn 0s
Overall bit rate : 1 694 Kbps
Writing application : VirtualDubModRus 1.5.10.2 (build 2542/release)
Writing library : VirtualDub build 32842/release
Video
ID : 0
Format : MPEG-4 Visual
Format profile : Advanced Simple@L5
Format settings, BVOP : 2
Format settings, QPel : No
Format settings, GMC : No warppoints
Format settings, Matrix : Default (MPEG)
Codec ID : XVID
Codec ID/Hint : XviD
Duration : 59mn 0s
Bit rate : 1 556 Kbps
Width : 720 pixels
Height : 416 pixels
Display aspect ratio : 1.731
Frame rate : 25.000 fps
Color space : YUV
Chroma subsampling : 4:2:0
Bit depth : 8 bits
Scan type : Progressive
Compression mode : Lossy
Bits/(Pixel*Frame) : 0.208
Stream size : 657 MiB (92%)
Writing library : XviD 73
Audio
ID : 1
Format : MPEG Audio
Format version : Version 1
Format profile : Layer 3
Mode : Joint stereo
Codec ID : 55
Codec ID/Hint : MP3
Duration : 59mn 0s
Bit rate mode : Constant
Bit rate : 128 Kbps
Channel(s) : 2 channels
Sampling rate : 44.1 KHz
Compression mode : Lossy
Stream size : 54.0 MiB (8%)
Alignment : Split accross interleaves
Interleave, duration : 40 ms (1.00 video frame)
Interleave, preload duratio : 500 ms

Скриншоты




[islamvillage.com]_t_5510268.torrent
Торрент: Зарегистрирован ·  [ 2018-01-23 20:54 ] ·  f95b250d53f353a9ab5cef342e2a21c65cf87946

15 KB

Статус: проверено
Скачан: 1 раз
Размер: 1.46 GB
Оценка: 
(Голосов: 0)
Сказали спасибо: 0  Спасибо
Похожие темы
[Профиль]    [ЛС]
Показать сообщения:    
Ответить на тему

Текущее время: Сегодня 22:40

Часовой пояс: GMT + 7



Вы не можете начинать темы
Вы не можете отвечать на сообщения
Вы не можете редактировать свои сообщения
Вы не можете удалять свои сообщения
Вы не можете голосовать в опросах
Вы не можете прикреплять файлы к сообщениям
Вы можете скачивать файлы


Chicago Med S4 E4 | Фердинанд | Descargar