(Ska) [CD] Madness - Utter Madness [Comp] - 1986, FLAC (tracks+.cue), lossless

Ответить на тему
Статистика раздачи [Обновить пиров]
Размер:  344 MB   |    Зарегистрирован:  10 месяцев 12 дней   |    Скачан:  0 раз

Полного источника не было: Никогда

 
   
 
 
 
Автор Сообщение

islamvillage.com

Создавать темы 03-Мар-2018 20:51

[Цитировать]

Madness / Utter Madness
Жанр: Ska
Носитель: CD
Страна-производитель диска (релиза): UK & Europe
Год издания: 1986
Издатель (лейбл): Zarjazz/Virgin
Номер по каталогу: JZCD 2
Страна исполнителя (группы): Великобритания
Аудиокодек: FLAC (*.flac)
Тип рипа: tracks+.cue
Битрейт аудио: lossless
Продолжительность: 00:54:51
Источник (релизер): devoncouple @ red
Наличие сканов в содержимом раздачи: 300 dpi
Треклист:
01. Our House ( 03:12)
02. Driving In My Car (03:17)
03. Michael Caine (03:32)
04. Wings Of A Dove (A Celebratory Song) (02:59)
05. Yesterday's Men (04:07)
06. Tomorrow's Just Another Day (03:13)
07. I'll Compete (03:20)
08. (Waiting For The) Ghost Train (03:43)
09. Uncle Sam (03:04)
10. The Sun And The Rain (03:26)
11. Sweetest Girl (04:20)
12. One Better Day (04:01)
13. Victoria Gardens (03:51)

Лог создания рипа (.log)

X Lossless Decoder version 20161007 (149.3)
XLD extraction logfile from 2018-02-22 12:07:13 +0000
Madness / Utter Madness
Used drive : HL-DT-ST DVDRW GA32N (revision KC12)Media type : Pressed CD
Ripper mode : XLD Secure RipperDisable audio cache : OK for the drive with a cache less than 1375KiBMake use of C2 pointers : NORead offset correction : 103Max retry count : 100Gap status : Analyzed, Appended (except HTOA)
TOC of the extracted CD Track | Start | Length | Start sector | End sector --------------------------------------------------------- 1 | 00:00:00 | 03:13:00 | 0 | 14474 2 | 03:13:00 | 03:17:42 | 14475 | 29291 3 | 06:30:42 | 03:32:58 | 29292 | 45249 4 | 10:03:25 | 02:59:62 | 45250 | 58736 5 | 13:03:12 | 04:07:23 | 58737 | 77284 6 | 17:10:35 | 03:13:22 | 77285 | 91781 7 | 20:23:57 | 03:20:03 | 91782 | 106784 8 | 23:43:60 | 03:43:40 | 106785 | 123549 9 | 27:27:25 | 03:04:57 | 123550 | 137406 10 | 30:32:07 | 03:26:65 | 137407 | 152921 11 | 33:58:72 | 04:20:25 | 152922 | 172446 12 | 38:19:22 | 04:01:58 | 172447 | 190579 13 | 42:21:05 | 03:51:62 | 190580 | 207966 14 | 46:12:67 | 08:38:43 | 207967 | 246859
List of alternate offset correction values # | Absolute | Relative | Confidence ------------------------------------------ 1 | -427 | -530 | 58
AccurateRip Summary (DiscID: 0019422b-0110d988-ac0cdb0e) Track 01 : OK (v1+v2, confidence 29/85) Track 02 : OK (v1+v2, confidence 29/86) Track 03 : OK (v1+v2, confidence 30/87) Track 04 : OK (v1+v2, confidence 30/87) Track 05 : OK (v1+v2, confidence 29/86) Track 06 : OK (v1+v2, confidence 30/87) Track 07 : OK (v1+v2, confidence 29/87) Track 08 : OK (v1+v2, confidence 29/86) Track 09 : OK (v1+v2, confidence 29/86) Track 10 : OK (v1+v2, confidence 30/87) Track 11 : OK (v1+v2, confidence 30/87) Track 12 : OK (v1+v2, confidence 29/86) Track 13 : OK (v1+v2, confidence 30/88) Track 14 : OK (v1+v2, confidence 27/83) ->All tracks accurately ripped.
All Tracks Album gain : -2.67 dB Peak : 1.000000 Statistics Read error : 0 Jitter error (maybe fixed) : 0 Retry sector count : 0 Damaged sector count : 0
Track 01 Filename : /Volumes/My Book/Rips/Madness - Utter Madness (1986) [FLAC]/01 Our House.flac Pre-gap length : 00:02:00
Track gain : -2.32 dB Peak : 0.821075 CRC32 hash (test run) : EA331054 CRC32 hash : EA331054 CRC32 hash (skip zero) : 7E7B6F62 AccurateRip v1 signature : 943018A1 AccurateRip v2 signature : 676AA8DC ->Accurately ripped (v1+v2, confidence 11+18/85) Statistics Read error : 0 Jitter error (maybe fixed) : 0 Retry sector count : 0 Damaged sector count : 0
Track 02 Filename : /Volumes/My Book/Rips/Madness - Utter Madness (1986) [FLAC]/02 Driving In My Car.flac
Track gain : -2.50 dB Peak : 0.892242 CRC32 hash (test run) : C2DB6311 CRC32 hash : C2DB6311 CRC32 hash (skip zero) : 34132447 AccurateRip v1 signature : 91C79E0F AccurateRip v2 signature : 49E132C3 ->Accurately ripped (v1+v2, confidence 12+17/86) Statistics Read error : 0 Jitter error (maybe fixed) : 0 Retry sector count : 0 Damaged sector count : 0
Track 03 Filename : /Volumes/My Book/Rips/Madness - Utter Madness (1986) [FLAC]/03 Michael Caine.flac
Track gain : -2.75 dB Peak : 1.000000 CRC32 hash (test run) : FA03C039 CRC32 hash : FA03C039 CRC32 hash (skip zero) : ED5FD778 AccurateRip v1 signature : 23474E71 AccurateRip v2 signature : C50C1944 ->Accurately ripped (v1+v2, confidence 12+18/87) Statistics Read error : 0 Jitter error (maybe fixed) : 0 Retry sector count : 0 Damaged sector count : 0
Track 04 Filename : /Volumes/My Book/Rips/Madness - Utter Madness (1986) [FLAC]/04 Wings Of A Dove (A Celebratory Song).flac
Track gain : -4.18 dB Peak : 0.949677 CRC32 hash (test run) : 5B056F08 CRC32 hash : 5B056F08 CRC32 hash (skip zero) : A4DE63C5 AccurateRip v1 signature : 6AAC6D34 AccurateRip v2 signature : 0A346A64 ->Accurately ripped (v1+v2, confidence 12+18/87) Statistics Read error : 0 Jitter error (maybe fixed) : 0 Retry sector count : 0 Damaged sector count : 0
Track 05 Filename : /Volumes/My Book/Rips/Madness - Utter Madness (1986) [FLAC]/05 Yesterday's Men.flac
Track gain : 1.08 dB Peak : 0.998108 CRC32 hash (test run) : 9EC8F292 CRC32 hash : 9EC8F292 CRC32 hash (skip zero) : 6E74BFB8 AccurateRip v1 signature : 6205BB82 AccurateRip v2 signature : 1FC739D7 ->Accurately ripped (v1+v2, confidence 11+18/86) Statistics Read error : 0 Jitter error (maybe fixed) : 0 Retry sector count : 0 Damaged sector count : 0
Track 06 Filename : /Volumes/My Book/Rips/Madness - Utter Madness (1986) [FLAC]/06 Tomorrow's Just Another Day.flac
Track gain : -3.02 dB Peak : 0.949066 CRC32 hash (test run) : 5957A6FA CRC32 hash : 5957A6FA CRC32 hash (skip zero) : 09F70B94 AccurateRip v1 signature : 6E387712 AccurateRip v2 signature : 67DA288E ->Accurately ripped (v1+v2, confidence 12+18/87) Statistics Read error : 0 Jitter error (maybe fixed) : 0 Retry sector count : 0 Damaged sector count : 0
Track 07 Filename : /Volumes/My Book/Rips/Madness - Utter Madness (1986) [FLAC]/07 I'll Compete.flac
Track gain : -1.67 dB Peak : 0.914886 CRC32 hash (test run) : 4F2A26F3 CRC32 hash : 4F2A26F3 CRC32 hash (skip zero) : 60FA0C31 AccurateRip v1 signature : D4BF32E9 AccurateRip v2 signature : 82BED36E ->Accurately ripped (v1+v2, confidence 11+18/87) Statistics Read error : 0 Jitter error (maybe fixed) : 0 Retry sector count : 0 Damaged sector count : 0
Track 08 Filename : /Volumes/My Book/Rips/Madness - Utter Madness (1986) [FLAC]/08 (Waiting For The) Ghost Train.flac
Track gain : -1.72 dB Peak : 0.999969 CRC32 hash (test run) : BB5B1309 CRC32 hash : BB5B1309 CRC32 hash (skip zero) : B96FFE1D AccurateRip v1 signature : 4D1D0916 AccurateRip v2 signature : D20D94DB ->Accurately ripped (v1+v2, confidence 12+17/86) Statistics Read error : 0 Jitter error (maybe fixed) : 0 Retry sector count : 0 Damaged sector count : 0
Track 09 Filename : /Volumes/My Book/Rips/Madness - Utter Madness (1986) [FLAC]/09 Uncle Sam.flac
Track gain : -1.57 dB Peak : 0.786316 CRC32 hash (test run) : FA511EC5 CRC32 hash : FA511EC5 CRC32 hash (skip zero) : 8B057672 AccurateRip v1 signature : 84B546FA AccurateRip v2 signature : 4A843D76 ->Accurately ripped (v1+v2, confidence 11+18/86) Statistics Read error : 0 Jitter error (maybe fixed) : 0 Retry sector count : 0 Damaged sector count : 0
Track 10 Filename : /Volumes/My Book/Rips/Madness - Utter Madness (1986) [FLAC]/10 The Sun And The Rain.flac
Track gain : -2.79 dB Peak : 0.869843 CRC32 hash (test run) : 66EC014A CRC32 hash : 66EC014A CRC32 hash (skip zero) : A29DC8F3 AccurateRip v1 signature : 379556B2 AccurateRip v2 signature : 0BF942A6 ->Accurately ripped (v1+v2, confidence 12+18/87) Statistics Read error : 0 Jitter error (maybe fixed) : 0 Retry sector count : 0 Damaged sector count : 0
Track 11 Filename : /Volumes/My Book/Rips/Madness - Utter Madness (1986) [FLAC]/11 Sweetest Girl.flac
Track gain : -1.07 dB Peak : 0.973083 CRC32 hash (test run) : F2063E0B CRC32 hash : F2063E0B CRC32 hash (skip zero) : E5AF1BEE AccurateRip v1 signature : 13600E7E AccurateRip v2 signature : EF65309A ->Accurately ripped (v1+v2, confidence 12+18/87) Statistics Read error : 0 Jitter error (maybe fixed) : 0 Retry sector count : 0 Damaged sector count : 0
Track 12 Filename : /Volumes/My Book/Rips/Madness - Utter Madness (1986) [FLAC]/12 One Better Day.flac
Track gain : -2.66 dB Peak : 0.999481 CRC32 hash (test run) : ECE72C7F CRC32 hash : ECE72C7F CRC32 hash (skip zero) : 87FBF4B5 AccurateRip v1 signature : 847F4D41 AccurateRip v2 signature : FF3C9004 ->Accurately ripped (v1+v2, confidence 12+17/86) Statistics Read error : 0 Jitter error (maybe fixed) : 0 Retry sector count : 0 Damaged sector count : 0
Track 13 Filename : /Volumes/My Book/Rips/Madness - Utter Madness (1986) [FLAC]/13 Victoria Gardens.flac
Track gain : -2.11 dB Peak : 1.000000 CRC32 hash (test run) : A17183EB CRC32 hash : A17183EB CRC32 hash (skip zero) : FEECB6CF AccurateRip v1 signature : C60D6D24 AccurateRip v2 signature : 4DD602C9 ->Accurately ripped (v1+v2, confidence 12+18/88) Statistics Read error : 0 Jitter error (maybe fixed) : 0 Retry sector count : 0 Damaged sector count : 0
Track 14 Filename : /Volumes/My Book/Rips/Madness - Utter Madness (1986) [FLAC]/14 Seven Year Scratch.flac
Track gain : -3.56 dB Peak : 1.000000 CRC32 hash (test run) : C31B847B CRC32 hash : C31B847B CRC32 hash (skip zero) : 76270B08 AccurateRip v1 signature : 5FD39E36 AccurateRip v2 signature : A7FE272F ->Accurately ripped (v1+v2, confidence 11+16/83) Statistics Read error : 0 Jitter error (maybe fixed) : 0 Retry sector count : 0 Damaged sector count : 0
No errors occurred
End of status report
-----BEGIN XLD SIGNATURE-----Jvt6NqxPNQks5SR_HDEOS6Zb7ka_MahavpLLLHzV2tWxvgBMj7p.Rtdlv_HIBOIFopo72b.U4.OXt0qWHhKPb7aYgzbKyiT2N9LUmxu-----END XLD SIGNATURE-----

Содержание индексной карты (.cue)

TITLE "Utter Madness"PERFORMER "Madness"REM GENRE "Alternative"REM DATE "1986"REM DISCID AC0CDB0EREM REPLAYGAIN_ALBUM_GAIN -2.67 dBREM REPLAYGAIN_ALBUM_PEAK 1.000000FILE "01 Our House.flac" WAVE TRACK 01 AUDIO TITLE "Our House" SONGWRITER "Chris Foreman/Cathal Smyth" REM REPLAYGAIN_TRACK_GAIN -2.32 dB REM REPLAYGAIN_TRACK_PEAK 0.821075 INDEX 01 00:00:00FILE "02 Driving In My Car.flac" WAVE TRACK 02 AUDIO TITLE "Driving In My Car" SONGWRITER "Mike Barson" REM REPLAYGAIN_TRACK_GAIN -2.50 dB REM REPLAYGAIN_TRACK_PEAK 0.892242 INDEX 01 00:00:00FILE "03 Michael Caine.flac" WAVE TRACK 03 AUDIO TITLE "Michael Caine" SONGWRITER "Daniel Woodgate/Cathal Smyth" REM REPLAYGAIN_TRACK_GAIN -2.75 dB REM REPLAYGAIN_TRACK_PEAK 1.000000 INDEX 01 00:00:00FILE "04 Wings Of A Dove (A Celebratory Song).flac" WAVE TRACK 04 AUDIO TITLE "Wings Of A Dove (A Celebratory Song)" SONGWRITER "Cathal Smyth/Graham McPherson (a" REM REPLAYGAIN_TRACK_GAIN -4.18 dB REM REPLAYGAIN_TRACK_PEAK 0.949677 INDEX 01 00:00:00FILE "05 Yesterday's Men.flac" WAVE TRACK 05 AUDIO TITLE "Yesterday's Men" SONGWRITER "Graham McPherson (a/Chris Foreman" REM REPLAYGAIN_TRACK_GAIN 1.08 dB REM REPLAYGAIN_TRACK_PEAK 0.998108 INDEX 01 00:00:00FILE "06 Tomorrow's Just Another Day.flac" WAVE TRACK 06 AUDIO TITLE "Tomorrow's Just Another Day" SONGWRITER "Mike Barson/Cathal Smyth" REM REPLAYGAIN_TRACK_GAIN -3.02 dB REM REPLAYGAIN_TRACK_PEAK 0.949066 INDEX 01 00:00:00FILE "07 I'll Compete.flac" WAVE TRACK 07 AUDIO TITLE "I'll Compete" SONGWRITER "Lee Thompson/Daniel Woodgate" REM REPLAYGAIN_TRACK_GAIN -1.67 dB REM REPLAYGAIN_TRACK_PEAK 0.914886 INDEX 01 00:00:00FILE "08 (Waiting For The) Ghost Train.flac" WAVE TRACK 08 AUDIO TITLE "(Waiting For The) Ghost Train" SONGWRITER "Graham McPherson (a" REM REPLAYGAIN_TRACK_GAIN -1.72 dB REM REPLAYGAIN_TRACK_PEAK 0.999969 INDEX 01 00:00:00FILE "09 Uncle Sam.flac" WAVE TRACK 09 AUDIO TITLE "Uncle Sam" SONGWRITER "Chris Foreman/Lee Thompson" REM REPLAYGAIN_TRACK_GAIN -1.57 dB REM REPLAYGAIN_TRACK_PEAK 0.786316 INDEX 01 00:00:00FILE "10 The Sun And The Rain.flac" WAVE TRACK 10 AUDIO TITLE "The Sun And The Rain" SONGWRITER "Mike Barson" REM REPLAYGAIN_TRACK_GAIN -2.79 dB REM REPLAYGAIN_TRACK_PEAK 0.869843 INDEX 01 00:00:00FILE "11 Sweetest Girl.flac" WAVE TRACK 11 AUDIO TITLE "Sweetest Girl" SONGWRITER "Green Gartside" REM REPLAYGAIN_TRACK_GAIN -1.07 dB REM REPLAYGAIN_TRACK_PEAK 0.973083 INDEX 01 00:00:00FILE "12 One Better Day.flac" WAVE TRACK 12 AUDIO TITLE "One Better Day" SONGWRITER "Graham McPherson (a/Mark Bedford" REM REPLAYGAIN_TRACK_GAIN -2.66 dB REM REPLAYGAIN_TRACK_PEAK 0.999481 INDEX 01 00:00:00FILE "13 Victoria Gardens.flac" WAVE TRACK 13 AUDIO TITLE "Victoria Gardens" SONGWRITER "Mike Barson/Cathal Smyth" REM REPLAYGAIN_TRACK_GAIN -2.11 dB REM REPLAYGAIN_TRACK_PEAK 1.000000 INDEX 01 00:00:00FILE "14 Seven Year Scratch.flac" WAVE TRACK 14 AUDIO TITLE "Seven Year Scratch" SONGWRITER "Green Gartside/Cecil Campbell/Madness" REM REPLAYGAIN_TRACK_GAIN -3.56 dB REM REPLAYGAIN_TRACK_PEAK 1.000000 INDEX 01 00:00:00

Доп. информация:

1 Our House 3:13
recording of: Our House
composer: Chris Foreman
lyricist: Carl Smyth
2 Driving in My Car 3:18
recording of: Driving in My Car
composer: Mike Barson
lyricist: Mike Barson
3 Michael Caine 3:33
recording of: Michael Caine
writer: Carl Smyth and Daniel Woodgate
4 Wings of a Dove 3:00
producer: Clive Langer and Alan Winstanley
recording of: Wings of a Dove
writer: Graham McPherson and Carl Smyth
5 Yesterdays Men 4:07
recording of: Yesterday's Men
writer: Chris Foreman and Graham McPherson
6 Tomorrow's Just Another Day 3:13
recording of:
Tomorrow's (Just Another Day)
writer:
Mike Barson and Carl Smyth
7 I'll Compete 3:20
recording of: I'll Compete
writer: Lee “Kix” Thompson and Daniel Woodgate
8 (Waiting for the) Ghost Train 3:44
recording of: (Waiting for) The Ghost Train
writer: Graham McPherson
9 Uncle Sam 3:05
recording of: Uncle Sam
writer: Chris Foreman and Lee “Kix” Thompson
10 The Sun and the Rain 3:27
recording of: The Sun and the Rain
composer: Mike Barson
lyricist: Mike Barson
publisher: EMI Music Publishing Ltd.
11 Sweetest Girl 4:20
cover recording of: Sweetest Girl
composer: Green Gartside
lyricist: Green Gartside
12 One Better Day 4:02
recording of: One Better Day
writer: Mark Bedford and Graham McPherson
13 Victoria Gardens 3:52
recording of: Victoria Gardens
writer: Mike Barson and Carl Smyth
14 Seven Year Scratch 8:39


[islamvillage.com]_t_5525507.torrent
Торрент: Зарегистрирован ·  [ 2018-03-03 20:49 ] ·  89f7be5eb7f2e861f400975e2a6901657d30a6cb

3 KB

Статус: проверено
Скачан: 0 раз
Размер: 344 MB
Оценка: 
(Голосов: 0)
Сказали спасибо: 0  Спасибо
Похожие темы
[Профиль]    [ЛС]
Показать сообщения:    
Ответить на тему

Текущее время: Сегодня 15:19

Часовой пояс: GMT + 7



Вы не можете начинать темы
Вы не можете отвечать на сообщения
Вы не можете редактировать свои сообщения
Вы не можете удалять свои сообщения
Вы не можете голосовать в опросах
Вы не можете прикреплять файлы к сообщениям
Вы можете скачивать файлы


IMDb: 5 HD Secret Santa | Raumlufttechnik | Ponto Cego Torrent Comédia / Drama / Policial 2018 1080p 720p Bluray Full HD HD MKV / MP4 Download