Вадим Коростылев: Пиросмани, Пиросмани (Жанна Демихова) [2017, трагедия, SATRip-AVC] Лобненский муниципальный театр Куклы и люди

Ответить на тему
Статистика раздачи [Обновить пиров]
Размер:  745 MB   |    Зарегистрирован:  9 месяцев 10 дней   |    Скачан:  0 раз

Полного источника не было: Никогда

 
   
 
 
 
Автор Сообщение

islamvillage.com

Создавать темы 07-Апр-2018 23:09

[Цитировать]

Пиросмани, Пиросмани...
Вадим Коростылев- Название театра: Лобненский муниципальный театр "Куклы и люди"
Жанр: трагедия
Год выхода: 2017
Продолжительность: 01:12:30
Режиссёр-постановщик: Жанна Демихова
В ролях: Григорий Паронян (Нико Пиросмани), Евгения Ульянова (Ия), Игорь Фомин (Русский художник), Александр Расстригин (Григол), Андрей Сенькин (Рыбак в красной рубахе), Светлана Рощенкова (Актриса Маргарита), Владислав Богданович (Дворник)
Описание: по пьесе Вадима Коростылева "Пиросмани. Праздник одиночества". История любви талантливого грузинского художника Нико Пиросмани к французской актрисе Маргарите ле Севр.
Доп. информация: Intelsat 15 (85.0°E) Телеканал "Театр" DVB-S
Награда: лауреат фестиваля "Театры Подмосковья".

Качество видео: SATRip-AVC
Формат файла: MKV
Видео: AVC (H.264), 720x400 (16:9), 25 fps, ~1274 kbps avg, 0.177 bit/pixel
Аудио: MPEG Audio 2, 2 ch, 48 kHz, 160 kbps

MediaInfo

GeneralUnique ID : 267040154300230131384104438835441700947 (0xC8E6101DA04F632FDD47A7564F221053)Complete name : [apreder]Pirosmani_Pirosmani(2017)SATRip.mkvFormat : MatroskaFormat version : Version 2File size : 745 MiBDuration : 1 h 12 minOverall bit rate : 1 436 kb/sMovie name : Пиросмани, Пиросмани...Released date : 2017-00-00Encoded date : UTC 2018-04-01 07:05:54Writing application : mkvmerge v21.0.0 ('Tardigrades Will Inherit The Earth') 64-bitWriting library : libebml v1.3.5 + libmatroska v1.4.8Cover : YesAttachments : cover.jpg / small_cover.jpgACTOR : Григорий ПаронянDIRECTOR : Жанна ДемиховаGENRE : DramaKEYWORDS : TorrentcLAW_RATING : 16+
VideoID : 1Format : AVCFormat/Info : Advanced Video CodecFormat profile : High@L4.1Format settings : CABAC / 9 Ref FramesFormat settings, CABAC : YesFormat settings, RefFrames : 9 framesCodec ID : V_MPEG4/ISO/AVCDuration : 1 h 12 minBit rate : 1 274 kb/sWidth : 720 pixelsHeight : 400 pixelsDisplay aspect ratio : 16:9Frame rate mode : ConstantFrame rate : 25.000 FPSColor space : YUVChroma subsampling : 4:2:0Bit depth : 8 bitsScan type : ProgressiveBits/(Pixel*Frame) : 0.177Stream size : 647 MiB (87%)Writing library : x264 core 155 r2901 7d0ff22Encoding settings : cabac=1 / ref=9 / deblock=1:-1:-1 / analyse=0x3:0x133 / me=umh / subme=10 / psy=1 / psy_rd=1.00:0.15 / mixed_ref=1 / me_range=24 / chroma_me=1 / trellis=2 / 8x8dct=1 / cqm=0 / deadzone=21,11 / fast_pskip=1 / chroma_qp_offset=-3 / threads=12 / lookahead_threads=3 / sliced_threads=0 / nr=0 / decimate=1 / interlaced=0 / bluray_compat=0 / constrained_intra=0 / bframes=16 / b_pyramid=2 / b_adapt=2 / b_bias=0 / direct=3 / weightb=1 / open_gop=0 / weightp=2 / keyint=250 / keyint_min=25 / scenecut=40 / intra_refresh=0 / rc_lookahead=60 / rc=2pass / mbtree=1 / bitrate=1274 / ratetol=1.0 / qcomp=0.60 / qpmin=0 / qpmax=69 / qpstep=4 / cplxblur=20.0 / qblur=0.5 / vbv_maxrate=62500 / vbv_bufsize=78125 / nal_hrd=none / filler=0 / ip_ratio=1.40 / aq=1:1.00Default : YesForced : No
AudioID : 2Format : MPEG AudioFormat version : Version 1Format profile : Layer 2Codec ID : A_MPEG/L2Codec ID/Hint : MP2Duration : 1 h 12 minBit rate mode : ConstantBit rate : 160 kb/sChannel(s) : 2 channelsSampling rate : 48.0 kHzCompression mode : LossyStream size : 83.0 MiB (11%)Language : RussianDefault : YesForced : No

Скриншот с названием постановки

- [4'132]


[islamvillage.com]_t_5542695.torrent
Торрент: Зарегистрирован ·  [ 2018-04-07 23:09 ] ·  d67432a21d36a687866d9f1e74e843fdcf99f3d9

8 KB

Статус: проверено
Скачан: 0 раз
Размер: 745 MB
Оценка: 
(Голосов: 0)
Сказали спасибо: 0  Спасибо
Похожие темы
[Профиль]    [ЛС]
Показать сообщения:    
Ответить на тему

Текущее время: Сегодня 10:01

Часовой пояс: GMT + 7



Вы не можете начинать темы
Вы не можете отвечать на сообщения
Вы не можете редактировать свои сообщения
Вы не можете удалять свои сообщения
Вы не можете голосовать в опросах
Вы не можете прикреплять файлы к сообщениям
Вы можете скачивать файлы


5 Tier Heavy Duty Steel Metal Shelving Racking Industrial Garage Shelf | How to Be a Latin Lover | Gothamprosieben.de