Розенкранц и Гильденстерн мертвы / Rosencrantz & Guildenstern are Dead (Давид Лево / David Leveaux) [2017, Великобритания, драма, комедия, HDTVRip] Old Vic

Ответить на тему
Статистика раздачи [Обновить пиров]
Размер:  2.17 GB   |    Зарегистрирован:  8 месяцев 22 дня   |    Скачан:  2 раза

Полного источника не было: 4 месяца 19 дней

 
   
 
 
 
Автор Сообщение

islamvillage.com

Создавать темы 25-Апр-2018 22:47

[Цитировать]

Розенкранц и Гильденстерн мертвы / Rosencrantz & Guildenstern are Dead
Название театра: Old Vic
Страна: Великобритания
Жанр: драма, комедия
Год выхода: 2017
Продолжительность: 02:30:22
Перевод: Субтитры - amrita
Субтитры: русские
Оригинальная аудиодорожка: английский

Режиссёр: Давид Лево / David Leveaux
В ролях: Дэниэл Рэдклифф, Джошуа МакГуайр, Люк Маллинс, Тео Огандип, Хелена Уилсон, Джози Данн, Луиза Биделл, Тим ван Айкен
Описание: Пьеса Тома Стоппарда.
На фоне событий «Гамлета» два незадачливых второстепенных персонажа, Розенкранц и Гильденстерн, оказываются в центре внимания. Молодой комедийный дуэт то присоединяется к действию всемирно известной пьесы Шекспира, то покидает его, и все больше теряет почву под ногами, когда разворачивается их версия истории.

Качество видео: HDTVRip
Формат файла: AVI
Видео: 704x400 (1.76:1), 25 fps, XviD build 73 ~1678 kbps avg, 0.24 bit/pixel
Аудио: 48 kHz, AC3 Dolby Digital, 3/2 (L,C,R,l,r) + LFE ch, ~384 kbps

Фрагмент субтитров

901
01:21:29,324 --> 01:21:32,340
Я бы на твоём месте об этом не думал.
Только расстроишься.
902
01:21:34,301 --> 01:21:37,879
Вечность - ужасная вещь.
Когда она кончится-то вообще?
903
01:21:42,865 --> 01:21:44,877
Два ранних христианина встретились как-то в раю.
904
01:21:45,647 --> 01:21:47,757
'Эй, Савл из Тарса!' - вскричал один. -
'Что ты здесь делаешь?'
905
01:21:48,593 --> 01:21:50,632
'Тарса-Шмарса, - ответил второй,
'Я уже Павел вообще-то'.
906
01:21:55,383 --> 01:21:59,794
Им все равно. Нам не на что рассчитывать.
Мы можем молчать, пока не позеленеем...
907
01:22:00,050 --> 01:22:01,465
- ...и все равно они не явятся.
- Или посинеем, или покраснеем.
908
01:22:03,973 --> 01:22:06,774
Христианин, мусульманин и еврей
встретились однажды в закрытой карете.
909
01:22:07,571 --> 01:22:09,389
'Зильберштейн!' вскричал еврей, 'Кто твой друг?'
910
01:22:09,984 --> 01:22:13,014
'Его зовут Абдулла', ответил мусульманин,
'но он мне не друг после обращения в другую веру'

MediaInfo

General
Complete name : H:\Rosencrantz.&.Guildenstern.are.Dead.2017.hdtvrip_[2.18]_[teko]\Rosencrantz.&.Guildenstern.are.Dead.2017.hdtvrip_[2.18].avi
Format : AVI
Format/Info : Audio Video Interleave
Format profile : OpenDML
File size : 2.17 GiB
Duration : 2h 30mn
Overall bit rate : 2 069 Kbps
Writing application : VirtualDubMod 1.5.10.3 | www.virtualdub-fr.org || (build 2550/release)
Writing library : VirtualDubMod build 2550/release
Video
ID : 0
Format : MPEG-4 Visual
Format profile : Advanced Simple@L5
Format settings, BVOP : 2
Format settings, QPel : No
Format settings, GMC : No warppoints
Format settings, Matrix : Custom
Codec ID : XVID
Codec ID/Hint : XviD
Duration : 2h 30mn
Bit rate : 1 673 Kbps
Width : 704 pixels
Height : 400 pixels
Display aspect ratio : 16:9
Frame rate : 25.000 fps
Color space : YUV
Chroma subsampling : 4:2:0
Bit depth : 8 bits
Scan type : Progressive
Compression mode : Lossy
Bits/(Pixel*Frame) : 0.238
Stream size : 1.76 GiB (81%)
Writing library : XviD 73
Audio
ID : 1
Format : AC-3
Format/Info : Audio Coding 3
Mode extension : CM (complete main)
Format settings, Endianness : Big
Codec ID : 2000
Duration : 2h 30mn
Bit rate mode : Constant
Bit rate : 384 Kbps
Channel(s) : 6 channels
Channel positions : Front: L C R, Side: L R, LFE
Sampling rate : 48.0 KHz
Frame rate : 31.250 fps (1536 spf)
Compression mode : Lossy
Stream size : 413 MiB (19%)
Alignment : Split accross interleaves
Interleave, duration : 40 ms (1.00 video frame)
Interleave, preload duratio : 500 ms
:--


[islamvillage.com]_t_5549701.torrent
Торрент: Зарегистрирован ·  [ 2018-04-25 22:46 ] ·  3c21b173162e00325566700eb31d17efd5c6464f

12 KB

Статус: проверено
Скачан: 2 раз
Размер: 2.17 GB
Оценка: 
(Голосов: 0)
Сказали спасибо: 0  Спасибо
Похожие темы
[Профиль]    [ЛС]
Показать сообщения:    
Ответить на тему

Текущее время: Сегодня 09:59

Часовой пояс: GMT + 7



Вы не можете начинать темы
Вы не можете отвечать на сообщения
Вы не можете редактировать свои сообщения
Вы не можете удалять свои сообщения
Вы не можете голосовать в опросах
Вы не можете прикреплять файлы к сообщениям
Вы можете скачивать файлы


Ray Donovan S03E12 HDTV x264-LOL [eztv] | UFC 232 Early Prelims WEB-DL H264 Fight-BB | x particles