Король Лир (Денис Бокурадзе) [2016, трагедия, WEB-DLRip, AVC] Театр-студия «Грань», Новокуйбышевск

Ответить на тему
Статистика раздачи [Обновить пиров]
Размер:  977 MB   |    Зарегистрирован:  8 месяцев 22 дня   |    Скачан:  1 раз

Полного источника не было: 5 месяцев 17 дней

 
   
 
 
 
Автор Сообщение

islamvillage.com

Создавать темы 25-Апр-2018 22:47

[Цитировать]

Король Лир
Название театра: Театр-студия «Грань», Новокуйбышевск
Жанр: трагедия
Год выхода: 2016
Продолжительность: 03:47:00
Режиссёр: Денис Бокурадзе
В ролях: Даниил Богомолов, Юлия Бокурадзе, Любовь Тювилина,Екатерина Кажаева, Сергей Поздняков, Кирилл Стерликов, Василий Яров
Описание: Пьеса была написана в ту эпоху, когда в английском обществе наблюдались перемены: старая феодальная аристократия теряла власть и богатство, при этом пытаясь возродить прежние порядки. Все это нашло свое отражение в данной трагедии: Британию безумный король разделил между герцогом Корновалльским и герцогом Альбанским.
Доп. информация:
Российская национальная театральная премия и фестиваль Золотая маска 2018 год.
В антракте интервью с Юлией Бокурадзе.
Качество видео: WEB-DLRip
Формат файла: MP4
Видео: AVC 852x480 16:9 25.000 FPS 464 kb/s
Аудио: MPEG 44.1 kHz 128 kb/s 2 channels

MediaInfo

General
Complete name : Lir.mp4
Format : MPEG-4
Format profile : Base Media
Codec ID : isom (mp41/avc1)
File size : 977 MiB
Duration : 3 h 47 min
Overall bit rate : 599 kb/s
Encoded date : UTC 2018-04-15 06:11:58
Tagged date : UTC 2018-04-15 06:11:58
Writing application : vlc 3.0.1 stream output
Video
ID : 2
Format : AVC
Format/Info : Advanced Video Codec
Format profile : High@L3
Format settings : CABAC / 4 Ref Frames
Format settings, CABAC : Yes
Format settings, ReFrames : 4 frames
Codec ID : avc1
Codec ID/Info : Advanced Video Coding
Duration : 3 h 47 min
Bit rate : 464 kb/s
Width : 864 pixels
Original width : 852 pixels
Height : 482 pixels
Original height : 480 pixels
Display aspect ratio : 16:9
Frame rate mode : Constant
Frame rate : 25.000 FPS
Color space : YUV
Chroma subsampling : 4:2:0
Bit depth : 8 bits
Scan type : Progressive
Bits/(Pixel*Frame) : 0.045
Stream size : 757 MiB (77%)
Writing library : x264 core 148
Encoding settings : cabac=1 / ref=3 / deblock=1:0:0 / analyse=0x3:0x13 / me=hex / subme=7 / psy=1 / psy_rd=1.00:0.00 / mixed_ref=1 / me_range=16 / chroma_me=1 / trellis=1 / 8x8dct=1 / cqm=0 / deadzone=21,11 / fast_pskip=1 / chroma_qp_offset=-2 / threads=6 / lookahead_threads=1 / sliced_threads=0 / nr=0 / decimate=1 / interlaced=0 / bluray_compat=0 / constrained_intra=0 / bframes=3 / b_pyramid=2 / b_adapt=1 / b_bias=0 / direct=1 / weightb=1 / open_gop=0 / weightp=2 / keyint=250 / keyint_min=25 / scenecut=40 / intra_refresh=0 / rc_lookahead=40 / rc=crf / mbtree=1 / crf=23.0 / qcomp=0.60 / qpmin=10 / qpmax=51 / qpstep=4 / ip_ratio=1.40 / aq=1:1.00
Language : English
Encoded date : UTC 2018-04-15 06:11:58
Tagged date : UTC 2018-04-15 06:11:58
Audio
ID : 1
Format : MPEG Audio
Format version : Version 1
Format profile : Layer 2
Codec ID : mp4a-6B
Duration : 3 h 47 min
Source duration : 3 h 47 min
Bit rate mode : Constant
Bit rate : 128 kb/s
Channel(s) : 2 channels
Sampling rate : 44.1 kHz
Compression mode : Lossy
Stream size : 208 MiB (21%)
Source stream size : 208 MiB (21%)
Language : English
Encoded date : UTC 2018-04-15 06:11:58
Tagged date : UTC 2018-04-15 06:11:58

Скриншоты










[islamvillage.com]_t_5549147.torrent
Торрент: Зарегистрирован ·  [ 2018-04-25 22:46 ] ·  5b9dc98de9da0568d6adba2b51dc50e1f7e6a1df

20 KB

Статус: проверено
Скачан: 1 раз
Размер: 977 MB
Оценка: 
(Голосов: 0)
Сказали спасибо: 0  Спасибо
Похожие темы
[Профиль]    [ЛС]
Показать сообщения:    
Ответить на тему

Текущее время: Сегодня 10:39

Часовой пояс: GMT + 7



Вы не можете начинать темы
Вы не можете отвечать на сообщения
Вы не можете редактировать свои сообщения
Вы не можете удалять свои сообщения
Вы не можете голосовать в опросах
Вы не можете прикреплять файлы к сообщениям
Вы можете скачивать файлы


Super Maderos 2 BluRay MicroHD | Xem chương | 隐私政策