(Avant-garde, Experimental, Progressive Metal) [CD] Ihsahn - Ámr (Amr) (Limited Edition) - 2018, FLAC (image+.cue), lossless

Ответить на тему
Статистика раздачи [Обновить пиров]
Размер:  385 MB   |    Зарегистрирован:  8 месяцев 11 дней   |    Скачан:  1 раз

Полного источника не было: 8 месяцев 7 дней

 
   
 
 
 
Автор Сообщение

islamvillage.com

Создавать темы 05-Май-2018 23:01

[Цитировать]

Ihsahn / Ámr (Amr) (Limited Edition)
[img=right]http://i104.fastpic.ru/big/2018/0503/00/b901a0228f...24ac00.jpg[/img]
Жанр: Avant-garde, Experimental, Progressive Metal
Носитель: CD
Страна-производитель диска (релиза): EU
Год издания: 2018
Издатель (лейбл): Candlelight Records
Номер по каталогу: CANDLE738097
Страна исполнителя (группы): Norway
Аудиокодек: FLAC (*.flac)
Тип рипа: image+.cue
Битрейт аудио: lossless
Продолжительность: 55:04
Источник (релизер): собственный рип
Наличие сканов в содержимом раздачи: да
Треклист:
01. Lend Me The Eyes Of The Millenia (5:48)
02. Arcana Imperii (4:53)
03. Samr (5:27)
04. One Less Enemy (5:18)
05. Where You Are Lost And I Belong (5:13)
06. In Rites Of Passage (4:04)
07. Marble Soul (4:04)
08. Twin Black Angels (4:40)
09. Wake (4:25)
10. Alone (Poem by Edgar Allan Poe) (11:12)

Лог создания рипа

Exact Audio Copy V1.3 from 2. September 2016
EAC extraction logfile from 5. May 2018, 3:09
Ihsahn / Amr
Used drive : PIONEER BD-RW BDR-206D Adapter: 1 ID: 0
Read mode : SecureUtilize accurate stream : YesDefeat audio cache : YesMake use of C2 pointers : No
Read offset correction : 667Overread into Lead-In and Lead-Out : NoFill up missing offset samples with silence : YesDelete leading and trailing silent blocks : NoNull samples used in CRC calculations : YesUsed interface : Native Win32 interface for Win NT & 2000
Used output format : User Defined EncoderSelected bitrate : 896 kBit/sQuality : HighAdd ID3 tag : NoCommand line compressor : C:\Progs\!Portable\codecs\flac.exeAdditional command line options : -8 -V -T "ARTIST=%artist%" -T "TITLE=%title%" -T "ALBUM=%albumtitle%" -T "DATE=%year%" -T "TRACKNUMBER=%tracknr%" -T "GENRE=%genre%" -T "PERFORMER=%albuminterpret%" -T "COMPOSER=%composer%" %haslyrics%--tag-from-file=LYRICS="%lyricsfile%"%haslyrics% -T "ALBUMARTIST=%albumartist%" -T "DISCNUMBER=%cdnumber%" -T "TOTALDISCS=%totalcds%" -T "TOTALTRACKS=%numtracks%" -T "COMMENT=Ripped by zombied" %source% -o %dest%
TOC of the extracted CD
Track | Start | Length | Start sector | End sector --------------------------------------------------------- 1 | 0:00.00 | 5:47.59 | 0 | 26083 2 | 5:47.59 | 4:53.13 | 26084 | 48071 3 | 10:40.72 | 5:27.10 | 48072 | 72606 4 | 16:08.07 | 5:17.55 | 72607 | 96436 5 | 21:25.62 | 5:12.69 | 96437 | 119905 6 | 26:38.56 | 4:04.22 | 119906 | 138227 7 | 30:43.03 | 4:03.62 | 138228 | 156514 8 | 34:46.65 | 4:39.55 | 156515 | 177494 9 | 39:26.45 | 4:25.19 | 177495 | 197388 10 | 43:51.64 | 11:12.11 | 197389 | 247799
Range status and errors
Selected range
Filename W:\Upload\IHSAHN [2018] [CD] Amr (Ltd. Ed.)\Ihsahn - 2018 - Amr.wav
Peak level 97.7 % Extraction speed 7.3 X Range quality 100.0 % Test CRC 15792CA3 Copy CRC 15792CA3 Copy OK
No errors occurred
AccurateRip summary
Track 1 not present in databaseTrack 2 not present in databaseTrack 3 not present in databaseTrack 4 not present in databaseTrack 5 not present in databaseTrack 6 not present in databaseTrack 7 not present in databaseTrack 8 not present in databaseTrack 9 not present in databaseTrack 10 not present in database
None of the tracks are present in the AccurateRip database
End of status report
---- CUETools DB Plugin V2.1.6
[CTDB TOCID: vtSq9ZAbQiLRucHYVfnV3Dza22c-] foundSubmit result: already submittedTrack | CTDB Status 1 | (4/4) Accurately ripped 2 | (4/4) Accurately ripped 3 | (4/4) Accurately ripped 4 | (4/4) Accurately ripped 5 | (4/4) Accurately ripped 6 | (4/4) Accurately ripped 7 | (4/4) Accurately ripped 8 | (4/4) Accurately ripped 9 | (4/4) Accurately ripped 10 | (4/4) Accurately ripped
==== Log checksum 98040D464388249B145E25D65DBD62B2FAB49BC7BC8E7D185183DCAE04FD603B ====


[islamvillage.com]_t_5557675.torrent
Торрент: Зарегистрирован ·  [ 2018-05-05 22:57 ] ·  912be5e77d4b0647037235e04a8902cc5fe3e319

31 KB

Статус: проверено
Скачан: 1 раз
Размер: 385 MB
Оценка: 
(Голосов: 0)
Сказали спасибо: 0  Спасибо
Похожие темы
[Профиль]    [ЛС]
Показать сообщения:    
Ответить на тему

Текущее время: Сегодня 02:59

Часовой пояс: GMT + 7



Вы не можете начинать темы
Вы не можете отвечать на сообщения
Вы не можете редактировать свои сообщения
Вы не можете удалять свои сообщения
Вы не можете голосовать в опросах
Вы не можете прикреплять файлы к сообщениям
Вы можете скачивать файлы


Episode 03 | Daniel Stern | Kyou no Kira-kun