(Industrial / Experimental) [2 x CD + DVD] Godflesh - Songs of Love and Hate // Love and Hate in Dub // In All Languages (Reissue, Compilation) - 2009 (1996, 1997, 2001), FLAC (image+.cue), lossless

Ответить на тему
Статистика раздачи [Обновить пиров]
Размер:  862 MB   |    Зарегистрирован:  7 месяцев 28 дней   |    Скачан:  0 раз

Полного источника не было: Никогда

 
   
 
 
 
Автор Сообщение

islamvillage.com

Создавать темы 19-Май-2018 23:15

[Цитировать]

Godflesh - Songs of Love and Hate // Love and Hate in Dub // In All Languages
Жанр: Industrial / Experimental
Носитель: 2 x CD + DVD
Страна-производитель диска (релиза): US
Год издания: 2009
Издатель (лейбл): Earache
Номер по каталогу: MOSH1781
Страна исполнителя (группы): UK
Аудиокодек: FLAC (*.flac)
Тип рипа: image+.cue
Битрейт аудио: lossless
Продолжительность: 1:00:12; 1:11:09
Источник (релизер): Jobforaworm (собственные рипы)
Наличие сканов в содержимом раздачи: да
Довольно бюджетное переиздание, качественно сделан только сам бокс, все остальное так себе: бумага тонкая, краска вонькая, сами диски записаны на среднего качества аппаратуре т.к. сильно гудят и долго грузятся. Но на звук это, естественно, не влияет. Наслаждайтесь;)

Godflesh - 1996 - Songs of Love and Hate [MOSH1781-CD1]

[img=right]http://shop.season-of-mist.com/media/catalog/produ...4506-1.jpg[/img]
CD1-0 Hidden Track 2:29
CD1-1 Wake 4:19
CD1-2 Sterile Prophet 4:18
CD1-3 Circle Of Shit 4:53
CD1-4 Hunter 4:39
CD1-5 Gift From Heaven 7:45
CD1-6 Amoral 4:56
CD1-7 Angel Domain 3:55
CD1-8 Kingdom Come 5:34
CD1-9 Time Death And Wastefulness 6:12
CD1-10 Frail 5:24
CD1-11 Almost Heaven 5:41

Отчёт EAC

Exact Audio Copy V1.3 from 2. September 2016
EAC extraction logfile from 17. May 2018, 16:34
Godflesh / Songs of Love and Hate
Used drive : ASUS DRW-24F1ST a Adapter: 1 ID: 0
Read mode : SecureUtilize accurate stream : YesDefeat audio cache : YesMake use of C2 pointers : No
Read offset correction : 6Overread into Lead-In and Lead-Out : NoFill up missing offset samples with silence : YesDelete leading and trailing silent blocks : NoNull samples used in CRC calculations : YesUsed interface : Native Win32 interface for Win NT & 2000
Used output format : Internal WAV RoutinesSample format : 44.100 Hz; 16 Bit; Stereo
TOC of the extracted CD
Track | Start | Length | Start sector | End sector --------------------------------------------------------- 1 | 2:29.58 | 4:19.35 | 11233 | 30692 2 | 6:49.18 | 4:18.28 | 30693 | 50070 3 | 11:07.46 | 4:53.52 | 50071 | 72097 4 | 16:01.23 | 4:39.40 | 72098 | 93062 5 | 20:40.63 | 7:45.35 | 93063 | 127972 6 | 28:26.23 | 4:56.40 | 127973 | 150212 7 | 33:22.63 | 3:55.18 | 150213 | 167855 8 | 37:18.06 | 5:34.00 | 167856 | 192905 9 | 42:52.06 | 6:12.20 | 192906 | 220825 10 | 49:04.26 | 5:24.57 | 220826 | 245182 11 | 54:29.08 | 5:43.00 | 245183 | 270907
Range status and errors
Selected range
Filename C:\Jobforaworm\Godflesh - Songs of Love and Hate.wav
Peak level 100.0 % Extraction speed 2.3 X Range quality 100.0 % Test CRC B4336442 Copy CRC B4336442 Copy OK
No errors occurred
AccurateRip summary
Track 1 accurately ripped (confidence 17) [4146A639] (AR v2)Track 2 accurately ripped (confidence 17) [35B97A9D] (AR v2)Track 3 accurately ripped (confidence 17) [6966A3BF] (AR v2)Track 4 accurately ripped (confidence 17) [96F73416] (AR v2)Track 5 accurately ripped (confidence 17) [10E7E494] (AR v2)Track 6 accurately ripped (confidence 17) [68493F99] (AR v2)Track 7 accurately ripped (confidence 17) [54F94532] (AR v2)Track 8 accurately ripped (confidence 17) [59FF8C3A] (AR v2)Track 9 accurately ripped (confidence 17) [55B3E6C1] (AR v2)Track 10 accurately ripped (confidence 17) [85C804F9] (AR v2)Track 11 accurately ripped (confidence 17) [075FC5DA] (AR v2)
All tracks accurately ripped
End of status report
---- CUETools DB Plugin V2.1.6
[CTDB TOCID: t_1eVR6WXLnARiQR__Xhw2IBvZs-] foundSubmit result: t_1eVR6WXLnARiQR__Xhw2IBvZs- has been confirmedTrack | CTDB Status 1 | (30/31) Accurately ripped 2 | (30/31) Accurately ripped 3 | (30/31) Accurately ripped 4 | (30/31) Accurately ripped 5 | (30/31) Accurately ripped 6 | (30/31) Accurately ripped 7 | (30/31) Accurately ripped 8 | (30/31) Accurately ripped 9 | (30/31) Accurately ripped 10 | (30/31) Accurately ripped 11 | (30/31) Accurately ripped
==== Log checksum 284B9E976C1CC2DE8FCD62ED341D2E1290A95704D7DEACC2356A22C2CB8F6506 ====

Godflesh - 1997 - Love and Hate in Dub [MOSH1781-CD2]

CD2-1 Circle Of Shit (To The Point Dub) 4:50
CD2-2 Wake (Break Mix) 5:23
CD2-3 Almost Heaven (Closer Mix) 5:43
CD2-4 Gift From Heaven (Breakbeat) 5:55
CD2-5 Frail (Now Broken) 5:18
CD2-6 Sterile Prophet (Version) 4:43
CD2-7 Almost Heaven (Helldub) 5:50
CD2-8 Kingdom Come (Version) 5:52
CD2-9 Time, Death And Wastefulness (In Dub) 7:16
CD2-10 Sterile Prophet (In Dub) 5:04
CD2-11 Domain 5:04
CD2-12 Gift From Heaven (Heavenly) 10:11

Отчёт EAC

Exact Audio Copy V1.3 from 2. September 2016
EAC extraction logfile from 17. May 2018, 17:50
Godflesh / Love and Hate in Dub
Used drive : ASUS DRW-24F1ST a Adapter: 1 ID: 0
Read mode : SecureUtilize accurate stream : YesDefeat audio cache : YesMake use of C2 pointers : No
Read offset correction : 6Overread into Lead-In and Lead-Out : NoFill up missing offset samples with silence : YesDelete leading and trailing silent blocks : NoNull samples used in CRC calculations : YesUsed interface : Native Win32 interface for Win NT & 2000
Used output format : Internal WAV RoutinesSample format : 44.100 Hz; 16 Bit; Stereo
TOC of the extracted CD
Track | Start | Length | Start sector | End sector --------------------------------------------------------- 1 | 0:00.32 | 4:49.48 | 32 | 21754 2 | 4:50.05 | 5:23.60 | 21755 | 46039 3 | 10:13.65 | 5:42.22 | 46040 | 71711 4 | 15:56.12 | 5:54.73 | 71712 | 98334 5 | 21:51.10 | 5:18.52 | 98335 | 122236 6 | 27:09.62 | 4:42.23 | 122237 | 143409 7 | 31:52.10 | 5:49.72 | 143410 | 169656 8 | 37:42.07 | 5:52.38 | 169657 | 196094 9 | 43:34.45 | 7:16.20 | 196095 | 228814 10 | 50:50.65 | 5:03.60 | 228815 | 251599 11 | 55:54.50 | 5:04.17 | 251600 | 274416 12 | 60:58.67 | 10:10.15 | 274417 | 320181
Range status and errors
Selected range
Filename C:\Jobforaworm\Godflesh - Love and Hate in Dub.wav
Peak level 100.0 % Extraction speed 2.3 X Range quality 100.0 % Test CRC 64E953DB Copy CRC 64E953DB Copy OK
No errors occurred
AccurateRip summary
Track 1 accurately ripped (confidence 6) [277B13A2] (AR v2)Track 2 accurately ripped (confidence 6) [507C2AB0] (AR v2)Track 3 accurately ripped (confidence 6) [2B5201FD] (AR v2)Track 4 accurately ripped (confidence 6) [B92D7D76] (AR v2)Track 5 accurately ripped (confidence 6) [9B56F511] (AR v2)Track 6 accurately ripped (confidence 6) [7B2B1E5C] (AR v2)Track 7 accurately ripped (confidence 6) [8DB50967] (AR v2)Track 8 accurately ripped (confidence 6) [74B70134] (AR v2)Track 9 accurately ripped (confidence 6) [890E8039] (AR v2)Track 10 accurately ripped (confidence 6) [431C9752] (AR v2)Track 11 accurately ripped (confidence 6) [2CF56B53] (AR v2)Track 12 accurately ripped (confidence 6) [DC066BF5] (AR v2)
All tracks accurately ripped
End of status report
---- CUETools DB Plugin V2.1.6
[CTDB TOCID: .G5R2UiP26nABIHHi7alOhW02u8-] foundSubmit result: .G5R2UiP26nABIHHi7alOhW02u8- has been confirmedTrack | CTDB Status 1 | (17/17) Accurately ripped 2 | (17/17) Accurately ripped 3 | (17/17) Accurately ripped 4 | (17/17) Accurately ripped 5 | (17/17) Accurately ripped 6 | (17/17) Accurately ripped 7 | (17/17) Accurately ripped 8 | (17/17) Accurately ripped 9 | (17/17) Accurately ripped 10 | (17/17) Accurately ripped 11 | (17/17) Accurately ripped 12 | (17/17) Accurately ripped
==== Log checksum 07956262DF54CABB2F132B3C52E84B234F6C2FDDDAA53B81EB4FBE795571B3AE ====

Godflesh - 2001 - In All Languages (DVD) [MOSH1781DVD]

DVD1 Crush My Soul
DVD2 Mothra
DVD3 Slavestate
DVD4 Christbait Rising
DVD5 Avalanche Master Song
СКАЧАТЬ


[islamvillage.com]_t_5563073.torrent
Торрент: Зарегистрирован ·  [ 2018-05-19 23:11 ] ·  696070f32cd1839316ad2255fdda5cb1815994b3

21 KB

Статус: проверено
Скачан: 0 раз
Размер: 862 MB
Оценка: 
(Голосов: 0)
Сказали спасибо: 0  Спасибо
Похожие темы
[Профиль]    [ЛС]
Показать сообщения:    
Ответить на тему

Текущее время: Сегодня 03:42

Часовой пояс: GMT + 7



Вы не можете начинать темы
Вы не можете отвечать на сообщения
Вы не можете редактировать свои сообщения
Вы не можете удалять свои сообщения
Вы не можете голосовать в опросах
Вы не можете прикреплять файлы к сообщениям
Вы можете скачивать файлы


Sakurada Reset English Subbed | Vintage Camera Shoulder Neck Strap For Nikon Canon Sony Panasonic SLR DSLR UK | avril 2017