Николай Гоголь. Вадим Жук. Шинель - Пальто (Иосиф Райхельгауз) [2017, драма, авангард, музыкальный, DVB-AVC] Московский театр Школа современной пьесы

Ответить на тему
Статистика раздачи [Обновить пиров]
Размер:  777 MB   |    Зарегистрирован:  6 месяцев 20 дней   |    Скачан:  0 раз

Полного источника не было: Никогда

 
   
 
 
 
Автор Сообщение

islamvillage.com

Создавать темы 27-Июн-2018 21:57

[Цитировать]

Шинель/Пальто
Николай Гоголь/Вадим Жук- Название театра: Московский театр "Школа современной пьесы"
Жанр: драма, авангард, музыкальный
Год выхода: 2017
Продолжительность: 01:37:17
Режиссёр-постановщик: Иосиф Райхельгауз
В ролях: Дмитрий Хоронько, Джульетта Геринг, Татьяна Циренина, Александр Овчинников, Алексей Гнилицкий, Николай Голубев, Павел Дроздов, Максим Евсеев, Евгений Козлов, Иван Мамонов, Кирилл Снегирев, Марк Тюриков, Александр Цой
Описание: Посвящается Альберту Филозову и его несыгранной роли. В спектакле использованы музыкальные темы Максима Дунаевского. Как только не ставили гоголевскую Шинель! И в театре, и в кино, и в опере, и в анимации и даже с женщиной-актрисой в роли Башмачкина. И это неудивительно, ведь всем известен афоризм "Все мы вышли из гоголевской "ШИНЕЛИ". Театр "Школа современной пьесы" тоже вышел из нее и пошел еще дальше: Гоголя поют на музыку Максима Дунаевского в аранжировке Дмитрия Хоронько в сопровождении живого джазового оркестра, разместившегося на балконе, а Башмачкина и вовсе нет. Зато есть ШИНЕЛЬ/ПАЛЬТО в самых разных вариантах – от современного пуховика до гигантской накидки с мехом. Артисты играют не только с текстом Гоголя, но и со зрителями: вы сразу не поймете, когда спектакль начался, когда он закончился, не успеете оглянуться – и сами окажетесь участником действия. Дмитрий Хоронько сыграет сразу несколько ролей – от автора до Призрака Башмачкина, актеры покажут, как драматические артисты могут вживую петь и одновременно танцевать на льду, а в конце всех ожидает сюрприз: все зрители смогут ВОЙТИ В ГОГОЛЕВСКУЮ ШИНЕЛЬ.
Доп. информация: Intelsat 15 (85.0°E) Телеканал "Театр" DVB-S

Качество видео: DVB-AVC
Формат файла: MKV
Видео: AVC (H.264), 720x576@1024x576 (16:9), 25 fps, ~934 kbps avg, 0.090 bit/pixel
Аудио: MPEG Audio 2, 2 ch, 48 kHz, 160 kbps

MediaInfo

GeneralUnique ID : 4347048304805744081830424376896438516 (0x34536075F4ED0E1EBD546C1EA60C0F4)Complete name : [apreder]Schinel_Palto(2017)DVB.mkvFormat : MatroskaFormat version : Version 2File size : 777 MiBDuration : 1 h 37 minOverall bit rate : 1 116 kb/sMovie name : Шинель/ПальтоReleased date : 2017-00-00Encoded date : UTC 2018-06-25 06:01:14Writing application : mkvmerge v24.0.0 ('Beyond The Pale') 64-bitWriting library : libebml v1.3.6 + libmatroska v1.4.9Cover : YesAttachments : cover.jpg / small_cover.jpgDIRECTOR : Иосиф РайхельшаузGENRE : DramaKEYWORDS : TorrentcLAW_RATING : 16+
VideoID : 1Format : AVCFormat/Info : Advanced Video CodecFormat profile : Main@L3Format settings : CABAC / 3 Ref FramesFormat settings, CABAC : YesFormat settings, RefFrames : 3 framesFormat settings, GOP : M=4, N=28Codec ID : V_MPEG4/ISO/AVCDuration : 1 h 37 minBit rate : 934 kb/sWidth : 720 pixelsHeight : 576 pixelsDisplay aspect ratio : 16:9Original display aspect ratio : 16:9Frame rate mode : ConstantFrame rate : 25.000 FPSStandard : ComponentColor space : YUVChroma subsampling : 4:2:0Bit depth : 8 bitsScan type : ProgressiveBits/(Pixel*Frame) : 0.090Stream size : 650 MiB (84%)Default : YesForced : NoColor range : LimitedColor primaries : BT.601 PALTransfer characteristics : BT.470 System B/GMatrix coefficients : BT.470 System B/G
AudioID : 2Format : MPEG AudioFormat version : Version 1Format profile : Layer 2Codec ID : A_MPEG/L2Codec ID/Hint : MP2Duration : 1 h 37 minBit rate mode : ConstantBit rate : 160 kb/sChannel(s) : 2 channelsSampling rate : 48.0 kHzCompression mode : LossyStream size : 111 MiB (14%)Language : RussianDefault : YesForced : No

Скриншот с названием постановки

Скриншоты


Резервные скриншоты


- [4'259]


[islamvillage.com]_t_5579240.torrent
Торрент: Зарегистрирован ·  [ 2018-06-27 21:57 ] ·  eeec5b4dfddbbb4e7d120108f04c3fe58e5f9474

8 KB

Статус: проверено
Скачан: 0 раз
Размер: 777 MB
Оценка: 
(Голосов: 0)
Сказали спасибо: 0  Спасибо
Похожие темы
[Профиль]    [ЛС]
Показать сообщения:    
Ответить на тему

Текущее время: Сегодня 11:07

Часовой пояс: GMT + 7



Вы не можете начинать темы
Вы не можете отвечать на сообщения
Вы не можете редактировать свои сообщения
Вы не можете удалять свои сообщения
Вы не можете голосовать в опросах
Вы не можете прикреплять файлы к сообщениям
Вы можете скачивать файлы


Education and Despair - 2448 Words | Tate no Yuusha no Nariagari - Raw Chap 24 | WordPress.