Михаил Рощин. Про любовь (Юрий Кравец) [2017, мелодрама, драма, комедия, DVB-AVC] Московская театральная школа Олега Табакова

Ответить на тему
Статистика раздачи [Обновить пиров]
Размер:  898 MB   |    Зарегистрирован:  6 месяцев 20 дней   |    Скачан:  0 раз

Полного источника не было: Никогда

 
   
 
 
 
Автор Сообщение

islamvillage.com

Создавать темы 27-Июн-2018 21:57

[Цитировать]

Про любовь
Михаил Рощин- Название театра: Московская театральная школа Олега Табакова
Жанр: мелодрама, драма, комедия
Год выхода: 2017
Продолжительность: 01:40:10
Режиссёр-постановщик: Юрий Кравец
В ролях: Мария Пестунова, Роман Смирнов, Артур Касимов, Альбина Кабалина, Никита Карпинский, Владислав Наумов, Глеб Уфимцев, Эдуард Кашпоров, Арина Автушенко, Евгений Константинов, Дарья Кулида, Изабель Эйдлен, Павел Шевандо, Никита Еленев
Описание: Вечер памяти советского и российского прозаика, драматурга и сценариста Михаила Рощина в центре драматургии и режиссуры Алексея Казанцева и Михаила Рощина. Дипломный спектакль 3-го курса московской театральной школы Олега Табакова по пьесам М.Рощина: "Радуга зимой", "Валентин и Валентина", "Муж и жена снимут комнату", - показывает сложности, с которыми сталкивается юная, неопытная любовь. Во все времена каждое поколение от мала до велика стремилось быть понятыми, счастливыми! А самое главное - любить и быть любимыми! Именно это и делает нас живыми и настоящими.
Доп. информация: Intelsat 15 (85.0°E) Телеканал "Театр" DVB-S

Качество видео: DVB-AVC
Формат файла: MKV
Видео: AVC (H.264), 720x576@1024x576 (16:9), 25 fps, ~1068 kbps avg, 0.103 bit/pixel
Аудио: MPEG Audio 2, 2 ch, 48 kHz, 160 kbps

MediaInfo

GeneralUnique ID : 110990197929833116808065335179031557018 (0x537FEF40274524475B4D2FBF06A3339A)Complete name : [apreder]Pro_lubob(2017)DVB.mkvFormat : MatroskaFormat version : Version 2File size : 898 MiBDuration : 1 h 40 minOverall bit rate : 1 253 kb/sMovie name : Про любовьReleased date : 2017-00-00Encoded date : UTC 2018-06-25 05:17:50Writing application : mkvmerge v24.0.0 ('Beyond The Pale') 64-bitWriting library : libebml v1.3.6 + libmatroska v1.4.9Cover : YesAttachments : cover.jpg / small_cover.jpgDIRECTOR : Юрий КравецGENRE : Drama, Romance, ComedyKEYWORDS : TorrentcLAW_RATING : 16+
VideoID : 1Format : AVCFormat/Info : Advanced Video CodecFormat profile : Main@L3Format settings : CABAC / 3 Ref FramesFormat settings, CABAC : YesFormat settings, RefFrames : 3 framesCodec ID : V_MPEG4/ISO/AVCDuration : 1 h 40 minBit rate : 1 068 kb/sWidth : 720 pixelsHeight : 576 pixelsDisplay aspect ratio : 16:9Original display aspect ratio : 16:9Frame rate mode : ConstantFrame rate : 25.000 FPSStandard : ComponentColor space : YUVChroma subsampling : 4:2:0Bit depth : 8 bitsScan type : InterlacedScan type, store method : Separated fieldsScan order : Top Field FirstBits/(Pixel*Frame) : 0.103Stream size : 765 MiB (85%)Default : YesForced : NoColor range : LimitedColor primaries : BT.601 PALTransfer characteristics : BT.470 System B/GMatrix coefficients : BT.470 System B/G
AudioID : 2Format : MPEG AudioFormat version : Version 1Format profile : Layer 2Codec ID : A_MPEG/L2Codec ID/Hint : MP2Duration : 1 h 40 minBit rate mode : ConstantBit rate : 160 kb/sChannel(s) : 2 channelsSampling rate : 48.0 kHzCompression mode : LossyStream size : 115 MiB (13%)Language : RussianDefault : YesForced : No

Скриншот с названием постановки

- [4'258]


[islamvillage.com]_t_5579228.torrent
Торрент: Зарегистрирован ·  [ 2018-06-27 21:57 ] ·  10107874b252c90f9ba32df4dceb8287401d7bbb

9 KB

Статус: проверено
Скачан: 0 раз
Размер: 898 MB
Оценка: 
(Голосов: 0)
Сказали спасибо: 0  Спасибо
Похожие темы
[Профиль]    [ЛС]
Показать сообщения:    
Ответить на тему

Текущее время: Сегодня 10:38

Часовой пояс: GMT + 7



Вы не можете начинать темы
Вы не можете отвечать на сообщения
Вы не можете редактировать свои сообщения
Вы не можете удалять свои сообщения
Вы не можете голосовать в опросах
Вы не можете прикреплять файлы к сообщениям
Вы можете скачивать файлы


Baixar APK | beau ruban en soie, 2.70 m X 3 cm, ancien | Gs-173-receptionist in the internal 1 watch method to the female ... added by Bolabola 17.07k*