Приглашение в замок (Наталья Людскова) [2012, ироническая комедия, WEB-DLRip] Московский областной театр драмы и комедии, г. Ногинск

Ответить на тему
Статистика раздачи [Обновить пиров]
Размер:  1.45 GB   |    Зарегистрирован:  6 месяцев 20 дней   |    Скачан:  0 раз

Полного источника не было: Никогда

 
   
 
 
 
Автор Сообщение

islamvillage.com

Создавать темы 27-Июн-2018 21:57

[Цитировать]

Приглашение в замок Название театра: Московский областной театр драмы и комедии, г. Ногинск.
Год выхода: 2012.
Жанр: ироническая комедия.
Продолжительность: 02:03:50.
Режиссер-постановщик спектакля: Наталья Людскова.
Действующие лица и исполнители:
Леди Демерморт, хозяйка замка - заслуженная артистка России Надежда Гуртовенко,
Орас, Фредерик, ее племянники, братья-близнецы - Александр Миши,
Леди Доротея Индия, их двоюродная сестра - Светлана Максимова,
Ромуальд Мессершман, банкир - заслуженный артист России Андрей Троицкий,
Диана Мессершман, его дочь - Марианна Лукина,
Патрис Бомбель, секретарь Мессершмана, любовник леди Доротеи - Андрей Глазунов,
Роменвиль, гость замка леди Демерморт - заслуженный артист России Виктор Башинский,
Изабелла, фигурантка парижской «Гранд-Опера» - Елена Пашкова,
Мать Изабеллы - Татьяна Касаткина,
Мадемуазель Капюла, компаньонка леди Демерморт - заслуженная артистка России Татьяна Телегина,
Жозюэ, дворецкий в замке леди Демерморт - Федор Казаков.
О спектакле:
Ироническая пьеса о любви, странном необъяснимом чувстве, которым одни дорожат, как хрустальной вазой, а другие пинают, подобно футбольному мячу… Кое-кто утверждает, что все в этом мире делается во имя любви. Жан Ануй хоть и задорно смеется над этим, но не опровергает эту избитую истину. Все поступки, в мире, выстроенном драматургом, совершаются во имя любви, но как различны эти люди и эти поступки…
Дополнительная информация:
Страна: Россия .
Автор: Жан Ануй.
Перевод с французского Натальи Яхниной.
Художник-постановщик: Валерий Болдырев.
Художник по костюмам: Елена Пиотровская.
Хореограф: Дмитрий Проценко.
Музыкальное оформление: Олег Королев, Юрий Пикунов, Алина Скрыпник.
[img]http://a.radikal.ru/a01/1806/8e/c5c67543ba60.jpg[/img]
О спектакле.

Рип sharky.

Качество видео:...WEB-DLRip
Формат файла:.................AVI
Видео:..704x400 (1.76:1), 25 fps, XviD build 47 ~1475 kbps avg, 0.21 bit/pixel
Аудио:..48 kHz, AC3 Dolby Digital, 2/0 (L,R) ch, ~192 kbps

Отчет Media Info

General
Complete name : Priglashenie.v.zamok_Moskovskij.OTDK.2012.XviD.WEB-DLRip.fenixclub.avi
Format : AVI
Format/Info : Audio Video Interleave
File size : 1.45 GiB
Duration : 2h 3mn
Overall bit rate : 1 677 Kbps
Writing application : VirtualDubMod 1.5.10.2 (build 2540/release)
Writing library : VirtualDubMod build 2540/release
Video
ID : 0
Format : MPEG-4 Visual
Format profile : Advanced Simple@L5
Format settings, BVOP : 1
Format settings, QPel : No
Format settings, GMC : No warppoints
Format settings, Matrix : Default (H.263)
Codec ID : XVID
Codec ID/Hint : XviD
Duration : 2h 3mn
Bit rate : 1 476 Kbps
Width : 704 pixels
Height : 400 pixels
Display aspect ratio : 16:9
Frame rate : 25.000 fps
Color space : YUV
Chroma subsampling : 4:2:0
Bit depth : 8 bits
Scan type : Progressive
Compression mode : Lossy
Bits/(Pixel*Frame) : 0.210
Stream size : 1.28 GiB (88%)
Writing library : XviD 1.2.0.dev47 (UTC 2006-11-01)
Audio
ID : 1
Format : AC-3
Format/Info : Audio Coding 3
Mode extension : CM (complete main)
Format settings, Endianness : Big
Codec ID : 2000
Duration : 2h 3mn
Bit rate mode : Constant
Bit rate : 192 Kbps
Channel(s) : 2 channels
Channel positions : Front: L R
Sampling rate : 48.0 KHz
Frame rate : 31.250 fps (1536 spf)
Compression mode : Lossy
Stream size : 170 MiB (11%)
Alignment : Split accross interleaves
Interleave, duration : 40 ms (1.00 video frame)
Interleave, preload duratio : 500 ms.

Скриншоты




[islamvillage.com]_t_5578639.torrent
Торрент: Зарегистрирован ·  [ 2018-06-27 21:57 ] ·  0e3ed9272052e466a74923e0f99a8565e3dec4e9

15 KB

Статус: проверено
Скачан: 0 раз
Размер: 1.45 GB
Оценка: 
(Голосов: 0)
Сказали спасибо: 0  Спасибо
Похожие темы
[Профиль]    [ЛС]
Показать сообщения:    
Ответить на тему

Текущее время: Сегодня 10:10

Часовой пояс: GMT + 7



Вы не можете начинать темы
Вы не можете отвечать на сообщения
Вы не можете редактировать свои сообщения
Вы не можете удалять свои сообщения
Вы не можете голосовать в опросах
Вы не можете прикреплять файлы к сообщениям
Вы можете скачивать файлы


Great Sardaar.2018.Punjabi.1080p.AmazonDl.AVC.DDP.2.0.Telly | Instagram APK | Read More