Подлинная история поручика Ржевского (Ирина Мякишева) [2014, гусарский водевиль, WEB-DLRip] Иркутский областной музыкальный театр имени Н. М. Загурского

Ответить на тему
Статистика раздачи [Обновить пиров]
Размер:  2.17 GB   |    Зарегистрирован:  6 месяцев 20 дней   |    Скачан:  1 раз

Полного источника не было: 2 месяца 24 дня

 
   
 
 
 
Автор Сообщение

islamvillage.com

Создавать темы 27-Июн-2018 21:57

[Цитировать]

Подлинная история поручика Ржевского Название театра: Иркутский областной музыкальный театр имени Н. М. Загурского.
Год выхода: 2014.
Жанр: гусарский водевиль.
Продолжительность: 02:11:31.
Режиссер: Ирина Мякишева.
Действующие лица и исполнители:
Ржевский Александр, гусарский поручик - Станислав Грицких.
Ржевская Елена Андреевна, его матушка, помещица - заслуженная артистка РСФСР Наталья Данилина, Валентина Ермошкина.
Глафира, экономка Ржевских - Ирина Мякишева, Юлия Панченко, Вера Щепеткина.
Оболенский Дмитрий, гусарский корнет - Егор Кириленко, Гейрат Шабанов.
Соколов Михаил Васильевич, приват-доцент - Станислав Чернышев.
Базаров Николай Петрович, обедневший граф, сосед Ржевских - Андрей Данилов (старший).
Базарова Натали, его дочь - Ольга Попова, Инна Жаркова.
Панин Лев Николаевич, отставной гусарский полковник - Владимир Антипов, народный артист России Владимир Яковлев.
Панина Марина Леонидовна, его жена, бывшая актриса - Александра Гаращук, Анна Рыбникова.
Панина Татьяна, его дочь - Евгения Калашникова, Софья Сучкова.
Денщик Ржевского - Виталий Зайцев.
Денщик Оболенского - Роман Винокуров, Роман Лукьянчик, заслуженная артистка России Мария Стрельченко, Сергей Полухин.
О спектакле:
Поручик Ржевский вместе со своим другом корнетом Оболенским возвращается с войны 1812 года в свою деревню, не зная, что корнет, завидуя подвигам поручика, написал о нем книгу баек и анекдотов, которая быстро разошлась по России. В деревне ждут совсем «другого» Ржевского. Отец невесты Ржевского Натали – Базаров, и слышать не хочет о таком женихе. Зато соседка Панина жаждет выдать за поручика свою дочь Татьяну. Комедия положений. В итоге, естественно, счастливый конец.
Дополнительная информация:
Страна: Россия .
Композитор: Владимир Баскин.
Либретто: Олег Солод, Андрей Максимков.
Стихи: И. Бедных.
Дирижер-постановщик: Евгений Зеленцов.
Сценография и костюмы: Наталия Убрятова.
Балетмейстер-постановщик: Дмитрий Устюжанин (Санкт-Петербург).
Хормейстеры: Наталья Ладыгина, Ульяна Чугуевская.

О спектакле и ещё.

Рип sharky.

Качество видео:...WEB-DLRip
Формат файла:.................AVI
Видео:..704x528 (1.33:1), 25 fps, XviD build 47 ~2168 kbps avg, 0.23 bit/pixel
Аудио:..48 kHz, AC3 Dolby Digital, 2/0 (L,R) ch, ~192 kbps

Отчет Media Info

General
Complete name : Podlinnaya.istoriya.porut4ika.Rzhevskogo_Irkutskij.OMT.im.N.M.Zagurskogo.2014.XviD. WEB-DLRip.fenixclub.avi
Format : AVI
Format/Info : Audio Video Interleave
Format profile : OpenDML
File size : 2.17 GiB
Duration : 2h 11mn
Overall bit rate : 2 367 Kbps
Writing application : VirtualDubMod 1.5.10.2 (build 2540/release)
Writing library : VirtualDubMod build 2540/release
Video
ID : 0
Format : MPEG-4 Visual
Format profile : Advanced Simple@L5
Format settings, BVOP : 1
Format settings, QPel : No
Format settings, GMC : No warppoints
Format settings, Matrix : Default (H.263)
Codec ID : XVID
Codec ID/Hint : XviD
Duration : 2h 11mn
Bit rate : 2 163 Kbps
Width : 704 pixels
Height : 528 pixels
Display aspect ratio : 4:3
Frame rate : 25.000 fps
Color space : YUV
Chroma subsampling : 4:2:0
Bit depth : 8 bits
Scan type : Progressive
Compression mode : Lossy
Bits/(Pixel*Frame) : 0.233
Stream size : 1.99 GiB (91%)
Writing library : XviD 1.2.0.dev47 (UTC 2006-11-01)
Audio
ID : 1
Format : AC-3
Format/Info : Audio Coding 3
Mode extension : CM (complete main)
Format settings, Endianness : Big
Codec ID : 2000
Duration : 2h 11mn
Bit rate mode : Constant
Bit rate : 192 Kbps
Channel(s) : 2 channels
Channel positions : Front: L R
Sampling rate : 48.0 KHz
Frame rate : 31.250 fps (1536 spf)
Compression mode : Lossy
Stream size : 181 MiB (8%)
Alignment : Split accross interleaves
Interleave, duration : 40 ms (1.00 video frame)
Interleave, preload duratio : 500 ms.

Скриншоты




[islamvillage.com]_t_5578342.torrent
Торрент: Зарегистрирован ·  [ 2018-06-27 21:57 ] ·  0c77452f4ffd542e836dc096f2cd8158df0353d8

11 KB

Статус: проверено
Скачан: 1 раз
Размер: 2.17 GB
Оценка: 
(Голосов: 0)
Сказали спасибо: 0  Спасибо
Похожие темы
[Профиль]    [ЛС]
Показать сообщения:    
Ответить на тему

Текущее время: Сегодня 09:57

Часовой пояс: GMT + 7



Вы не можете начинать темы
Вы не можете отвечать на сообщения
Вы не можете редактировать свои сообщения
Вы не можете удалять свои сообщения
Вы не можете голосовать в опросах
Вы не можете прикреплять файлы к сообщениям
Вы можете скачивать файлы


Turbo Fast (51) | épisode 15 | regarder Robin des Bois DVDrip