Ангелова кукла (Дмитрий Егоров) [2016, Грузия, моноспектакль, WEB-DLRip] Тбилисский Государственный академический русский драматический театр им. А. С. Грибоедова

Ответить на тему
Статистика раздачи [Обновить пиров]
Размер:  1.46 GB   |    Зарегистрирован:  6 месяцев 20 дней   |    Скачан:  0 раз

Полного источника не было: Никогда

 
   
 
 
 
Автор Сообщение

islamvillage.com

Создавать темы 27-Июн-2018 21:57

[Цитировать]

Ангелова кукла Название театра: Тбилисский Государственный академический русский драматический театр им. А. С. Грибоедова.
Год выхода: 2016.
Страна: Грузия [img]http://a.radikal.ru/a41/1806/df/a7ee49cf0d04.gif[/img].
Жанр: моноспектакль.
Продолжительность: 01:44:42.
Язык: русский.
Режиссер: Дмитрий Егоров.
Исполнительница: Ирина Мегвинетухуцеси.
О спектакле:
Три ленинградские истории в одном действии по рассказам Эдуарда Кочергина.
«Персонажи Кочергина – люди, оказавшиеся «на дне» в 1940-е- 1950-е годы: беспризорники, нищие и проститутки, юродивые и калеки – инвалиды войны и трамваев, с культяпками рук и ног, а то и вовсе живые обрубки - «самовары». Бывшие герои войны, выброшенные на свалку жизни. Спектакль театра имени Грибоедова – первая попытка перенести прозу Кочергина на
сцену… Ирина Мегвинетухуцеси здесь вовсех ролях сразу. Но главная роль - это рассказчик, прошедший через мясорубку той жизни. Линия рассказа никогда не теряется, туда лишь вкрапливаются игровые эпизоды. И они отыгрываются не впрямую, а как бы отраженным светом. Все происходит не здесь и сейчас, а там и тогда. В этой стилистике вполне позволительны мгновенные перевоплощения актрисы, что она точно делает, не выпадая из заданного жанра. Чувство меры и вкуса – отличительная черта этого спектакля. Надо сказать, достаточно редкая в наши дни… Действует спектакль как ушат холодной воды. После показа на встрече с режиссером даже звучало забытое слово «катарсис».
Вера Церетели, театровед.

Дополнительная информация:
Автор: народный художник России Эдуард Кочергин.
Режиссер-постановщик: Дмитрий Егоров.
Идея сценографии: народный художник России Эдуард Кочергин.
Художник-постановщик: Мириан Сагареишвили.
Музыкальное оформление: Дмитрий Егоров, Роберт Мерабов.
Исполнительская редакция: Роберт Мерабов.
[img]http://b.radikal.ru/b36/1806/54/3a308ba46735.jpg[/img]

О спектакле.

Рип sharky.

Качество видео:...WEB-DLRip
Формат файла:.................AVI
Видео:..704x528 (1.33:1), 25 fps, XviD build 47 ~1791 kbps avg, 0.19 bit/pixel
Аудио:..48 kHz, AC3 Dolby Digital, 2/0 (L,R) ch, ~192 kbps

Отчет MI

General
Complete name : Angelova.kukla_Tbilisskij.GARDT.im. A.S.Griboedova.2016.XviD.WEB-DLRip.fenixclub.avi
Format : AVI
Format/Info : Audio Video Interleave
File size : 1.46 GiB
Duration : 1h 44mn
Overall bit rate : 1 994 Kbps
Writing application : VirtualDubMod 1.5.10.2 (build 2540/release)
Writing library : VirtualDubMod build 2540/release
Video
ID : 0
Format : MPEG-4 Visual
Format profile : Advanced Simple@L5
Format settings, BVOP : 1
Format settings, QPel : No
Format settings, GMC : No warppoints
Format settings, Matrix : Default (H.263)
Codec ID : XVID
Codec ID/Hint : XviD
Duration : 1h 44mn
Bit rate : 1 792 Kbps
Width : 704 pixels
Height : 528 pixels
Display aspect ratio : 4:3
Frame rate : 25.000 fps
Color space : YUV
Chroma subsampling : 4:2:0
Bit depth : 8 bits
Scan type : Progressive
Compression mode : Lossy
Bits/(Pixel*Frame) : 0.193
Stream size : 1.31 GiB (90%)
Writing library : XviD 1.2.0.dev47 (UTC 2006-11-01)
Audio
ID : 1
Format : AC-3
Format/Info : Audio Coding 3
Mode extension : CM (complete main)
Format settings, Endianness : Big
Codec ID : 2000
Duration : 1h 44mn
Bit rate mode : Constant
Bit rate : 192 Kbps
Channel(s) : 2 channels
Channel positions : Front: L R
Sampling rate : 48.0 KHz
Frame rate : 31.250 fps (1536 spf)
Compression mode : Lossy
Stream size : 144 MiB (10%)
Alignment : Split accross interleaves
Interleave, duration : 40 ms (1.00 video frame)
Interleave, preload duratio : 500 ms.

Скриншоты




[islamvillage.com]_t_5578313.torrent
Торрент: Зарегистрирован ·  [ 2018-06-27 21:57 ] ·  0fd2d471ab712d711a2085b865c801f05ab4f9f1

15 KB

Статус: проверено
Скачан: 0 раз
Размер: 1.46 GB
Оценка: 
(Голосов: 0)
Сказали спасибо: 0  Спасибо
Похожие темы
[Профиль]    [ЛС]
Показать сообщения:    
Ответить на тему

Текущее время: Сегодня 09:59

Часовой пояс: GMT + 7



Вы не можете начинать темы
Вы не можете отвечать на сообщения
Вы не можете редактировать свои сообщения
Вы не можете удалять свои сообщения
Вы не можете голосовать в опросах
Вы не можете прикреплять файлы к сообщениям
Вы можете скачивать файлы


Industrielle machine coudre navette voiture navette BC-DB1-NBL haute-vitesse de voiture shell navette avec des clats d'obus | Download | Latest Report-Movies & Entertainment: Global Industry Guide