Маги экрана. Экстрасенсы из телевизора (Валерий Белов) [2018, Россия, Документальный, мистика, эзотерика, HDTVRip]

Ответить на тему
Статистика раздачи [Обновить пиров]
Размер:  745 MB   |    Зарегистрирован:  6 месяцев 8 дней   |    Скачан:  0 раз

Полного источника не было: Никогда

 
   
 
 
 
Автор Сообщение

islamvillage.com

Создавать темы 08-Июл-2018 00:43

[Цитировать]

Маги экрана. Экстрасенсы из телевизора
Страна: Россия
Студия: Телеканал "Россия", ВГТРК, ООО «ГОЛД МЕДИУМ»
Жанр: Документальный, мистика, эзотерика
Год выхода: 2018
Продолжительность: 00:43:46
Режиссёр: Валерий Белов
Описание: Настоящая эпидемия возникла в нашей стране в конце 80-х годов прошлого века. Страна оказалась беззащитна перед нашествием колдунов, ворожей и целителей. Они появились словно из ниоткуда и тут же заполонили экраны телевизоров. В той сложной социально-экономической ситуации, когда власть очень многое обещала, народ надеялся на быстрые изменения к лучшему, верил в них и ждал чуда. Только чудо могло мгновенно, как в сказке, изменить жизнь миллионов людей. И власть это интуитивно чувствовала. Вот тут-то и пригодились маги. За них ухватились, как за соломинку. Экстрасенсы из телевизора Анатолий Кашпировский и Аллан Чумак давно уже стали в России именами нарицательными. В этих персонажах для миллионов людей воплотилось все доброе и злое, что принесли в нашу жизнь маги телеэкрана. Джин веры в чудо, выпущенный ими из бутылки в конце 80-х годов XX века, и не собирается возвращаться обратно. Он продолжает вольготно жить на сотнях кабельных и спутниковых каналах. Ведь мы по старинке рады обманываться. Потому и обмануть нас не составляет большого труда. Люди по-прежнему хотят чуда, которое им обещают экстрасенсы из телевизора.
Доп. информация:
Автор релиза -
Источник для рипа - HDTV 1080i TS - моя запись с канала Россия-1 HD
Сэмпл: http://yadi.sk/i/_mwP--Gk3Y4mJn

Рекламы нет!
Качество видео: HDTVRip
Формат файла: AVI
Видео: XviD, 720x400 (16:9), 25.000 fps, 2178 kbps, 0.302 bit/pixel
Аудио: Русский AC3, 48000 Гц, 2ch, 192 kbps

MediaInfo

ОбщееПолное имя : D:\Маги.экрана.2018.HDTVRip-ylnian.aviФормат файла : AVIФормат файла/Информация : Audio Video InterleaveРазмер файла : 745 МбайтПродолжительность : 43 м. 46 с.Общий поток : 2379 Кбит/секПрограмма кодирования : VirtualDubMod 1.5.10.3 | www.virtualdub-fr.org || (build 2550/release)Библиотека кодирования : VirtualDubMod build 2550/release
ВидеоИдентификатор : 0Формат файла : MPEG-4 VisualПрофиль формата : Advanced Simple@L5Настройки формата : BVOP1Параметр BVOP формата : 1Параметр QPel формата : НетПараметр GMC формата : Без точки переходаПараметр матрицы формата : Default (MPEG)Идентификатор кодека : XVIDИдентификатор кодека/Подсказка : XviDПродолжительность : 43 м. 46 с.Битрейт : 2178 Кбит/секШирина : 720 пикселейВысота : 400 пикселейСоотношение сторон : 16:9Частота кадров : 25,000 кадров/секЦветовое пространство : YUVСубдискретизация насыщенности : 4:2:0Битовая глубина : 8 битТип развёртки : ПрогрессивнаяМетод сжатия : С потерямиБит/(Пиксели*Кадры) : 0.302Размер потока : 682 Мбайт (92%)Библиотека кодирования : XviD 67
АудиоИдентификатор : 1Формат файла : AC-3Формат файла/Информация : Audio Coding 3Идентификатор кодека : 2000Продолжительность : 43 м. 46 с.Вид битрейта : ПостоянныйБитрейт : 192 Кбит/секКаналы : 2 каналаРасположение каналов : Front: L RЧастота : 48,0 КГцЧастота кадров : 31,250 кадров/сек (1536 SPF)Битовая глубина : 16 битМетод сжатия : С потерямиРазмер потока : 60,1 Мбайт (8%)Выравнивание : Разделение по промежуткамПродолжительность промежутка : 40 мс. (1,00 видеокадр)Время предзагрузки промежутка : 500 мс.ServiceKind/String : Complete Main


[islamvillage.com]_t_5576231.torrent
Торрент: Зарегистрирован ·  [ 2018-07-08 00:41 ] ·  88601ea83e105ccca65746874a5744beb5b75365

15 KB

Статус: проверено
Скачан: 0 раз
Размер: 745 MB
Оценка: 
(Голосов: 0)
Сказали спасибо: 0  Спасибо
Похожие темы
[Профиль]    [ЛС]
Показать сообщения:    
Ответить на тему

Текущее время: Сегодня 18:51

Часовой пояс: GMT + 7



Вы не можете начинать темы
Вы не можете отвечать на сообщения
Вы не можете редактировать свои сообщения
Вы не можете удалять свои сообщения
Вы не можете голосовать в опросах
Вы не можете прикреплять файлы к сообщениям
Вы можете скачивать файлы


Telécharger | DELL LAPTOP WINDOWS 10 PC Core i5 2.4Ghz 4GB RAM WiFi DVDRW NOTEBOOK 250GB HD$144 18d left | Watch Movie