(Ska Punk / Reggae / Hip-Hop / Rock) [CD] Sonic Boom Six - The F-Bomb - 2016, FLAC (tracks+.cue), lossless

Ответить на тему
Статистика раздачи [Обновить пиров]
Размер:  265 MB   |    Зарегистрирован:  6 месяцев 4 дня   |    Скачан:  0 раз

Полного источника не было: Никогда

 
   
 
 
 
Автор Сообщение

islamvillage.com

Создавать темы 11-Июл-2018 22:54

[Цитировать]

Sonic Boom Six / The F-Bomb
Жанр: Ska Punk / Reggae / Hip-Hop / Rock
Носитель: CD
Год издания: 2016
Издатель (лейбл): Rebel Alliance Recordings
Номер по каталогу: REBL020
Страна исполнителя (группы): UK
Аудиокодек: FLAC (*.flac)
Тип рипа: tracks+.cue
Битрейт аудио: lossless
Продолжительность: 00:37:29
Источник (релизер): WEB
Наличие сканов в содержимом раздачи: нет
Треклист:
01. Sonic Boom Six - No Man, No Right [2:46]
02. Sonic Boom Six - From the Fire to the Frying Pan [3:48]
03. Sonic Boom Six - Do What You Wanna Do [3:12]
04. Sonic Boom Six - Drop the Bass (and Pick It Up) [4:31]
05. Sonic Boom Six - Train Leaves Tomorrow [3:24]
06. Sonic Boom Six - L.O.V.E. [3:22]
07. Sonic Boom Six - Worship Yourself [2:52]
08. Sonic Boom Six - Joanna [3:52]
09. Sonic Boom Six - All the Same to Me [3:01]
10. Sonic Boom Six - Echoes in the Dark [6:41]

Лог создания рипа

Exact Audio Copy V1.3 from 2. September 2016
EAC extraction logfile from 8. July 2018, 23:34
Sonic Boom Six / The F-Bomb
Used drive : Optiarc DVD RW AD-7200A Adapter: 1 ID: 0
Read mode : SecureUtilize accurate stream : YesDefeat audio cache : YesMake use of C2 pointers : No
Read offset correction : 48Overread into Lead-In and Lead-Out : NoFill up missing offset samples with silence : YesDelete leading and trailing silent blocks : NoNull samples used in CRC calculations : YesUsed interface : Native Win32 interface for Win NT & 2000Gap handling : Appended to previous track
Used output format : User Defined EncoderSelected bitrate : 1024 kBit/sQuality : HighAdd ID3 tag : NoCommand line compressor : C:\Program Files (x86)\Exact Audio Copy\Flac\flac.exeAdditional command line options : -8 -V -T "ARTIST=%artist%" -T "TITLE=%title%" -T "ALBUM=%albumtitle%" -T "DATE=%year%" -T "TRACKNUMBER=%tracknr%" -T "GENRE=%genre%" -T "COMMENT=%comment%" -T "BAND=%albuminterpret%" -T "ALBUMARTIST=%albuminterpret%" -T "COMPOSER=%composer%" %haslyrics%--tag-from-file=LYRICS="%lyricsfile%"%haslyrics% -T "TOTALTRACKS=%numtracks%" %hascover%--picture="%coverfile%"%hascover% %source% -o %dest%
TOC of the extracted CD
Track | Start | Length | Start sector | End sector --------------------------------------------------------- 1 | 0:00.00 | 2:46.16 | 0 | 12465 2 | 2:46.16 | 3:48.26 | 12466 | 29591 3 | 6:34.42 | 3:12.23 | 29592 | 44014 4 | 9:46.65 | 4:30.62 | 44015 | 64326 5 | 14:17.52 | 3:24.11 | 64327 | 79637 6 | 17:41.63 | 3:21.62 | 79638 | 94774 7 | 21:03.50 | 2:51.67 | 94775 | 107666 8 | 23:55.42 | 3:51.57 | 107667 | 125048 9 | 27:47.24 | 3:00.54 | 125049 | 138602 10 | 30:48.03 | 6:40.51 | 138603 | 168653
Track 1
Filename C:\music\Sonic Boom Six - The F-Bomb (2016)\01 No Man, No Right.wav
Pre-gap length 0:00:02.00
Peak level 92.5 % Extraction speed 3.7 X Track quality 100.0 % Test CRC 25A0214C Copy CRC 25A0214C Accurately ripped (confidence 2) [EB08C31B] (AR v2) Copy OK
Track 2
Filename C:\music\Sonic Boom Six - The F-Bomb (2016)\02 From the Fire to the Frying Pan.wav
Peak level 92.5 % Extraction speed 3.6 X Track quality 100.0 % Test CRC 38397C7C Copy CRC 38397C7C Accurately ripped (confidence 2) [E7C8DD0F] (AR v2) Copy OK
Track 3
Filename C:\music\Sonic Boom Six - The F-Bomb (2016)\03 Do What You Wanna Do.wav
Peak level 92.5 % Extraction speed 4.1 X Track quality 100.0 % Test CRC 7660B010 Copy CRC 7660B010 Accurately ripped (confidence 2) [D8DD2ED6] (AR v2) Copy OK
Track 4
Filename C:\music\Sonic Boom Six - The F-Bomb (2016)\04 Drop the Bass (and Pick It Up).wav
Peak level 92.5 % Extraction speed 4.0 X Track quality 100.0 % Test CRC 7DE171DA Copy CRC 7DE171DA Accurately ripped (confidence 2) [C22CB411] (AR v2) Copy OK
Track 5
Filename C:\music\Sonic Boom Six - The F-Bomb (2016)\05 Train Leaves Tomorrow.wav
Peak level 92.5 % Extraction speed 3.7 X Track quality 99.9 % Test CRC D0976DE5 Copy CRC D0976DE5 Accurately ripped (confidence 2) [7DE6EF3F] (AR v2) Copy OK
Track 6
Filename C:\music\Sonic Boom Six - The F-Bomb (2016)\06 L.O.V.E..wav
Peak level 92.5 % Extraction speed 3.8 X Track quality 99.9 % Test CRC 5E0432E5 Copy CRC 5E0432E5 Accurately ripped (confidence 2) [34F6A346] (AR v2) Copy OK
Track 7
Filename C:\music\Sonic Boom Six - The F-Bomb (2016)\07 Worship Yourself.wav
Peak level 92.5 % Extraction speed 5.0 X Track quality 100.0 % Test CRC 9824FE5C Copy CRC 9824FE5C Accurately ripped (confidence 2) [B240E2AB] (AR v2) Copy OK
Track 8
Filename C:\music\Sonic Boom Six - The F-Bomb (2016)\08 Joanna.wav
Peak level 92.5 % Extraction speed 4.1 X Track quality 99.9 % Test CRC 5BB9C957 Copy CRC 5BB9C957 Accurately ripped (confidence 2) [6791B1A5] (AR v2) Copy OK
Track 9
Filename C:\music\Sonic Boom Six - The F-Bomb (2016)\09 All the Same to Me.wav
Peak level 92.5 % Extraction speed 5.3 X Track quality 100.0 % Test CRC 1CFC6FC1 Copy CRC 1CFC6FC1 Accurately ripped (confidence 2) [90E7149D] (AR v2) Copy OK
Track 10
Filename C:\music\Sonic Boom Six - The F-Bomb (2016)\10 Echoes in the Dark.wav
Peak level 92.5 % Extraction speed 3.1 X Track quality 99.8 % Test CRC 0AB87ED9 Copy CRC 0AB87ED9 Accurately ripped (confidence 2) [4A1221AA] (AR v2) Copy OK
All tracks accurately ripped
No errors occurred
End of status report
---- CUETools DB Plugin V2.1.6
[CTDB TOCID: RiRVM9452aR8lQCBMB6.dPNX6bQ-] foundSubmit result: RiRVM9452aR8lQCBMB6.dPNX6bQ- has been confirmedTrack | CTDB Status 1 | (9/9) Accurately ripped 2 | (9/9) Accurately ripped 3 | (9/9) Accurately ripped 4 | (9/9) Accurately ripped 5 | (9/9) Accurately ripped 6 | (9/9) Accurately ripped 7 | (9/9) Accurately ripped 8 | (9/9) Accurately ripped 9 | (9/9) Accurately ripped 10 | (9/9) Accurately ripped
==== Log checksum F802E1244E111FC5DD4D2CE987DA6DE31BCE282C57C7A7BC0B36287F52DCDAF0 ====

Содержание индексной карты (.CUE)

REM GENRE "Punk Rock"REM DATE 2016REM DISCID 9908C80AREM COMMENT "ExactAudioCopy v1.3"PERFORMER "Sonic Boom Six"TITLE "The F-Bomb"REM COMPOSER ""FILE "01 No Man, No Right.wav" WAVE TRACK 01 AUDIO TITLE "No Man, No Right" PERFORMER "Sonic Boom Six" REM COMPOSER "" INDEX 01 00:00:00FILE "02 From the Fire to the Frying Pan.wav" WAVE TRACK 02 AUDIO TITLE "From the Fire to the Frying Pan" PERFORMER "Sonic Boom Six" REM COMPOSER "" INDEX 01 00:00:00FILE "03 Do What You Wanna Do.wav" WAVE TRACK 03 AUDIO TITLE "Do What You Wanna Do" PERFORMER "Sonic Boom Six" REM COMPOSER "" INDEX 01 00:00:00FILE "04 Drop the Bass (and Pick It Up).wav" WAVE TRACK 04 AUDIO TITLE "Drop the Bass (and Pick It Up)" PERFORMER "Sonic Boom Six" REM COMPOSER "" INDEX 01 00:00:00FILE "05 Train Leaves Tomorrow.wav" WAVE TRACK 05 AUDIO TITLE "Train Leaves Tomorrow" PERFORMER "Sonic Boom Six" REM COMPOSER "" INDEX 01 00:00:00FILE "06 L.O.V.E..wav" WAVE TRACK 06 AUDIO TITLE "L.O.V.E." PERFORMER "Sonic Boom Six" REM COMPOSER "" INDEX 01 00:00:00FILE "07 Worship Yourself.wav" WAVE TRACK 07 AUDIO TITLE "Worship Yourself" PERFORMER "Sonic Boom Six" REM COMPOSER "" INDEX 01 00:00:00FILE "08 Joanna.wav" WAVE TRACK 08 AUDIO TITLE "Joanna" PERFORMER "Sonic Boom Six" REM COMPOSER "" INDEX 01 00:00:00FILE "09 All the Same to Me.wav" WAVE TRACK 09 AUDIO TITLE "All the Same to Me" PERFORMER "Sonic Boom Six" REM COMPOSER "" INDEX 01 00:00:00FILE "10 Echoes in the Dark.wav" WAVE TRACK 10 AUDIO TITLE "Echoes in the Dark" PERFORMER "Sonic Boom Six" REM COMPOSER "" INDEX 01 00:00:00

Лог проверки качества

CUE Corrector v. 8.3.4 / b. 863 (Jul. 06, 2018)————————————————————————————————————————————————————————————————————————Sonic Boom Six / The F-Bomb
CUE file: Sonic Boom Six - The F-Bomb FLAC.cueAudio files: 01 No Man, No Right.flac [02:46.213; FLAC • 986 kbps • 16 bit \ 44100 Hz • stereo; 19.54 MB (20 488 746 B)] 02 From the Fire to the Frying Pan.flac [03:48.347; FLAC • 941 kbps • 16 bit \ 44100 Hz • stereo; 25.62 MB (26 865 939 B)] 03 Do What You Wanna Do.flac [03:12.307; FLAC • 1050 kbps • 16 bit \ 44100 Hz • stereo; 24.08 MB (25 254 575 B)] 04 Drop the Bass (and Pick It Up).flac [04:30.827; FLAC • 1000 kbps • 16 bit \ 44100 Hz • stereo; 32.31 MB (33 882 570 B)] 05 Train Leaves Tomorrow.flac [03:24.147; FLAC • 953 kbps • 16 bit \ 44100 Hz • stereo; 23.21 MB (24 342 208 B)] 06 L.O.V.E..flac [03:21.827; FLAC • 1005 kbps • 16 bit \ 44100 Hz • stereo; 24.19 MB (25 364 218 B)] 07 Worship Yourself.flac [02:51.893; FLAC • 1052 kbps • 16 bit \ 44100 Hz • stereo; 21.57 MB (22 620 318 B)] 08 Joanna.flac [03:51.760; FLAC • 956 kbps • 16 bit \ 44100 Hz • stereo; 26.43 MB (27 716 526 B)] 09 All the Same to Me.flac [03:00.720; FLAC • 1034 kbps • 16 bit \ 44100 Hz • stereo; 22.29 MB (23 373 821 B)] 10 Echoes in the Dark.flac [06:40.680; FLAC • 958 kbps • 16 bit \ 44100 Hz • stereo; 45.78 MB (48 003 956 B)]
Accuracy: -m0
Track 01 - No Man, No Right - 99% CDDA [02:46:16]Track 02 - From the Fire to the Frying Pan - 100% CDDA [03:48:26]Track 03 - Do What You Wanna Do - 99% CDDA [03:12:23]Track 04 - Drop the Bass (and Pick It Up) - 100% CDDA [04:30:62]Track 05 - Train Leaves Tomorrow - 100% CDDA [03:24:11]Track 06 - L.O.V.E. - 100% CDDA [03:21:62]Track 07 - Worship Yourself - 99% CDDA [02:51:67]Track 08 - Joanna - 100% CDDA [03:51:57]Track 09 - All the Same to Me - 100% CDDA [03:00:54]Track 10 - Echoes in the Dark - 100% CDDA [06:40:51]————— Summary: —————These tracks looks like CDDA with probability 100%.————————————————————————————————————————————————————————————————————————
ANALYZER: auCDtect: CD records authenticity detector, version 0.8.2 Copyright (c) 2004 Oleg Berngardt. All rights reserved. Copyright (c) 2004 Alexander Djourik. All rights reserved.
Time elapsed: 2 m 34 sLog created at July 08, 2018 23:47:40
=== 75AA8E5EDDD9C69559D9F1153B5E3BDA44B7AF7087F78FBFC7C700349A6BCCDE ===

Скриншот спектра частот



[islamvillage.com]_t_5584954.torrent
Торрент: Зарегистрирован ·  [ 2018-07-11 22:51 ] ·  99284ff3a85eda8baf805658bd24d360382ba0f8

12 KB

Статус: проверено
Скачан: 0 раз
Размер: 265 MB
Оценка: 
(Голосов: 0)
Сказали спасибо: 0  Спасибо
Похожие темы
[Профиль]    [ЛС]
Показать сообщения:    
Ответить на тему

Текущее время: Сегодня 15:33

Часовой пояс: GMT + 7



Вы не можете начинать темы
Вы не можете отвечать на сообщения
Вы не можете редактировать свои сообщения
Вы не можете удалять свои сообщения
Вы не можете голосовать в опросах
Вы не можете прикреплять файлы к сообщениям
Вы можете скачивать файлы


Richard Long | Download | Business Communication - 44188 Words